osu file format v14

[General]
AudioFilename: audio.ogg
AudioLeadIn: 0
PreviewTime: 21188
Countdown: 0
SampleSet: Soft
StackLeniency: 0.7
Mode: 0
LetterboxInBreaks: 0
WidescreenStoryboard: 1

[Editor]
Bookmarks: 110927,127623,146406,167275
DistanceSpacing: 1
BeatDivisor: 4
GridSize: 8
TimelineZoom: 1.3

[Metadata]
Title:He Said She Said
TitleUnicode:He Said She Said
Artist:Ashley Tisdale
ArtistUnicode:Ashley Tisdale
Creator:AJT
Version:Hard
Source:
Tags:english r&b rnb pop headstrong
BeatmapID:4135950
BeatmapSetID:1988729

[Difficulty]
HPDrainRate:4
CircleSize:3.5
OverallDifficulty:6
ApproachRate:7
SliderMultiplier:2.2
SliderTickRate:1

[Events]
//Background and Video events
0,0,"bg.jpg",0,0
Video,-250,"video.avi"
//Break Periods
2,56916,57643
2,59003,59729
2,110977,118425
//Storyboard Layer 0 (Background)
//Storyboard Layer 1 (Fail)
//Storyboard Layer 2 (Pass)
//Storyboard Layer 3 (Foreground)
//Storyboard Layer 4 (Overlay)
//Storyboard Sound Samples

[TimingPoints]
370,521.739130434783,4,2,1,60,1,0
4543,521.739130434783,4,2,1,60,1,0
21238,-86.9565217391304,4,2,1,75,0,1
37934,-100,4,2,1,60,0,0
54043,-100,4,2,1,5,0,0
54108,-100,4,2,1,60,0,0
54629,-100,4,2,1,60,0,1
56716,-100,4,2,1,60,0,0
65521,-100,4,2,1,5,0,0
65586,-100,4,2,1,60,0,0
66825,-100,4,2,1,5,0,0
66890,-100,4,2,1,60,0,0
73412,-86.9565217391304,4,2,1,75,0,1
90108,-100,4,2,1,60,0,0
106216,-100,4,2,1,5,0,0
106282,-100,4,2,1,60,0,0
106803,-100,4,2,1,60,0,1
108890,-100,4,2,1,60,0,0
119260,-100,4,2,1,5,0,0
119325,-100,4,2,1,60,0,0
127673,-86.9565217391304,4,2,1,75,0,1
142282,-100,4,2,1,60,0,0
144369,-100,4,2,1,60,0,1
146456,-100,4,2,1,60,0,0
163151,-100,4,2,1,60,0,1
167325,-100,4,2,1,60,0,0

[Colours]
Combo1 : 255,208,68
Combo2 : 255,128,64
Combo3 : 213,106,0
Combo4 : 192,192,192

[HitObjects]
256,192,370,12,2,2978,0:0:0:0:
0,98,3761,6,0,P|103:111|338:153,1,330,2|4,0:0|1:2,0:0:0:0:
389,239,4803,1,8,0:2:0:0:
494,200,5064,1,8,0:1:0:0:
494,200,5195,2,0,P|503:170|507:133,2,55,2|8|8,0:0|0:2|0:2,0:0:0:0:
389,239,5716,2,0,P|398:269|402:306,1,55,8|0,0:2|1:0,0:0:0:0:
330,377,6108,1,8,0:1:0:0:
222,351,6369,1,0,1:0:0:0:
348,270,6629,2,0,P|341:226|326:138,1,110,0|8,1:0|0:2,0:0:0:0:
431,58,7151,5,8,0:1:0:0:
431,58,7282,2,0,P|461:49|498:45,2,55,2|8|8,0:0|0:2|0:2,0:0:0:0:
353,119,7803,2,0,P|323:110|286:106,1,55,8|0,0:2|1:0,0:0:0:0:
219,182,8195,2,0,P|228:212|242:322,2,110,8|0|0,0:1|1:0|1:0,0:0:0:0:
150,96,8977,5,8,0:2:0:0:
227,18,9238,1,8,0:1:0:0:
227,18,9369,1,2,0:0:0:0:
227,18,9499,2,0,P|257:9|294:5,1,55,8|8,0:2|0:2,0:0:0:0:
379,64,9890,1,8,0:2:0:0:
379,64,10021,2,0,P|359:106|329:197,2,110,0|8|0,1:0|0:1|1:0,0:0:0:0:
481,103,10803,6,0,P|461:145|431:236,1,110,0|8,1:0|0:2,0:0:0:0:
359,279,11325,2,0,P|316:259|225:229,1,110,8|8,0:1|0:2,0:0:0:0:
136,318,11847,1,2,0:0:0:0:
261,282,12108,1,0,1:0:0:0:
239,167,12369,2,0,P|225:270|205:396,1,220,8|0,0:1|1:0,0:0:0:0:
338,384,13151,5,8,0:2:0:0:
272,309,13412,1,8,0:1:0:0:
272,309,13543,1,2,0:0:0:0:
272,309,13673,2,0,P|263:279|259:242,1,55,10|10,0:2|0:2,0:0:0:0:
239,152,14064,1,10,0:2:0:0:
239,152,14195,2,0,P|246:98|272:40,1,110,2|8,1:2|0:1,0:0:0:0:
374,20,14716,1,0,1:0:0:0:
470,72,14977,1,0,1:0:0:0:
473,182,15238,5,8,0:2:0:0:
400,263,15499,1,8,0:1:0:0:
400,263,15630,1,2,0:0:0:0:
400,263,15760,2,0,P|370:272|333:276,1,55,10|10,0:2|0:2,0:0:0:0:
243,296,16151,1,10,0:2:0:0:
243,296,16282,2,0,P|189:288|131:262,1,110,2|8,1:2|0:1,0:0:0:0:
89,168,16803,2,0,P|96:114|122:56,1,110,0|0,1:0|1:0,0:0:0:0:
226,40,17325,5,8,0:2:0:0:
334,77,17586,1,8,0:1:0:0:
334,77,17717,1,2,0:0:0:0:
334,77,17847,2,0,P|343:107|347:144,1,55,10|10,0:2|0:2,0:0:0:0:
325,234,18238,1,10,0:2:0:0:
325,234,18369,1,2,1:2:0:0:
229,288,18630,2,0,P|164:274|109:253,1,110,8|0,0:1|1:0,0:0:0:0:
0,384,19151,6,0,P|19:341|49:250,3,110,0|8|8|10,1:0|0:2|0:1|0:2,0:0:0:0:
94,158,20195,1,2,0:0:0:0:
220,205,20456,1,2,1:2:0:0:
242,320,20717,2,0,P|256:217|276:91,1,220,2|4,0:0|1:2,0:0:0:0:
317,15,21499,5,8,0:2:0:0:
317,15,21630,1,8,0:2:0:0:
317,15,21760,2,0,P|347:6|384:2,2,63.250001206398,8|2|8,0:1|0:0|0:2,0:0:0:0:
430,125,22282,1,2,0:0:0:0:
430,125,22413,1,8,0:2:0:0:
430,125,22543,2,0,P|400:134|295:148,2,126.500002412796,0|8|2,1:0|0:1|1:0,0:0:0:0:
512,35,23325,1,2,1:0:0:0:
502,173,23586,5,8,0:2:0:0:
502,173,23717,1,8,0:2:0:0:
502,173,23847,2,0,P|472:164|435:160,2,63.250001206398,8|2|8,0:1|0:0|0:2,0:0:0:0:
389,283,24369,1,2,0:0:0:0:
389,283,24500,1,10,0:2:0:0:
389,283,24630,2,0,P|419:292|524:306,2,126.500002412796,0|8|2,1:0|0:1|1:0,0:0:0:0:
293,208,25412,1,2,1:0:0:0:
209,371,25673,5,8,0:2:0:0:
209,371,25804,1,8,0:2:0:0:
209,371,25934,2,0,P|179:380|142:384,2,63.250001206398,8|2|8,0:1|0:0|0:2,0:0:0:0:
96,261,26456,1,2,0:0:0:0:
96,261,26587,1,8,0:2:0:0:
96,261,26717,2,0,P|126:252|231:238,2,126.500002412796,0|8|2,1:0|0:1|1:0,0:0:0:0:
0,384,27499,1,2,1:0:0:0:
61,234,27760,6,0,P|70:204|74:167,1,63.250001206398,8|8,0:2|0:2,0:0:0:0:
104,167,28021,2,0,P|113:137|117:100,1,63.250001206398,8|2,0:1|0:0,0:0:0:0:
155,87,28282,2,0,P|164:57|168:20,1,63.250001206398,8|8,0:2|0:2,0:0:0:0:
216,0,28543,2,0,P|278:7|339:23,1,126.500002412796,2|2,0:1|1:0,0:0:0:0:
423,117,29064,2,0,P|416:179|400:240,1,126.500002412796,10|2,0:1|1:0,0:0:0:0:
320,340,29586,1,0,1:2:0:0:
440,384,29847,6,0,P|471:380|501:371,8,63.250001206398,8|8|8|2|8|8|2|8|0,0:2|0:2|0:1|0:0|0:2|0:2|0:0|0:2|1:0,0:0:0:0:
320,340,31151,2,0,P|257:327|185:317,2,126.500002412796,8|2|2,0:1|1:0|1:0,0:0:0:0:
440,384,31934,6,0,P|471:380|501:371,8,63.250001206398,8|8|8|2|8|8|2|8|0,0:2|0:2|0:1|0:0|0:2|0:2|0:0|0:2|1:0,0:0:0:0:
268,306,33239,2,0,P|205:293|133:283,2,126.500002412796,8|2|2,0:1|1:0|1:0,0:0:0:0:
440,384,34021,6,0,P|471:380|501:371,8,63.250001206398,8|8|8|0|8|8|2|8|0,0:2|0:2|0:1|0:0|0:2|0:2|0:0|0:2|1:0,0:0:0:0:
219,271,35326,2,0,P|156:258|84:248,2,126.500002412796,8|2|2,0:1|1:1|0:1,0:0:0:0:
355,41,36891,5,2,0:2:0:0:
331,164,37151,1,2,0:1:0:0:
226,174,37412,1,8,0:1:0:0:
249,297,37672,1,2,1:0:0:0:
360,324,37934,6,0,P|260:351|129:376,1,220,4|8,1:2|0:1,0:0:0:0:
11,198,38977,1,2,0:0:0:0:
119,219,39238,1,0,1:0:0:0:
213,161,39499,1,8,0:1:0:0:
250,57,39760,1,0,1:0:0:0:
501,186,40282,5,2,0:0:0:0:
393,165,40543,1,8,0:1:0:0:
299,223,40804,1,2,0:0:0:0:
278,331,41064,1,2,0:0:0:0:
299,223,41325,1,0,1:0:0:0:
241,129,41586,1,8,0:1:0:0:
137,92,41847,1,0,1:0:0:0:
27,80,42108,1,0,1:0:0:0:
67,182,42369,5,2,0:0:0:0:
191,158,42630,1,8,0:1:0:0:
299,225,42891,1,2,0:0:0:0:
323,349,43151,1,2,0:0:0:0:
299,225,43412,1,0,1:0:0:0:
365,117,43673,1,8,0:1:0:0:
485,75,43934,2,0,P|496:129|504:200,1,110,0|0,1:0|1:0,0:0:0:0:
256,192,44325,12,4,46282,1:2:0:0:
264,288,46543,5,2,0:0:0:0:
385,376,46803,2,0,P|414:285|436:146,1,220,8|2,0:1|0:0,0:0:0:0:
377,67,47586,1,0,1:0:0:0:
273,29,47847,1,8,0:1:0:0:
163,23,48108,1,0,1:0:0:0:
61,66,48369,1,0,1:0:0:0:
16,166,48629,6,0,P|27:219|41:272,1,110,2|8,0:0|0:1,0:0:0:0:
100,365,49151,1,2,0:0:0:0:
171,281,49412,1,2,0:0:0:0:
268,331,49673,1,0,1:0:0:0:
318,233,49934,1,8,0:1:0:0:
406,299,50195,2,0,P|417:245|431:192,1,110,0|0,1:0|1:0,0:0:0:0:
512,71,50716,5,2,0:0:0:0:
441,155,50977,1,8,0:1:0:0:
344,105,51238,1,2,0:0:0:0:
294,203,51499,1,2,0:0:0:0:
211,130,51760,1,0,1:0:0:0:
114,180,52021,1,8,0:1:0:0:
64,82,52282,1,0,1:0:0:0:
160,30,52543,5,0,1:0:0:0:
160,30,52803,1,2,0:0:0:0:
160,30,53064,1,8,0:1:0:0:
160,30,53325,1,2,0:0:0:0:
160,30,53586,1,2,0:0:0:0:
160,30,53847,1,0,1:0:0:0:
160,30,54108,1,8,0:1:0:0:
160,30,54369,1,0,1:0:0:0:
211,130,54629,5,2,0:1:0:0:
429,157,55151,1,2,0:1:0:0:
253,290,55673,1,2,0:1:0:0:
452,381,56195,2,0,P|457:311|479:141,1,220,2|4,0:1|1:2,0:0:0:0:
452,381,58543,6,0,P|454:346|465:261,1,110,0|0,1:0|1:0,0:0:0:0:
452,381,60629,6,0,P|454:346|465:261,1,110,0|0,1:0|1:0,0:0:0:0:
383,196,61151,5,8,0:2:0:0:
321,289,61412,1,8,0:1:0:0:
321,289,61543,1,2,0:0:0:0:
321,289,61673,2,0,P|291:298|254:302,1,55,8|8,0:2|0:2,0:0:0:0:
137,367,62064,1,8,0:2:0:0:
137,367,62195,2,0,P|94:348|2:321,2,110,0|8|0,1:0|0:1|1:0,0:0:0:0:
219,287,62977,6,0,P|227:241|232:145,1,110,0|8,1:0|0:2,0:0:0:0:
334,109,63499,2,0,P|338:62|335:-33,1,110,8|8,0:1|0:2,0:0:0:0:
193,20,64021,1,2,0:0:0:0:
251,102,64282,1,0,1:0:0:0:
121,134,64543,1,8,0:1:0:0:
243,158,64803,1,0,1:0:0:0:
304,250,65064,1,0,1:0:0:0:
310,384,65325,5,8,0:2:0:0:
376,309,65586,1,8,0:1:0:0:
376,309,65717,1,2,0:0:0:0:
376,309,65847,2,0,P|385:279|389:242,1,55,10|10,0:2|0:2,0:0:0:0:
409,152,66238,1,10,0:2:0:0:
409,152,66369,2,0,P|402:98|376:40,2,110,2|8|0,1:2|0:1|1:0,0:0:0:0:
512,198,67151,1,0,1:0:0:0:
497,72,67412,5,8,0:2:0:0:
380,47,67673,1,8,0:1:0:0:
380,47,67804,1,2,0:0:0:0:
380,47,67934,2,0,P|348:49|312:58,1,55,10|10,0:2|0:2,0:0:0:0:
222,72,68325,1,10,0:2:0:0:
222,72,68456,2,0,P|174:98|129:143,1,110,2|8,1:2|0:1,0:0:0:0:
124,247,68977,2,0,P|149:294|194:339,1,110,0|0,1:0|1:0,0:0:0:0:
366,384,69499,5,8,0:2:0:0:
258,347,69760,1,8,0:1:0:0:
258,347,69891,1,2,0:0:0:0:
258,347,70021,2,0,P|249:317|245:280,1,55,10|10,0:2|0:2,0:0:0:0:
267,190,70412,1,10,0:2:0:0:
267,190,70543,1,2,1:2:0:0:
363,136,70804,2,0,P|428:150|483:171,1,110,8|0,0:1|1:0,0:0:0:0:
456,280,71325,6,0,P|475:323|505:414,3,110,0|8|8|10,1:0|0:2|0:1|0:2,0:0:0:0:
375,368,72369,1,2,0:0:0:0:
370,334,72499,1,10,0:2:0:0:
393,294,72629,1,2,1:2:0:0:
512,233,72891,2,0,P|406:252|283:267,1,220,2|4,0:0|1:2,0:0:0:0:
208,188,73673,5,8,0:2:0:0:
208,188,73804,1,8,0:2:0:0:
208,188,73934,2,0,P|199:158|195:121,1,63.250001206398,8|2,0:1|0:0,0:0:0:0:
238,79,74195,1,8,0:2:0:0:
136,22,74456,1,2,0:0:0:0:
136,22,74587,1,8,0:2:0:0:
136,22,74717,2,0,P|106:13|1:-1,2,126.500002412796,0|8|2,1:0|0:1|1:0,0:0:0:0:
289,58,75499,1,2,1:0:0:0:
208,196,75760,5,8,0:2:0:0:
208,196,75891,1,8,0:2:0:0:
208,196,76021,2,0,P|199:226|195:263,1,63.250001206398,8|2,0:1|0:0,0:0:0:0:
238,305,76282,1,8,0:2:0:0:
136,362,76543,1,2,0:0:0:0:
136,362,76674,1,8,0:2:0:0:
136,362,76804,2,0,P|106:371|1:385,2,126.500002412796,0|8|2,1:0|0:1|1:0,0:0:0:0:
292,332,77586,1,2,1:0:0:0:
304,188,77847,5,8,0:2:0:0:
304,188,77978,1,8,0:2:0:0:
304,188,78108,2,0,P|313:158|317:121,1,63.250001206398,8|2,0:1|0:0,0:0:0:0:
274,79,78369,1,8,0:2:0:0:
376,22,78630,1,2,0:0:0:0:
376,22,78761,1,8,0:2:0:0:
376,22,78891,2,0,P|406:13|511:-1,2,126.500002412796,0|8|2,1:0|0:1|1:0,0:0:0:0:
287,145,79673,1,2,1:0:0:0:
451,150,79934,6,0,P|442:180|438:217,1,63.250001206398,8|8,0:2|0:2,0:0:0:0:
408,217,80195,2,0,P|399:247|395:284,1,63.250001206398,8|2,0:1|0:0,0:0:0:0:
357,297,80456,1,8,0:2:0:0:
344,358,80586,1,8,0:2:0:0:
296,384,80717,2,0,P|234:377|173:361,1,126.500002412796,2|2,0:1|1:0,0:0:0:0:
89,267,81238,1,10,0:1:0:0:
112,143,81498,1,2,1:0:0:0:
192,44,81760,1,0,1:2:0:0:
72,0,82021,6,0,P|41:4|11:13,8,63.250001206398,8|8|8|2|8|8|2|8|0,0:2|0:2|0:1|0:0|0:2|0:2|0:0|0:2|1:0,0:0:0:0:
192,44,83325,2,0,P|255:57|327:67,2,126.500002412796,8|2|2,0:1|1:0|1:0,0:0:0:0:
72,0,84108,6,0,P|41:4|11:13,8,63.250001206398,8|8|8|2|8|8|2|8|0,0:2|0:2|0:1|0:0|0:2|0:2|0:0|0:2|1:0,0:0:0:0:
226,63,85413,1,8,0:1:0:0:
154,197,85673,1,2,1:0:0:0:
226,63,85934,1,2,1:0:0:0:
72,0,86195,6,0,P|41:4|11:13,8,63.250001206398,8|8|8|2|8|8|2|8|0,0:2|0:2|0:1|0:0|0:2|0:2|0:0|0:2|1:0,0:0:0:0:
293,113,87500,1,8,0:1:0:0:
424,88,87760,1,2,1:0:0:0:
512,192,88021,1,2,1:0:0:0:
293,113,89064,5,2,0:2:0:0:
424,88,89324,1,2,1:1:0:0:
512,192,89585,1,8,0:1:0:0:
372,232,89847,1,2,1:0:0:0:
512,323,90108,6,0,P|412:296|281:271,1,220,4|8,1:2|0:1,0:0:0:0:
121,240,91151,1,2,0:0:0:0:
93,373,91412,1,0,1:0:0:0:
229,384,91673,2,0,B|264:330|225:246|295:173,1,220,8|0,0:1|1:0,0:0:0:0:
416,144,92456,6,0,P|420:92|421:26,1,110,2|8,0:0|0:1,0:0:0:0:
273,23,92977,1,2,0:0:0:0:
273,23,93238,2,0,P|268:74|267:140,1,110,2|0,0:0|1:0,0:0:0:0:
389,201,93760,2,0,B|335:166|251:205|178:135,1,220,8|0,0:1|1:0,0:0:0:0:
56,80,94543,5,2,0:0:0:0:
181,97,94804,1,8,0:1:0:0:
261,196,95065,1,2,0:0:0:0:
243,321,95325,1,2,0:0:0:0:
261,196,95586,1,0,1:0:0:0:
358,115,95847,1,8,0:1:0:0:
486,114,96108,1,0,1:0:0:0:
486,114,96368,1,0,1:0:0:0:
256,192,96499,12,4,98456,1:2:0:0:
176,296,98717,5,2,0:0:0:0:
272,384,98977,2,0,B|268:303|183:286|193:182,1,220,8|2,0:1|0:0,0:0:0:0:
303,143,99760,1,0,1:0:0:0:
216,45,100021,1,8,0:1:0:0:
107,117,100282,6,0,P|54:106|1:92,2,110,0|0|2,1:0|1:0|0:0,0:0:0:0:
216,45,101064,1,8,0:1:0:0:
216,45,101325,1,2,0:0:0:0:
360,108,101586,1,2,0:0:0:0:
301,0,101847,1,0,1:0:0:0:
317,129,102108,1,8,0:1:0:0:
440,0,102369,2,0,P|429:54|415:107,1,110,0|0,1:0|1:0,0:0:0:0:
512,135,102890,6,0,P|458:146|405:160,1,110,2|8,0:0|0:1,0:0:0:0:
317,227,103412,1,0,0:0:0:0:
393,305,103673,2,0,P|382:251|368:198,1,110,2|0,0:0|1:0,0:0:0:0:
301,110,104195,1,8,0:1:0:0:
222,32,104456,1,0,1:0:0:0:
139,65,104717,5,0,1:0:0:0:
139,65,104977,1,2,0:0:0:0:
139,65,105238,1,8,0:1:0:0:
139,65,105499,1,2,0:0:0:0:
139,65,105760,1,2,0:0:0:0:
139,65,106021,1,0,1:0:0:0:
139,65,106282,1,8,0:1:0:0:
139,65,106543,1,0,1:0:0:0:
44,111,106803,5,2,0:1:0:0:
119,317,107325,1,2,0:1:0:0:
339,320,107847,1,2,0:1:0:0:
119,317,108369,2,0,P|183:341|289:326,1,165,2|0,0:1|0:0,0:0:0:0:
339,320,108890,5,0,1:0:0:0:
339,320,109151,1,0,1:0:0:0:
339,320,109412,1,0,1:0:0:0:
339,320,109673,1,0,1:0:0:0:
339,320,109934,1,0,1:0:0:0:
339,320,110195,1,0,1:0:0:0:
339,320,110456,1,8,0:1:0:0:
339,320,110716,1,4,0:0:0:0:
350,155,119325,6,0,P|431:165|513:181,2,165,4|2|2,1:2|0:0|0:0,0:0:0:0:
267,0,120369,2,0,P|263:43|255:113,1,110,2|0,0:0|1:0,0:0:0:0:
141,165,120890,1,8,0:0:0:0:
141,165,121151,1,0,1:0:0:0:
290,155,121412,2,0,P|279:237|253:380,2,220,0|2|2,1:0|0:0|0:0,0:0:0:0:
408,69,122716,1,0,1:0:0:0:
408,69,122977,1,8,0:0:0:0:
408,69,123238,1,0,1:0:0:0:
225,179,123499,6,0,P|214:97|199:16,2,165,0|2|2,1:0|0:0|0:0,0:0:0:0:
97,221,124543,2,0,P|86:166|79:110,1,110,2|0,0:0|1:0,0:0:0:0:
225,179,125064,2,0,P|214:234|207:290,1,110,8|0,0:0|1:0,0:0:0:0:
349,384,125586,6,0,P|430:369|511:359,2,165,0|2|2,1:0|0:0|0:0,0:0:0:0:
306,307,126629,2,0,P|315:254|325:178,1,110,2|0,0:0|1:0,0:0:0:0:
207,70,127151,2,0,P|214:125|225:179,1,110,8|0,0:0|1:0,0:0:0:0:
339,234,127673,5,4,1:2:0:0:
467,203,127934,1,8,0:2:0:0:
467,203,128065,1,8,0:2:0:0:
467,203,128195,2,0,P|476:173|480:136,1,63.250001206398,8|0,0:1|0:0,0:0:0:0:
446,87,128456,1,10,0:2:0:0:
332,167,128717,1,2,0:0:0:0:
332,167,128847,1,10,0:2:0:0:
332,167,128978,2,0,P|341:197|355:302,3,126.500002412796,2|8|2|2,1:2|0:1|1:0|1:0,0:0:0:0:
256,371,130021,5,8,0:2:0:0:
256,371,130152,1,8,0:2:0:0:
256,371,130282,2,0,P|226:380|189:384,1,63.250001206398,8|0,0:1|0:0,0:0:0:0:
147,341,130543,1,10,0:2:0:0:
147,341,130673,1,10,0:2:0:0:
147,341,130803,2,0,P|117:350|80:354,1,63.250001206398,2|10,0:0|0:2,0:0:0:0:
33,323,131065,2,0,P|24:293|10:188,3,126.500002412796,2|8|2|2,1:2|0:1|1:0|1:0,0:0:0:0:
82,104,132108,5,8,0:2:0:0:
82,104,132239,1,8,0:2:0:0:
82,104,132369,2,0,P|112:95|149:91,1,63.250001206398,8|0,0:1|0:0,0:0:0:0:
180,142,132629,2,0,P|210:151|247:155,1,63.250001206398,10|10,0:2|0:2,0:0:0:0:
299,202,132891,1,2,0:0:0:0:
299,202,133021,1,10,0:2:0:0:
299,202,133152,2,0,P|308:232|322:337,2,126.500002412796,2|8|2,1:2|0:1|1:0,0:0:0:0:
472,144,133934,1,2,1:0:0:0:
375,0,134195,6,0,P|345:9|308:13,1,63.250001206398,8|8,0:2|0:2,0:0:0:0:
308,43,134456,1,8,0:1:0:0:
246,55,134586,1,2,0:0:0:0:
228,94,134717,1,10,0:2:0:0:
167,107,134847,1,10,0:2:0:0:
141,155,134978,2,0,P|148:217|164:278,1,126.500002412796,2|2,0:1|1:0,0:0:0:0:
318,253,135499,1,10,0:1:0:0:
253,384,135760,1,2,1:0:0:0:
318,253,136021,1,0,1:2:0:0:
440,384,136282,6,0,P|471:380|501:371,8,63.250001206398,8|8|8|2|8|8|2|8|0,0:2|0:2|0:1|0:0|0:2|0:2|0:0|0:2|1:0,0:0:0:0:
320,340,137586,2,0,P|257:327|185:317,2,126.500002412796,8|2|2,0:1|1:0|1:0,0:0:0:0:
440,384,138369,6,0,P|471:380|501:371,8,63.250001206398,8|8|8|2|8|8|2|8|0,0:2|0:2|0:1|0:0|0:2|0:2|0:0|0:2|1:0,0:0:0:0:
286,321,139673,1,8,0:1:0:0:
358,187,139934,1,2,1:0:0:0:
286,321,140195,1,2,1:0:0:0:
440,384,140456,6,0,P|471:380|501:371,8,63.250001206398,8|8|8|2|8|8|2|8|0,0:2|0:2|0:1|0:0|0:2|0:2|0:0|0:2|1:0,0:0:0:0:
219,271,141760,1,8,0:1:0:0:
88,296,142021,1,2,1:1:0:0:
0,384,142282,1,2,0:1:0:0:
219,271,143325,5,2,0:0:0:0:
88,296,143586,1,2,0:0:0:0:
0,384,143847,1,2,0:0:0:0:
88,296,144108,1,2,0:0:0:0:
219,271,144369,6,0,P|222:236|227:197,15,55,2|0|0|0|2|0|0|0|2|0|0|0|2|0|0|0,0:1|0:0|0:0|0:0|0:1|0:0|0:0|0:0|0:1|0:0|0:0|0:0|0:1|0:0|1:0|0:0,0:0:0:0:
267,182,146456,6,0,B|352:172|383:255|498:234,1,220,4|8,1:2|0:1,0:0:0:0:
489,0,147499,1,2,0:0:0:0:
508,108,147760,1,0,1:0:0:0:
452,202,148021,1,8,0:1:0:0:
348,239,148282,1,0,1:0:0:0:
264,279,148543,1,0,1:0:0:0:
301,384,148803,5,2,0:0:0:0:
301,384,149065,1,8,0:1:0:0:
264,279,149326,1,2,0:0:0:0:
205,186,149587,1,2,0:0:0:0:
100,151,149848,1,0,1:0:0:0:
0,195,150109,1,8,0:1:0:0:
100,151,150369,1,0,1:0:0:0:
135,46,150630,1,0,1:0:0:0:
16,5,150891,5,2,0:0:0:0:
135,46,151152,1,8,0:1:0:0:
195,158,151413,1,2,0:0:0:0:
154,277,151673,1,2,0:0:0:0:
195,158,151934,1,0,1:0:0:0:
306,97,152195,1,8,0:1:0:0:
431,121,152456,1,0,1:0:0:0:
512,219,152716,1,0,1:0:0:0:
256,192,152847,12,4,154804,1:2:0:0:
256,192,155065,5,2,0:0:0:0:
152,264,155325,2,0,P|261:233|382:213,1,220,8|2,0:1|0:0,0:0:0:0:
449,287,156108,1,0,1:0:0:0:
505,192,156369,1,8,0:1:0:0:
455,316,156630,1,0,1:0:0:0:
339,194,156891,1,0,1:0:0:0:
245,278,157151,6,0,P|234:331|220:384,1,110,2|8,0:0|0:1,0:0:0:0:
112,300,157673,1,2,0:0:0:0:
17,356,157934,1,2,0:0:0:0:
141,306,158195,1,0,1:0:0:0:
19,190,158456,1,8,0:1:0:0:
175,315,158716,1,0,1:0:0:0:
301,256,158977,6,0,P|290:203|276:150,1,110,0|2,1:0|0:0,0:0:0:0:
142,0,159499,2,0,P|153:53|167:106,1,110,8|2,0:1|0:0,0:0:0:0:
328,62,160021,1,2,0:0:0:0:
225,195,160282,1,0,1:0:0:0:
359,85,160543,1,8,0:1:0:0:
225,186,160804,1,0,1:0:0:0:
325,298,161065,5,2,0:0:0:0:
325,298,161325,1,2,0:0:0:0:
325,298,161586,1,2,0:0:0:0:
325,298,161847,1,2,0:0:0:0:
325,298,162108,1,2,0:0:0:0:
325,298,162369,1,2,0:0:0:0:
325,298,162630,1,2,0:0:0:0:
325,298,162891,1,2,0:0:0:0:
256,384,163151,6,0,P|221:381|182:376,31,55,2|0|0|0|2|0|0|0|2|0|0|0|2|0|0|0|2|0|0|0|2|0|0|0|2|0|0|0|2|0|0|0,0:1|0:0|0:0|0:0|0:1|0:0|0:0|0:0|0:1|0:0|0:0|0:0|0:1|0:0|0:0|0:0|0:1|0:0|0:0|0:0|0:1|0:0|0:0|0:0|0:1|0:0|0:0|0:0|0:1|0:0|0:0|0:0,0:0:0:0:
154,350,167325,5,4,1:2:0:0:
224,267,167586,1,8,0:2:0:0:
224,267,167717,1,8,0:2:0:0:
224,267,167847,2,0,P|222:236|186:140,1,110,8|8,0:1|0:2,0:0:0:0:
170,120,168238,1,8,0:2:0:0:
170,120,168368,2,0,P|141:107|108:102,2,55,2|8|8,0:0|0:2|0:0,0:0:0:0:
223,23,168890,1,8,0:0:0:0:
475,14,169412,5,2,0:0:0:0:
405,97,169673,1,8,0:2:0:0:
405,97,169804,1,8,0:2:0:0:
405,97,169934,2,0,P|407:128|443:224,1,110,8|8,0:1|0:2,0:0:0:0:
459,244,170325,1,8,0:2:0:0:
459,244,170455,2,0,P|487:256|520:261,2,55,2|8|8,0:0|0:2|0:0,0:0:0:0:
0,314,171238,5,0,1:0:0:0:
93,375,171499,1,2,0:0:0:0:
163,292,171760,1,8,0:2:0:0:
163,292,171891,1,8,0:2:0:0:
163,292,172021,2,0,P|161:261|125:165,1,110,8|8,0:1|0:2,0:0:0:0:
109,145,172412,1,8,0:2:0:0:
109,145,172542,2,0,P|80:132|47:127,2,55,2|8|8,0:0|0:2|0:0,0:0:0:0:
191,59,173064,1,8,0:1:0:0:
206,219,173325,1,0,1:0:0:0:
206,219,173585,1,2,0:0:0:0:
278,384,173847,6,0,P|308:375|345:371,1,55,8|8,0:2|0:2,0:0:0:0:
345,341,174108,1,8,0:1:0:0:
407,329,174238,1,2,0:0:0:0:
425,290,174369,1,8,0:2:0:0:
486,277,174499,1,8,0:2:0:0:
512,229,174630,2,0,P|505:167|489:106,1,110,2|8,0:0|0:0,0:0:0:0:
335,131,175151,1,8,0:1:0:0:
400,0,175412,1,0,1:0:0:0:
335,131,175673,1,4,1:2:0:0:
243,82,175934,5,8,0:2:0:0:
243,82,176065,1,8,0:2:0:0:
243,82,176195,1,8,0:1:0:0:
203,186,176455,1,10,0:2:0:0:
203,186,176586,1,10,0:2:0:0:
272,277,176846,1,10,0:2:0:0:
272,277,176977,2,0,P|288:328|289:391,2,110,2|8|0,1:2|0:1|1:0,0:0:0:0:
162,289,177760,5,0,1:0:0:0:
65,261,178021,1,8,0:2:0:0:
65,261,178152,1,8,0:2:0:0:
65,261,178282,1,8,0:1:0:0:
25,157,178542,1,10,0:2:0:0:
25,157,178673,1,10,0:2:0:0:
85,66,178934,1,10,0:2:0:0:
85,66,179065,1,2,1:2:0:0:
194,79,179326,1,8,0:1:0:0:
254,170,179586,1,0,1:0:0:0:
210,271,179847,1,0,1:0:0:0:
290,361,180108,5,8,0:2:0:0:
290,361,180239,1,8,0:2:0:0:
290,361,180369,2,0,P|320:370|357:374,1,55,8|2,0:1|0:0,0:0:0:0:
380,333,180629,1,10,0:2:0:0:
380,333,180759,2,0,P|410:324|508:320,1,110,10|10,0:2|0:2,0:0:0:0:
506,370,181152,1,2,1:2:0:0:
512,244,181413,6,0,P|438:266|303:313,1,220,8|2,0:1|0:1,0:0:0:0:
256,192,182195,12,2,184021,0:2:0:0:
