osu file format v14

[General]
AudioFilename: 64193e03928aad.mp3
AudioLeadIn: 0
PreviewTime: 140942
Countdown: 1
SampleSet: Soft
StackLeniency: 0.5
Mode: 0
LetterboxInBreaks: 1
WidescreenStoryboard: 0

[Editor]
Bookmarks: 22107,33014,43920,60280,65734,71187,114762,116850,136627,142080,146140,146481
DistanceSpacing: 1
BeatDivisor: 4
GridSize: 8
TimelineZoom: 1

[Metadata]
Title:On My Own
TitleUnicode:On My Own
Artist:Ashes Remain
ArtistUnicode:Ashes Remain
Creator:Tsukikolover
Version:Insane
Source:
Tags:
BeatmapID:844005
BeatmapSetID:386562

[Difficulty]
HPDrainRate:6.9
CircleSize:4
OverallDifficulty:7.8
ApproachRate:9
SliderMultiplier:1.6
SliderTickRate:1

[Events]
//Background and Video events
0,0,"sword_art_online_wallpaper_by_greev-d5h7n09.jpg",0,0
//Break Periods
2,22277,31784
2,65904,69957
2,136797,139487
//Storyboard Layer 0 (Background)
//Storyboard Layer 1 (Fail)
//Storyboard Layer 2 (Pass)
//Storyboard Layer 3 (Foreground)
//Storyboard Sound Samples

[TimingPoints]
11171,340.831629175187,4,2,1,100,1,0
32813,-133.333333333333,4,2,1,100,0,0
43618,-83.3333333333333,4,2,1,100,0,0
80969,-125,4,2,1,100,0,0
82234,-133.333333333333,4,2,1,100,0,0
92970,-83.3333333333333,4,2,1,100,0,0
93070,-83.3333333333333,4,2,1,100,0,0
115721,-83.3333333333333,4,2,1,5,0,0
115806,-83.3333333333333,4,1,0,72,0,0
115806,-83.3333333333333,4,1,0,100,0,0
116055,-83.3333333333333,4,1,0,5,0,0
116147,-83.3333333333333,4,1,0,100,0,0
116402,-83.3333333333333,4,1,0,5,0,0
116487,-83.3333333333333,4,1,0,100,0,0
116828,-83.3333333333333,4,2,1,100,0,0
121685,-83.3333333333333,4,1,1,100,0,0
121941,-83.3333333333333,4,2,1,100,0,0
125690,-200,4,2,1,100,0,0
141965,-50,4,2,1,100,0,0
142732,-83.3333333333333,4,2,1,100,0,0
146566,-200,4,2,1,100,0,0
147333,-50,4,2,1,100,0,0

[HitObjects]
256,192,8444,12,0,9637,0:0:0:0:
136,68,9807,5,0,0:0:0:0:
76,216,9978,1,0,0:0:0:0:
204,120,10148,1,0,0:0:0:0:
44,144,10318,1,0,0:0:0:0:
180,228,10489,2,0,L|284:236,1,80
416,272,10830,2,0,L|304:264,1,80
268,76,11171,6,0,B|248:156|280:148|256:244,2,160
180,160,12023,1,0,0:0:0:0:
364,152,12193,2,0,P|368:128|364:64,1,80
100,188,12534,6,0,B|92:272|92:272|96:376,2,160
144,76,13386,1,0,0:0:0:0:
248,132,13556,2,0,P|288:136|344:128,1,80
248,132,13897,6,0,B|224:212|272:220|244:308,2,160
172,256,14749,1,0,0:0:0:0:
104,156,14920,2,0,P|68:196|52:236,1,80
256,320,15260,6,0,P|304:320|348:312,1,80
476,192,15601,2,0,P|428:192|384:200,1,80
256,236,15942,1,0,0:0:0:0:
368,124,16113,1,0,0:0:0:0:
400,280,16283,1,0,0:0:0:0:
292,160,16453,1,0,0:0:0:0:
256,320,16624,6,0,B|208:304|208:304|152:304|152:304|92:284,1,160
28,144,17135,1,0,0:0:0:0:
192,204,17305,2,0,P|196:160|184:108,1,80
112,168,17646,1,0,0:0:0:0:
256,72,17817,1,0,0:0:0:0:
380,172,17987,6,0,B|368:124|388:80|388:80|364:40|380:4,2,160
256,276,18839,1,0,0:0:0:0:
336,312,19010,2,0,P|340:272|328:224,1,80
176,196,19350,6,0,B|128:216|128:216|72:216|72:216|16:244,2,160
292,84,20203,1,0,0:0:0:0:
412,188,20373,1,0,0:0:0:0:
268,256,20543,1,0,0:0:0:0:
256,69,20714,5,0,0:0:0:0:
296,240,20884,1,0,0:0:0:0:
376,108,21055,2,0,P|416:96|460:96,1,80
440,272,21395,2,0,P|412:300|364:316,1,80
240,328,21736,1,0,0:0:0:0:
104,232,21907,1,0,0:0:0:0:
80,72,22077,1,4,0:0:0:0:
368,192,32984,6,0,B|344:264|384:248|344:324,2,120.000004577637
456,108,33836,2,0,P|424:104|380:80,1,60.0000022888184
187,94,34177,1,0,0:0:0:0:
280,32,34347,2,0,P|236:40|184:112,1,120.000004577637
300,116,34858,1,0,0:0:0:0:
212,200,35029,2,0,P|200:240|200:268,1,60.0000022888184
388,332,35370,2,0,P|400:292|400:264,1,60.0000022888184
296,112,35710,1,0,0:0:0:0:
100,84,36051,6,0,P|92:128|96:144,1,60.0000022888184
296,172,36392,2,0,B|324:116|288:124|320:44,1,120.000004577637
216,208,36903,1,0,0:0:0:0:
156,312,37074,6,0,P|192:328|220:332,1,60.0000022888184
324,260,37415,2,0,P|284:276|260:296,1,60.0000022888184
416,120,37755,2,0,L|424:56,2,60.0000022888184
388,316,38437,1,0,0:0:0:0:
324,176,38778,6,0,L|192:148,1,120.000004577637
436,80,39460,1,0,0:0:0:0:
436,80,39800,1,0,0:0:0:0:
436,80,39971,2,0,B|420:144|456:136|440:216,2,120.000004577637
360,172,40823,2,0,P|328:188|296:192,1,60.0000022888184
304,112,41164,5,0,0:0:0:0:
256,264,41334,1,0,0:0:0:0:
148,164,41505,2,0,P|156:192|172:220,1,60.0000022888184
192,88,41845,1,0,0:0:0:0:
76,120,42016,2,0,P|40:128|4:148,1,60.0000022888184
72,212,42357,1,0,0:0:0:0:
192,88,42527,1,0,0:0:0:0:
188,80,43890,6,0,B|252:64|252:64|312:72|312:72|380:52,1,191.999994140625
212,160,44402,1,0,0:0:0:0:
24,192,44572,2,0,L|0:96,1,95.9999970703126
152,216,44913,2,0,P|192:240|264:224,1,95.9999970703126
400,220,45254,6,0,P|360:200|288:212,2,95.9999970703126
464,312,45765,1,0,0:0:0:0:
152,64,45935,1,0,0:0:0:0:
152,64,46021,1,0,0:0:0:0:
152,64,46106,2,0,L|64:80,1,47.9999985351563
106,166,46276,2,0,P|170:174|258:62,1,191.999994140625
400,40,46787,1,0,0:0:0:0:
400,40,46958,6,0,B|392:104|412:84|396:172,2,95.9999970703126
464,192,47469,1,0,0:0:0:0:
272,216,47639,2,0,P|280:260|312:304,1,95.9999970703126
200,168,47980,6,0,P|156:132|8:136,1,191.999994140625
104,240,48492,2,0,B|142:192|149:89|208:80,1,191.999994140625
232,64,48918,1,0,0:0:0:0:
256,56,49003,1,0,0:0:0:0:
285,57,49088,1,0,0:0:0:0:
312,66,49173,1,0,0:0:0:0:
336,82,49258,1,0,0:0:0:0:
352,104,49344,6,0,P|368:156|256:240,1,191.999994140625
116,220,49855,1,0,0:0:0:0:
344,308,50025,1,0,0:0:0:0:
260,288,50196,1,0,0:0:0:0:
100,324,50366,2,0,P|144:310|180:274,1,95.9999970703126
8,80,50707,6,0,P|52:200|108:240,1,191.999994140625
312,288,51218,1,0,0:0:0:0:
416,108,51389,2,0,P|392:60|260:40,1,191.999994140625
320,200,52070,2,0,P|376:232|508:204,1,191.999994140625
80,184,52752,2,0,P|24:120|108:32,2,191.999994140625
112,200,53519,1,0,0:0:0:0:
152,200,53604,1,0,0:0:0:0:
160,229,53689,1,0,0:0:0:0:
195,228,53774,1,0,0:0:0:0:
214,258,53859,1,0,0:0:0:0:
252,242,53945,1,0,0:0:0:0:
262,282,54030,1,0,0:0:0:0:
296,283,54115,1,0,0:0:0:0:
320,312,54200,1,0,0:0:0:0:
360,296,54286,1,0,0:0:0:0:
399,180,54456,2,0,B|394:86|407:136|371:64,1,95.9999970703126
384,88,54797,6,0,B|425:93|425:93|440:152|516:228,2,191.999994140625
288,64,55649,1,0,0:0:0:0:
216,152,55819,2,0,P|168:160|116:160,1,95.9999970703126
216,144,56160,6,0,L|228:248,2,95.9999970703126
48,96,56672,1,0,0:0:0:0:
216,240,56842,2,0,L|312:248,2,95.9999970703126
392,212,57353,1,0,0:0:0:0:
436,296,57524,6,0,P|408:252|420:100,1,191.999994140625
472,32,58035,1,0,0:0:0:0:
272,84,58205,2,0,B|224:92|224:92|220:96|220:96|152:108,2,95.9999970703126
104,60,58717,1,0,0:0:0:0:
16,192,58887,6,0,P|92:196|168:288,1,191.999994140625
56,288,59398,1,0,0:0:0:0:
176,132,59569,2,0,P|236:184|372:224,1,191.999994140625
360,224,59995,1,0,0:0:0:0:
380,224,60080,1,0,0:0:0:0:
436,148,60250,6,0,B|424:200|412:292|412:292|376:336,2,191.999994140625
380,68,61102,1,0,0:0:0:0:
192,112,61273,2,0,P|200:164|216:208,1,95.9999970703126
144,268,61614,2,0,P|184:224|312:196,2,191.999994140625
104,356,62466,1,0,0:0:0:0:
64,176,62636,1,0,0:0:0:0:
200,332,62806,1,0,0:0:0:0:
40,224,62977,5,0,0:0:0:0:
184,80,63147,1,0,0:0:0:0:
312,232,63318,1,0,0:0:0:0:
400,84,63488,1,0,0:0:0:0:
152,184,63659,2,0,P|152:232|156:288,1,95.9999970703126
316,228,63999,2,0,P|304:176|272:108,1,95.9999970703126
256,292,64340,1,0,0:0:0:0:
256,192,64511,12,0,65704,0:0:0:0:
72,64,71157,6,0,L|144:144,1,95.9999970703126
180,72,71498,6,0,P|348:172|356:188,1,191.999994140625
404,304,72009,1,0,0:0:0:0:
404,304,72094,1,0,0:0:0:0:
404,304,72179,1,0,0:0:0:0:
256,324,72520,2,0,P|88:224|80:208,1,191.999994140625
56,160,73202,5,0,0:0:0:0:
40,144,73372,1,0,0:0:0:0:
36,84,73543,1,0,0:0:0:0:
16,64,73713,1,0,0:0:0:0:
136,24,73884,2,0,B|184:48|128:96|128:96|192:80|208:160,1,191.999994140625
456,248,74565,1,0,0:0:0:0:
456,248,74650,1,0,0:0:0:0:
456,248,74735,1,0,0:0:0:0:
376,312,74906,2,0,P|310:300|262:268,1,95.9999970703126
392,336,75247,5,0,0:0:0:0:
64,168,75588,1,0,0:0:0:0:
408,168,75929,1,0,0:0:0:0:
128,64,76269,1,0,0:0:0:0:
424,36,76610,1,0,0:0:0:0:
296,48,76951,6,0,L|368:112,1,95.9999970703126
436,176,77292,1,0,0:0:0:0:
148,264,77633,5,0,0:0:0:0:
224,52,77973,1,0,0:0:0:0:
320,232,78293,5,0,0:0:0:0:
232,136,78655,1,0,0:0:0:0:
200,304,78996,5,0,0:0:0:0:
268,188,79337,1,0,0:0:0:0:
368,332,79678,5,0,0:0:0:0:
440,104,80018,1,0,0:0:0:0:
232,136,80359,5,0,0:0:0:0:
96,320,80700,1,0,0:0:0:0:
72,196,81041,2,0,B|136:88|152:60|184:136|208:164|388:75|408:64,1,384
368,192,82404,6,0,B|344:264|384:248|344:324,2,120.000004577637
372,72,83427,1,0,0:0:0:0:
80,80,83597,1,0,0:0:0:0:
388,171,83768,1,0,0:0:0:0:
116,96,84108,2,0,P|128:176|152:232,1,120.000004577637
372,72,84790,6,0,P|408:120|384:176,1,120.000004577637
360,192,85216,1,0,0:0:0:0:
336,200,85301,2,0,P|296:216|256:208,1,60.0000022888184
284,120,85813,2,0,P|324:132|328:156,1,60.0000022888184
336,280,86153,1,0,0:0:0:0:
224,328,86494,2,0,P|76:300|44:228,1,240.000009155274
44,40,87517,1,0,0:0:0:0:
324,176,87858,6,0,L|192:148,1,120.000004577637
436,80,88539,5,0,0:0:0:0:
436,80,88880,21,0,0:0:0:0:
436,80,89051,1,0,0:0:0:0:
436,80,89221,2,0,B|420:144|456:136|440:216,2,120.000004577637
360,172,90243,2,0,P|328:188|296:192,1,60.0000022888184
304,112,90584,5,0,0:0:0:0:
148,164,90755,2,0,P|156:192|172:220,1,60.0000022888184
204,48,91096,2,0,P|168:56|132:76,2,60.0000022888184
400,40,91607,1,0,0:0:0:0:
408,40,91692,1,0,0:0:0:0:
416,40,91777,1,0,0:0:0:0:
220,156,92970,6,0,B|156:140|156:140|96:148|96:148|28:128,1,191.999994140625
212,160,93482,1,0,0:0:0:0:
24,192,93652,2,0,L|0:96,1,95.9999970703126
152,216,93993,2,0,P|192:240|264:224,1,95.9999970703126
400,220,94334,6,0,P|360:200|288:212,2,95.9999970703126
464,320,94845,1,0,0:0:0:0:
300,92,95015,1,0,0:0:0:0:
300,92,95101,1,0,0:0:0:0:
300,92,95186,2,0,L|192:112,1,95.9999970703126
48,140,95527,1,0,0:0:0:0:
380,76,95697,1,0,0:0:0:0:
380,76,96038,6,0,B|372:140|392:120|376:208,2,95.9999970703126
464,192,96549,1,0,0:0:0:0:
272,216,96719,2,0,P|280:260|312:304,1,95.9999970703126
200,168,97060,6,0,P|156:132|8:136,1,191.999994140625
72,208,97572,2,0,P|110:160|224:72,1,191.999994140625
320,36,98083,1,0,0:0:0:0:
356,64,98168,1,0,0:0:0:0:
384,104,98253,1,0,0:0:0:0:
384,156,98338,1,0,0:0:0:0:
360,200,98423,6,0,P|308:216|224:104,1,191.999994140625
220,20,98935,1,0,0:0:0:0:
360,200,99105,1,0,0:0:0:0:
220,124,99276,1,0,0:0:0:0:
176,268,99446,2,0,P|220:254|256:218,1,95.9999970703126
8,80,99787,6,0,P|52:200|108:240,1,191.999994140625
188,196,100298,1,0,0:0:0:0:
256,276,100469,2,0,P|304:300|436:252,1,191.999994140625
212,20,101150,2,0,P|156:52|176:172,1,191.999994140625
344,296,101832,2,0,P|400:264|384:144,1,191.999994140625
390,149,102258,1,0,0:0:0:0:
406,170,102343,1,0,0:0:0:0:
414,196,102428,1,0,0:0:0:0:
414,224,102513,1,0,0:0:0:0:
406,250,102598,1,0,0:0:0:0:
389,271,102684,1,0,0:0:0:0:
367,287,102769,1,0,0:0:0:0:
341,295,102854,1,0,0:0:0:0:
304,336,103025,5,0,0:0:0:0:
326,352,103110,1,0,0:0:0:0:
352,360,103195,1,0,0:0:0:0:
380,360,103280,1,0,0:0:0:0:
406,352,103365,1,0,0:0:0:0:
427,335,103451,1,0,0:0:0:0:
443,313,103536,1,0,0:0:0:0:
451,287,103621,1,0,0:0:0:0:
424,176,103877,6,0,P|400:88|307:51,2,191.999994140625
192,216,104729,1,0,0:0:0:0:
272,128,104899,2,0,P|320:120|372:120,1,95.9999970703126
120,160,105240,6,0,L|132:264,2,95.9999970703126
311,247,105752,1,0,0:0:0:0:
216,240,105922,2,0,L|312:248,2,95.9999970703126
410,116,106433,1,0,0:0:0:0:
436,296,106604,6,0,P|408:252|420:100,1,191.999994140625
356,36,107115,1,0,0:0:0:0:
272,84,107285,2,0,B|224:92|224:92|220:96|220:96|152:108,2,95.9999970703126
356,36,107797,1,0,0:0:0:0:
496,192,107967,6,0,P|420:196|344:288,1,191.999994140625
456,288,108478,1,0,0:0:0:0:
336,132,108649,2,0,P|276:184|140:224,1,191.999994140625
152,224,109075,1,0,0:0:0:0:
132,224,109160,1,0,0:0:0:0:
76,148,109330,6,0,B|88:200|100:292|100:292|136:336,2,191.999994140625
56,32,110182,1,0,0:0:0:0:
72,144,110353,2,0,P|80:196|96:240,1,95.9999970703126
232,228,110694,2,0,P|324:228|400:156,2,191.999994140625
104,356,111546,5,0,0:0:0:0:
128,208,111716,1,0,0:0:0:0:
200,300,111886,1,0,0:0:0:0:
72,156,112057,1,0,0:0:0:0:
184,80,112227,1,0,0:0:0:0:
264,228,112398,1,0,0:0:0:0:
388,348,112568,1,0,0:0:0:0:
152,184,112739,2,0,P|152:232|156:288,1,95.9999970703126
316,228,113079,2,0,P|304:176|272:108,1,95.9999970703126
256,292,113420,1,0,0:0:0:0:
256,192,113590,12,0,114442,0:0:0:0:
40,156,114783,6,0,B|104:76|112:76|196:224|216:216|463:76|463:76|488:128,1,527.999983886719
465,198,115806,2,0,L|397:330,1,143.999995605469
344,224,116147,2,0,L|276:356,1,143.999995605469
224,208,116487,2,0,P|188:280|128:284,1,143.999995605469
104,256,116828,1,0,0:0:0:0:
88,224,116914,1,0,0:0:0:0:
72,192,116999,1,0,0:0:0:0:
56,160,117169,6,0,B|60:136|60:136|72:168|72:168|80:136|80:136|88:156|88:156|96:132|96:132|104:148|104:148|168:172|168:172|184:324|184:324|224:148|224:148|296:320|296:320|332:164,1,863.999973632813
348,116,118873,2,0,L|464:76,1,95.9999970703126
164,116,119214,2,0,L|48:76,1,95.9999970703126
368,192,119555,2,0,L|484:152,1,95.9999970703126
144,192,119896,2,0,L|28:152,1,95.9999970703126
251,292,120237,1,0,0:0:0:0:
256,296,120322,1,0,0:0:0:0:
260,300,120407,2,0,P|311:288|216:292,1,671.999979492188
262,153,121941,6,0,L|210:69,1,95.9999970703126
312,234,122282,2,0,L|260:150,1,95.9999970703126
293,20,122622,2,0,L|209:72,1,95.9999970703126
48,200,122963,1,0,0:0:0:0:
304,152,123304,5,0,0:0:0:0:
318,176,123389,1,0,0:0:0:0:
332,199,123474,1,0,0:0:0:0:
347,224,123559,1,0,0:0:0:0:
360,248,123645,2,0,L|432:368,1,95.9999970703126
200,208,123986,5,0,0:0:0:0:
186,184,124071,1,0,0:0:0:0:
172,161,124156,1,0,0:0:0:0:
157,136,124241,1,0,0:0:0:0:
144,112,124327,2,0,L|72:-8,1,95.9999970703126
312,176,124667,5,0,0:0:0:0:
326,200,124752,1,0,0:0:0:0:
340,223,124837,1,0,0:0:0:0:
355,248,124922,1,0,0:0:0:0:
368,272,125008,2,0,L|440:392,1,95.9999970703126
456,264,125349,5,0,0:0:0:0:
481,224,125435,1,0,0:0:0:0:
481,177,125520,1,0,0:0:0:0:
455,137,125605,1,0,0:0:0:0:
420,103,125690,2,0,B|328:0|280:168|120:96,1,320,0|4,0:0|0:0,0:0:0:0:
40,48,127394,5,0,0:0:0:0:
40,48,127479,1,0,0:0:0:0:
40,48,127565,1,0,0:0:0:0:
40,48,127735,2,0,P|40:96|64:128,1,80
128,176,128246,1,0,0:0:0:0:
208,216,128417,1,0,0:0:0:0:
464,48,128757,5,0,0:0:0:0:
104,96,128928,1,0,0:0:0:0:
400,160,129098,1,0,0:0:0:0:
344,280,129269,1,0,0:0:0:0:
352,296,129439,1,0,0:0:0:0:
360,312,129609,1,0,0:0:0:0:
368,328,129780,1,0,0:0:0:0:
144,328,130121,5,0,0:0:0:0:
114,253,130291,2,0,L|126:284,1,20
144,328,130462,2,0,L|112:248,1,80
80,192,130973,1,0,0:0:0:0:
48,136,131143,1,0,0:0:0:0:
456,40,131484,6,0,L|448:96,1,40
376,104,131825,2,0,L|376:144,1,40
312,192,132166,2,0,L|320:240,1,40
264,320,132507,2,0,L|216:208,1,120
176,120,133188,5,0,0:0:0:0:
176,120,133359,2,0,B|224:64|304:128|432:112|440:56,1,280
464,168,134722,1,0,0:0:0:0:
440,256,134892,2,0,L|424:304,1,40
344,320,135233,6,0,L|344:264,1,40
344,248,135574,1,0,0:0:0:0:
344,216,135744,1,0,0:0:0:0:
256,192,136597,5,0,0:0:0:0:
256,192,140687,12,0,141368,0:0:0:0:
104,110,141709,5,0,0:0:0:0:
120,112,141879,1,0,0:0:0:0:
112,104,142050,6,0,B|96:69|96:69|112:32|224:120|262:67|262:67|304:120|373:94|373:94|432:136|336:216,1,480
280,264,142732,1,0,0:0:0:0:
224,312,142902,1,0,0:0:0:0:
232,296,143072,2,0,B|192:304|168:272|168:272|144:208|144:208|112:184|72:192,1,191.999994140625
56,288,143584,1,0,0:0:0:0:
256,176,143754,1,0,0:0:0:0:
288,192,143924,1,0,0:0:0:0:
232,296,144095,1,0,0:0:0:0:
288,192,144265,1,0,0:0:0:0:
96,190,144436,2,0,P|96:118|112:94,1,95.9999970703126
120,216,144776,1,0,0:0:0:0:
144,240,144947,1,0,0:0:0:0:
176,256,145117,1,0,0:0:0:0:
424,88,145288,1,0,0:0:0:0:
448,112,145458,2,0,B|488:160|488:160|408:160|424:200|328:216|320:128|320:128|272:160|224:112,1,335.999989746094
221,111,146140,1,0,0:0:0:0:
181,84,146225,1,0,0:0:0:0:
134,80,146310,1,0,0:0:0:0:
91,101,146395,1,0,0:0:0:0:
65,140,146480,1,0,0:0:0:0:
72,264,146821,2,0,L|40:216,1,47.9999985351563
96,288,147162,1,0,0:0:0:0:
144,224,147333,6,0,B|184:168|184:168|200:256|312:168|350:220|350:220|392:168|461:193|461:193|520:152|424:72,1,480
