osu file format v14

[General]
AudioFilename: audio.mp3
AudioLeadIn: 0
PreviewTime: 43154
Countdown: 1
SampleSet: Soft
StackLeniency: 0.7
Mode: 0
LetterboxInBreaks: 0
WidescreenStoryboard: 1

[Editor]
DistanceSpacing: 1.3
BeatDivisor: 4
GridSize: 4
TimelineZoom: 1

[Metadata]
Title:On My Own
TitleUnicode:On My Own
Artist:Ashes Remain
ArtistUnicode:Ashes Remain
Creator:MagicNAT
Version:Normal
Source:
Tags:English
BeatmapID:943210
BeatmapSetID:429089

[Difficulty]
HPDrainRate:5
CircleSize:4
OverallDifficulty:7
ApproachRate:7
SliderMultiplier:1.8
SliderTickRate:2

[Events]
//Background and Video events
0,0,"BG.jpg",0,0
//Break Periods
2,65512,70209
//Storyboard Layer 0 (Background)
//Storyboard Layer 1 (Fail)
//Storyboard Layer 2 (Pass)
//Storyboard Layer 3 (Foreground)
//Storyboard Sound Samples

[TimingPoints]
200,681.818181818182,4,2,0,70,1,0
43154,-100,4,2,0,90,0,1
65654,-100,4,2,0,70,0,0
92927,-100,4,2,0,90,0,1
114404,-100,4,2,0,70,0,0
125484,-100,4,2,0,85,0,0
142018,-100,4,2,0,90,0,1
158381,-100,4,2,0,90,0,0

[HitObjects]
134,66,200,5,0,0:0:0:0:
250,66,540,2,0,P|231:121|181:148,1,90
372,305,1563,1,0,0:0:0:0:
254,305,1904,2,0,P|265:249|296:218,1,90
371,67,2927,6,0,P|302:95|291:124,1,90
379,187,3609,2,0,P|367:238|321:266,1,90
256,177,4290,1,0,0:0:0:0:
173,259,4631,1,0,0:0:0:0:
90,176,4972,1,0,0:0:0:0:
303,79,5654,5,0,0:0:0:0:
303,79,5825,1,0,0:0:0:0:
303,79,5995,2,0,P|262:121|258:155,1,90
381,246,7018,2,0,P|354:290|306:299,1,90
296,205,7700,1,0,0:0:0:0:
67,255,8381,5,0,0:0:0:0:
67,255,8552,1,0,0:0:0:0:
67,255,8722,2,0,P|121:252|160:224,1,90
284,41,9745,1,0,0:0:0:0:
190,111,10086,1,0,0:0:0:0:
329,151,10427,1,0,0:0:0:0:
190,227,10768,1,0,0:0:0:0:
317,292,11109,6,0,L|364:265,1,45
401,204,11450,1,0,0:0:0:0:
280,163,11790,1,0,0:0:0:0:
88,91,12472,6,0,L|113:153,1,45
183,143,12813,1,0,0:0:0:0:
112,257,13154,1,0,0:0:0:0:
336,322,13836,6,0,P|395:301|430:266,1,90
305,243,14518,2,0,P|234:243|200:263,1,90
261,319,15200,1,0,0:0:0:0:
261,319,15370,1,0,0:0:0:0:
261,319,15540,2,0,P|217:291|202:242,1,90
293,182,16222,1,0,0:0:0:0:
202,107,16563,6,0,L|153:68,1,45
78,90,16904,1,0,0:0:0:0:
120,199,17245,1,0,0:0:0:0:
341,51,17927,2,0,L|289:103,1,45
346,155,18268,1,0,0:0:0:0:
251,242,18609,1,0,0:0:0:0:
115,96,19290,5,0,0:0:0:0:
115,96,19461,1,0,0:0:0:0:
115,96,19631,2,0,P|145:161|163:165,1,90
379,93,20654,1,0,0:0:0:0:
283,160,20995,1,0,0:0:0:0:
385,217,21336,1,0,0:0:0:0:
256,324,21677,1,0,0:0:0:0:
159,257,22018,6,0,L|138:199,1,45
186,138,22359,1,0,0:0:0:0:
375,85,22700,2,0,L|351:137,1,45
276,136,23040,1,0,0:0:0:0:
289,252,23381,2,0,P|315:290|366:313,1,90
236,327,24063,2,0,P|204:363|155:370,1,90
119,263,24745,6,0,L|173:227,1,45
162,161,25086,1,0,0:0:0:0:
251,72,25427,2,0,L|292:123,1,45
354,109,25768,1,0,0:0:0:0:
279,215,26109,2,0,P|233:253|181:261,1,90
317,295,26790,2,0,P|347:341|387:365,1,90
431,257,27472,5,0,0:0:0:0:
431,257,27643,1,0,0:0:0:0:
431,257,27813,2,0,P|446:203|429:169,1,90
352,215,28495,1,0,0:0:0:0:
352,215,28665,1,0,0:0:0:0:
352,215,28835,2,0,P|324:174|319:129,2,90
419,84,29859,1,0,0:0:0:0:
267,82,30200,6,0,L|197:134,1,45
313,166,30540,2,0,L|351:208,1,45
241,253,30881,1,0,0:0:0:0:
139,194,31222,1,0,0:0:0:0:
137,76,31563,2,0,P|171:116|233:129,1,90
291,54,32245,1,0,0:0:0:0:
359,152,32927,5,0,0:0:0:0:
359,152,33268,2,0,L|314:180,2,45
335,267,33950,1,0,0:0:0:0:
229,217,34290,1,0,0:0:0:0:
229,217,34631,2,0,L|177:171,2,45
276,109,35313,1,0,0:0:0:0:
378,165,35654,5,0,0:0:0:0:
378,165,35825,1,0,0:0:0:0:
378,165,35995,2,0,P|327:210|299:215,1,90
224,131,36677,1,0,0:0:0:0:
141,213,37018,1,0,0:0:0:0:
141,213,37188,1,0,0:0:0:0:
141,213,37359,2,0,P|177:268|211:283,1,90
279,196,38040,1,0,0:0:0:0:
345,99,38381,6,0,P|377:133|422:153,1,90
279,196,39063,2,0,P|256:245|213:271,1,90
165,166,39745,2,0,P|138:216|137:270,1,90
62,155,40427,2,0,P|35:107|-6:87,1,90
116,50,41109,5,0,0:0:0:0:
116,50,41279,1,0,0:0:0:0:
116,50,41450,2,0,P|159:84|213:76,1,90
305,54,42131,1,0,0:0:0:0:
387,136,42472,1,0,0:0:0:0:
155,103,43154,5,0,0:0:0:0:
155,103,43325,1,0,0:0:0:0:
155,103,43495,2,0,P|197:148|235:151,1,90
302,66,44177,1,0,0:0:0:0:
394,137,44518,1,0,0:0:0:0:
477,54,44859,1,0,0:0:0:0:
448,201,45200,6,0,L|431:248,1,45
335,227,45540,2,0,L|288:258,1,45
231,182,45881,1,0,0:0:0:0:
138,254,46222,1,0,0:0:0:0:
237,315,46563,5,0,0:0:0:0:
237,315,46734,1,0,0:0:0:0:
237,315,46904,2,0,P|307:296|323:275,1,90
216,223,47586,1,0,0:0:0:0:
112,168,47927,1,0,0:0:0:0:
112,168,48097,1,0,0:0:0:0:
112,168,48268,2,0,P|168:140|224:142,1,90
297,193,48950,1,0,0:0:0:0:
332,80,49290,6,0,P|376:104|400:164,1,90
280,164,49972,2,0,P|244:120|252:64,1,90
356,88,50654,1,0,0:0:0:0:
356,88,50825,1,0,0:0:0:0:
356,88,50995,2,0,P|344:140|308:176,1,90
216,116,51677,1,0,0:0:0:0:
100,112,52018,6,0,P|104:160|156:184,1,90
256,176,52700,2,0,P|320:188|344:240,1,90
280,308,53381,1,0,0:0:0:0:
212,212,53722,1,0,0:0:0:0:
112,276,54063,1,0,0:0:0:0:
52,176,54404,1,0,0:0:0:0:
120,80,54745,5,0,0:0:0:0:
120,80,54915,1,0,0:0:0:0:
120,80,55086,2,0,P|160:116|160:168,1,90
96,244,55768,1,0,0:0:0:0:
196,308,56109,1,0,0:0:0:0:
196,308,56279,1,0,0:0:0:0:
196,308,56450,2,0,P|248:292|256:232,1,90
172,184,57131,1,0,0:0:0:0:
244,92,57472,6,0,L|276:128,1,45
362,95,57813,2,0,L|382:148,1,45
322,203,58154,1,0,0:0:0:0:
217,149,58495,1,0,0:0:0:0:
280,50,58836,6,0,L|298:115,1,45
375,114,59177,2,0,L|345:177,1,45
261,168,59518,1,0,0:0:0:0:
203,66,59859,1,0,0:0:0:0:
123,151,60200,6,0,P|143:206|181:222,1,90
267,157,60881,2,0,P|296:110|336:108,1,90
335,222,61563,2,0,P|381:257|426:254,1,90
299,293,62245,1,0,0:0:0:0:
299,293,62415,2,0,P|262:327|246:333,1,45
164,267,62927,2,0,P|137:229|144:183,1,90
231,112,63609,1,0,0:0:0:0:
231,112,63779,2,0,P|250:161|255:166,1,45
356,120,64290,2,0,P|386:68|430:52,1,90
293,58,64972,2,0,P|246:33|204:40,1,90
112,68,71109,5,0,0:0:0:0:
112,68,71450,2,0,P|144:112|204:128,1,90
280,72,72131,1,0,0:0:0:0:
288,156,72472,2,0,L|260:200,1,45
364,228,72813,2,0,L|400:272,1,45
284,288,73154,2,0,P|244:316|184:312,1,90
124,232,73836,5,0,0:0:0:0:
124,232,74006,1,0,0:0:0:0:
124,232,74177,2,0,P|156:168|176:164,1,90
248,252,74859,1,0,0:0:0:0:
320,160,75200,1,0,0:0:0:0:
320,160,75370,1,0,0:0:0:0:
320,160,75540,2,0,P|288:116|252:108,1,90
212,216,76222,1,0,0:0:0:0:
328,218,76563,5,0,0:0:0:0:
328,218,76734,2,0,P|356:173|438:153,1,135
431,268,77586,1,0,0:0:0:0:
351,181,77927,2,0,P|319:136|265:124,1,90
398,84,78609,2,0,P|415:39|453:17,1,90
332,27,79290,1,0,0:0:0:0:
289,135,79631,1,0,0:0:0:0:
178,95,79972,1,0,0:0:0:0:
129,201,80313,1,0,0:0:0:0:
230,293,80654,5,0,0:0:0:0:
230,293,80825,1,0,0:0:0:0:
230,293,80995,2,0,P|275:276|302:237,1,90
203,175,81677,1,0,0:0:0:0:
