osu file format v14

[General]
AudioFilename: audio.mp3
AudioLeadIn: 0
PreviewTime: 21362
Countdown: 1
SampleSet: None
StackLeniency: 0.7
Mode: 0
LetterboxInBreaks: 0
WidescreenStoryboard: 1

[Editor]
Bookmarks: 9410,11250
DistanceSpacing: 0.5
BeatDivisor: 4
GridSize: 4
TimelineZoom: 3.699998

[Metadata]
Title:More Cowbell
TitleUnicode:More Cowbell
Artist:Asher Roth
ArtistUnicode:Asher Roth
Creator:ode
Version:lxyn's free unko
Source:
Tags:
BeatmapID:1486462
BeatmapSetID:700090

[Difficulty]
HPDrainRate:0
CircleSize:4.2
OverallDifficulty:10
ApproachRate:10
SliderMultiplier:3.59999990463257
SliderTickRate:4

[Events]
//Background and Video events
0,0,"Walken-Cowbell.jpg",0,0
//Break Periods
//Storyboard Layer 0 (Background)
//Storyboard Layer 1 (Fail)
//Storyboard Layer 2 (Pass)
//Storyboard Layer 3 (Foreground)
//Storyboard Sound Samples

[TimingPoints]
0,234.375,4,1,0,100,1,0
6796,-25,4,1,0,100,0,0

[HitObjects]
8,308,7265,6,0,B|-52:128|-16:40|-16:40|56:24|116:36|116:36|52:24|-12:40|-12:40|-24:116|-24:116|28:124|88:116,1,719.999980926514
176,60,7266,1,0,0:0:0:0:
176,60,7324,1,0,0:0:0:0:
176,60,7383,1,0,0:0:0:0:
206,277,7500,1,0,0:0:0:0:
2,194,7617,1,0,0:0:0:0:
188,64,7734,1,0,0:0:0:0:
116,352,7734,2,0,B|108:188|136:56|136:56|212:60|272:92|244:180|148:176|148:176|228:240|268:360,1,719.999980926514
188,64,7792,1,0,0:0:0:0:
188,64,7851,1,0,0:0:0:0:
218,282,7968,1,0,0:0:0:0:
14,198,8085,1,0,0:0:0:0:
368,280,8203,2,0,B|316:304|260:284|260:284|236:188|236:136|236:136|316:140|316:140|284:136|236:136|236:136|228:64|244:24|244:24|296:16|364:32|364:32|312:20|260:20,1,719.999980926514
424,228,8437,1,0,0:0:0:0:
500,320,8671,2,0,B|448:344|392:324|392:324|368:228|368:176|368:176|448:180|448:180|416:176|368:176|368:176|360:104|376:64|376:64|428:56|496:72|496:72|444:60|392:60,1,719.999980926514
206,258,8710,1,0,0:0:0:0:
424,228,8906,1,0,0:0:0:0:
206,258,9023,1,0,0:0:0:0:
0,24,9140,2,0,B|-28:144|-56:288|-36:352|92:368|152:340|112:20|112:20|120:84,1,719.999980926514
424,228,9375,1,0,0:0:0:0:
156,364,9609,2,0,B|140:180|172:100|172:100|244:188|272:336|272:336|340:108|232:44,1,719.999980926514
206,258,9648,1,0,0:0:0:0:
424,228,9844,1,0,0:0:0:0:
206,258,9961,1,0,0:0:0:0:
304,36,10078,2,0,B|328:112|328:156|328:156|383:128|419:60|419:60|383:128|328:156|328:156|403:160|456:268|456:268|403:160|328:156|328:156|328:244|312:348,1,899.999976158143
424,228,10312,1,0,0:0:0:0:
448,60,10546,2,0,B|380:160|392:324|412:388|580:388|600:376|572:164|656:20|436:-20|428:112,1,719.999980926514
206,258,10585,1,0,0:0:0:0:
424,228,10781,1,0,0:0:0:0:
206,258,10898,1,0,0:0:0:0:
8,308,11015,2,0,B|-52:128|-16:40|-16:40|56:24|116:36|116:36|52:24|-12:40|-12:40|-24:116|-24:116|28:124|88:116,1,719.999980926514
424,228,11250,1,0,0:0:0:0:
116,352,11484,2,0,B|108:188|136:56|136:56|212:60|272:92|244:180|148:176|148:176|228:240|268:360,1,719.999980926514
206,258,11523,1,0,0:0:0:0:
424,228,11719,1,0,0:0:0:0:
206,258,11836,1,0,0:0:0:0:
368,280,11953,2,0,B|316:304|260:284|260:284|236:188|236:136|236:136|316:140|316:140|284:136|236:136|236:136|228:64|244:24|244:24|296:16|364:32|364:32|312:20|260:20,1,719.999980926514
424,228,12187,1,0,0:0:0:0:
500,320,12421,2,0,B|448:344|392:324|392:324|368:228|368:176|368:176|448:180|448:180|416:176|368:176|368:176|360:104|376:64|376:64|428:56|496:72|496:72|444:60|392:60,1,719.999980926514
206,258,12460,1,0,0:0:0:0:
424,228,12656,1,0,0:0:0:0:
206,258,12773,1,0,0:0:0:0:
0,24,12890,2,0,B|-28:144|-56:288|-36:352|92:368|152:340|112:20|112:20|120:84,1,719.999980926514
424,228,13125,1,0,0:0:0:0:
156,364,13359,2,0,B|140:180|172:100|172:100|244:188|272:336|272:336|340:108|232:44,1,719.999980926514
206,258,13398,1,0,0:0:0:0:
424,228,13594,1,0,0:0:0:0:
206,258,13711,1,0,0:0:0:0:
304,36,13828,2,0,B|328:112|328:156|328:156|383:128|419:60|419:60|383:128|328:156|328:156|403:160|456:268|456:268|403:160|328:156|328:156|328:244|312:348,1,899.999976158143
448,60,14296,2,0,B|380:160|392:324|412:388|580:388|600:376|572:164|656:20|436:-20|428:112,1,719.999980926514
8,308,14765,2,0,B|-52:128|-16:40|-16:40|56:24|116:36|116:36|52:24|-12:40|-12:40|-24:116|-24:116|28:124|88:116,1,719.999980926514
336,60,14765,1,0,0:0:0:0:
336,60,14823,1,0,0:0:0:0:
336,60,14882,1,0,0:0:0:0:
306,277,14999,1,0,0:0:0:0:
510,194,15116,1,0,0:0:0:0:
324,64,15233,1,0,0:0:0:0:
116,352,15234,2,0,B|108:188|136:56|136:56|212:60|272:92|244:180|148:176|148:176|228:240|268:360,1,719.999980926514
324,64,15291,1,0,0:0:0:0:
324,64,15350,1,0,0:0:0:0:
294,282,15467,1,0,0:0:0:0:
498,198,15584,1,0,0:0:0:0:
368,280,15703,2,0,B|316:304|260:284|260:284|236:188|236:136|236:136|316:140|316:140|284:136|236:136|236:136|228:64|244:24|244:24|296:16|364:32|364:32|312:20|260:20,1,719.999980926514
88,228,15937,1,0,0:0:0:0:
500,320,16171,2,0,B|448:344|392:324|392:324|368:228|368:176|368:176|448:180|448:180|416:176|368:176|368:176|360:104|376:64|376:64|428:56|496:72|496:72|444:60|392:60,1,719.999980926514
306,258,16210,1,0,0:0:0:0:
88,228,16406,1,0,0:0:0:0:
306,258,16523,1,0,0:0:0:0:
0,24,16640,2,0,B|-28:144|-56:288|-36:352|92:368|152:340|112:20|112:20|120:84,1,719.999980926514
88,228,16875,1,0,0:0:0:0:
156,364,17109,2,0,B|140:180|172:100|172:100|244:188|272:336|272:336|340:108|232:44,1,719.999980926514
306,258,17148,1,0,0:0:0:0:
88,228,17344,1,0,0:0:0:0:
306,258,17461,1,0,0:0:0:0:
304,36,17578,2,0,B|328:112|328:156|328:156|383:128|419:60|419:60|383:128|328:156|328:156|403:160|456:268|456:268|403:160|328:156|328:156|328:244|312:348,1,899.999976158143
88,228,17812,1,0,0:0:0:0:
448,60,18046,2,0,B|380:160|392:324|412:388|580:388|600:376|572:164|656:20|436:-20|428:112,1,719.999980926514
306,258,18085,1,0,0:0:0:0:
88,228,18281,1,0,0:0:0:0:
306,258,18398,1,0,0:0:0:0:
8,308,18515,2,0,B|-52:128|-16:40|-16:40|56:24|116:36|116:36|52:24|-12:40|-12:40|-24:116|-24:116|28:124|88:116,1,719.999980926514
88,228,18750,1,0,0:0:0:0:
116,352,18984,2,0,B|108:188|136:56|136:56|212:60|272:92|244:180|148:176|148:176|228:240|268:360,1,719.999980926514
306,258,19023,1,0,0:0:0:0:
88,228,19219,1,0,0:0:0:0:
306,258,19336,1,0,0:0:0:0:
368,280,19453,2,0,B|316:304|260:284|260:284|236:188|236:136|236:136|316:140|316:140|284:136|236:136|236:136|228:64|244:24|244:24|296:16|364:32|364:32|312:20|260:20,1,719.999980926514
88,228,19687,1,0,0:0:0:0:
500,320,19921,2,0,B|448:344|392:324|392:324|368:228|368:176|368:176|448:180|448:180|416:176|368:176|368:176|360:104|376:64|376:64|428:56|496:72|496:72|444:60|392:60,1,719.999980926514
306,258,19960,1,0,0:0:0:0:
88,228,20156,1,0,0:0:0:0:
306,258,20273,1,0,0:0:0:0:
0,24,20390,2,0,B|-28:144|-56:288|-36:352|92:368|152:340|112:20|112:20|120:84,1,719.999980926514
156,364,20859,2,0,B|140:180|172:100|172:100|244:188|272:336|272:336|340:108|232:44,1,719.999980926514
304,36,21328,2,0,B|328:112|328:156|328:156|383:128|419:60|419:60|383:128|328:156|328:156|403:160|456:268|456:268|403:160|328:156|328:156|328:244|312:348,1,899.999976158143
448,60,21796,2,0,B|380:160|392:324|412:388|580:388|600:376|572:164|656:20|436:-20|428:112,1,719.999980926514
