osu file format v14

[General]
AudioFilename: audio.mp3
AudioLeadIn: 0
PreviewTime: 21362
Countdown: 1
SampleSet: None
StackLeniency: 0.7
Mode: 0
LetterboxInBreaks: 0
WidescreenStoryboard: 1

[Editor]
Bookmarks: 9410
DistanceSpacing: 0.5
BeatDivisor: 4
GridSize: 16
TimelineZoom: 1.8

[Metadata]
Title:More Cowbell
TitleUnicode:More Cowbell
Artist:Asher Roth
ArtistUnicode:Asher Roth
Creator:ode
Version:Silent's cry for help
Source:
Tags:
BeatmapID:1482734
BeatmapSetID:700090

[Difficulty]
HPDrainRate:6.6
CircleSize:4.2
OverallDifficulty:7.6
ApproachRate:9.4
SliderMultiplier:3.59999990463257
SliderTickRate:1

[Events]
//Background and Video events
0,0,"Walken-Cowbell.jpg",0,0
//Break Periods
//Storyboard Layer 0 (Background)
//Storyboard Layer 1 (Fail)
//Storyboard Layer 2 (Pass)
//Storyboard Layer 3 (Foreground)
//Storyboard Sound Samples

[TimingPoints]
7301,234.375,4,1,0,100,1,0
7301,-100,4,1,0,100,0,0
13863,-66.6666666666667,4,1,0,100,0,0
14039,-100,4,1,0,5,0,0
14097,-66.6666666666667,4,1,0,100,0,0
14801,-200,4,1,0,100,0,0
19957,-100,4,1,0,100,0,0
20133,-100,4,1,0,5,0,0
20191,-100,4,1,0,100,0,0
20367,-100,4,1,0,5,0,0
20426,-200,4,1,0,100,0,0
20894,-100,4,1,0,100,0,0
21362,-66.6666666666667,4,1,0,100,0,0

[HitObjects]
256,192,35,12,0,5894,0:0:0:0:
368,80,6832,5,0,0:0:0:0:
390,112,7301,5,0,0:0:0:0:
390,112,7359,1,0,0:0:0:0:
390,112,7418,1,0,0:0:0:0:
327,81,7535,1,0,0:0:0:0:
357,309,7652,1,0,0:0:0:0:
297,276,7769,5,0,0:0:0:0:
297,276,7828,1,0,0:0:0:0:
297,276,7886,1,0,0:0:0:0:
260,50,8004,1,0,0:0:0:0:
234,308,8121,1,0,0:0:0:0:
205,41,8238,2,0,L|203:229,1,179.999995231629
68,117,8472,5,0,0:0:0:0:
203,220,8707,1,0,0:0:0:0:
70,247,8941,1,0,0:0:0:0:
70,247,9058,1,0,0:0:0:0:
126,87,9410,5,0,0:0:0:0:
319,227,9645,1,0,0:0:0:0:
174,201,9879,1,0,0:0:0:0:
257,134,9996,1,0,0:0:0:0:
50,160,10347,5,0,0:0:0:0:
347,190,10582,1,0,0:0:0:0:
186,244,10816,1,0,0:0:0:0:
202,144,10933,1,0,0:0:0:0:
14,285,11285,5,0,0:0:0:0:
353,133,11520,1,0,0:0:0:0:
231,280,11754,1,0,0:0:0:0:
167,139,11871,1,0,0:0:0:0:
210,126,12222,5,0,0:0:0:0:
191,338,12457,1,0,0:0:0:0:
259,235,12691,1,0,0:0:0:0:
157,232,12808,1,0,0:0:0:0:
166,91,13160,5,0,0:0:0:0:
304,354,13395,1,0,0:0:0:0:
269,160,13629,1,0,0:0:0:0:
168,254,13746,1,0,0:0:0:0:
411,194,13863,6,0,P|236:72|83:188,1,405.000004720688
410,193,14097,6,0,P|241:282|94:161,1,405.000004720688
205,196,14332,2,0,P|264:74|238:73,1,270.000003147125
258,84,14801,5,0,0:0:0:0:
258,84,14859,1,0,0:0:0:0:
258,84,14918,1,0,0:0:0:0:
38,58,15035,1,0,0:0:0:0:
309,239,15152,1,0,0:0:0:0:
69,210,15269,5,0,0:0:0:0:
69,210,15327,1,0,0:0:0:0:
69,210,15386,1,0,0:0:0:0:
289,236,15503,1,0,0:0:0:0:
18,55,15620,1,0,0:0:0:0:
366,137,15972,5,0,0:0:0:0:
342,344,16207,1,0,0:0:0:0:
303,233,16441,1,0,0:0:0:0:
406,248,16558,1,0,0:0:0:0:
273,319,16910,5,0,0:0:0:0:
173,184,17144,1,0,0:0:0:0:
184,280,17379,1,0,0:0:0:0:
248,238,17496,1,0,0:0:0:0:
345,48,17847,5,0,0:0:0:0:
329,256,18082,1,0,0:0:0:0:
283,148,18316,1,0,0:0:0:0:
382,162,18433,1,0,0:0:0:0:
100,135,18785,5,0,0:0:0:0:
274,235,19019,1,0,0:0:0:0:
202,140,19254,1,0,0:0:0:0:
156,226,19371,1,0,0:0:0:0:
50,171,19722,5,0,0:0:0:0:
318,111,19957,2,0,P|234:154|363:179,1,269.999992847443
318,111,20191,2,0,P|402:154|273:179,1,269.999992847443
256,352,20426,2,0,L|256:32,1,314.99999165535
28,221,20894,6,0,P|248:41|491:230,1,629.9999833107
71,177,21363,2,0,P|257:248|450:166,1,405.000004720688
439,175,21597,2,0,P|255:248|71:177,1,405.000004720688
