osu file format v14

[General]
AudioFilename: audio.mp3
AudioLeadIn: 0
PreviewTime: 21362
Countdown: 1
SampleSet: Soft
StackLeniency: 0.7
Mode: 0
LetterboxInBreaks: 0
WidescreenStoryboard: 1

[Editor]
Bookmarks: 9410
DistanceSpacing: 1
BeatDivisor: 4
GridSize: 16
TimelineZoom: 3.099999

[Metadata]
Title:More Cowbell
TitleUnicode:More Cowbell
Artist:Asher Roth
ArtistUnicode:Asher Roth
Creator:ode
Version:Kastellann's e
Source:
Tags:
BeatmapID:1482721
BeatmapSetID:700090

[Difficulty]
HPDrainRate:6
CircleSize:4
OverallDifficulty:8
ApproachRate:9.3
SliderMultiplier:1.99999990463257
SliderTickRate:1

[Events]
//Background and Video events
0,0,"Walken-Cowbell.jpg",0,0
//Break Periods
//Storyboard Layer 0 (Background)
//Storyboard Layer 1 (Fail)
//Storyboard Layer 2 (Pass)
//Storyboard Layer 3 (Foreground)
//Storyboard Sound Samples

[TimingPoints]
726,234.375,4,2,0,49,1,0
2601,-200,4,2,0,49,0,0
6819,-50,4,2,0,49,0,0
7522,-200,4,2,0,49,0,0
13851,-100,4,2,0,49,0,0
20413,-100,4,2,0,49,0,0
21819,-50,4,2,0,49,0,0

[HitObjects]
187,101,2601,6,0,L|151:45,3,49.9999976158142
347,123,3069,2,0,L|403:87,3,49.9999976158142
325,283,3538,2,0,L|361:339,3,49.9999976158142
165,261,4006,2,0,L|109:296,3,49.9999976158142
417,218,4476,6,0,L|369:207,3,49.9999976158142
229,353,4945,2,0,L|240:305,3,49.9999976158142
94,165,5413,2,0,L|142:176,3,49.9999976158142
412,131,6819,6,0,P|435:63|366:113,1,199.999990463257
76,132,7288,5,0,0:0:0:0:
207,175,7347,1,0,0:0:0:0:
339,214,7405,1,0,0:0:0:0:
471,261,7522,2,0,L|474:204,1,49.9999976158143
436,132,7757,5,0,0:0:0:0:
305,175,7816,1,0,0:0:0:0:
173,214,7874,1,0,0:0:0:0:
41,261,7991,2,0,L|38:204,1,49.9999976158143
429,54,8460,5,0,0:0:0:0:
361,242,8694,1,0,0:0:0:0:
429,54,8929,1,0,0:0:0:0:
361,242,9046,1,0,0:0:0:0:
250,327,9397,5,0,0:0:0:0:
182,139,9631,1,0,0:0:0:0:
250,327,9866,1,0,0:0:0:0:
182,139,9983,1,0,0:0:0:0:
38,341,10335,5,0,0:0:0:0:
106,153,10569,1,0,0:0:0:0:
38,341,10804,1,0,0:0:0:0:
106,153,10921,1,0,0:0:0:0:
216,68,11272,5,0,0:0:0:0:
285,256,11506,1,0,0:0:0:0:
216,68,11741,1,0,0:0:0:0:
285,256,11858,1,0,0:0:0:0:
103,169,12210,5,0,0:0:0:0:
103,169,12444,1,0,0:0:0:0:
103,169,12679,1,0,0:0:0:0:
103,169,12796,1,0,0:0:0:0:
381,180,13147,5,0,0:0:0:0:
381,180,13381,1,0,0:0:0:0:
371,263,13616,1,0,0:0:0:0:
381,180,13733,1,0,0:0:0:0:
301,221,13851,6,0,B|296:303|296:303|267:327,1,99.9999952316285
226,271,14085,2,0,B|234:110|234:110|269:72,1,199.999990463257
135,91,14788,5,0,0:0:0:0:
65,61,14847,1,0,0:0:0:0:
74,135,14905,1,0,0:0:0:0:
147,256,15022,1,0,0:0:0:0:
336,238,15140,1,0,0:0:0:0:
438,135,15257,5,0,0:0:0:0:
447,61,15315,1,0,0:0:0:0:
377,91,15374,1,0,0:0:0:0:
365,256,15491,1,0,0:0:0:0:
176,238,15609,1,0,0:0:0:0:
76,56,15726,6,0,B|46:216|46:216|90:274,1,199.999990463257
147,65,16194,1,0,0:0:0:0:
127,282,16429,1,0,0:0:0:0:
247,156,16546,1,0,0:0:0:0:
369,37,16663,6,0,B|474:160|474:160|465:232,1,199.999990463257
312,80,17131,1,0,0:0:0:0:
437,258,17366,1,0,0:0:0:0:
237,250,17483,1,0,0:0:0:0:
36,241,17601,6,0,B|159:346|159:346|231:337,1,199.999990463257
79,184,18069,1,0,0:0:0:0:
257,309,18304,1,0,0:0:0:0:
369,209,18421,1,0,0:0:0:0:
472,101,18538,6,0,B|312:131|312:131|254:86,1,199.999990463257
464,31,19006,1,0,0:0:0:0:
247,50,19241,1,0,0:0:0:0:
140,182,19358,1,0,0:0:0:0:
37,318,19476,6,0,B|197:348|197:348|255:303,1,199.999990463257
160,105,19944,5,0,0:0:0:0:
354,323,20179,1,0,0:0:0:0:
422,194,20413,6,0,B|336:192|336:192|346:208|346:208|262:206|262:206|271:220|271:220|164:217|164:217|174:205|174:205|79:202,1,399.999980926514
46,93,21351,5,0,0:0:0:0:
46,93,21585,1,0,0:0:0:0:
412,131,21819,6,0,P|435:63|366:113,1,199.999990463257
