osu file format v14

[General]
AudioFilename: audio.mp3
AudioLeadIn: 0
PreviewTime: -1
Countdown: 0
SampleSet: Normal
StackLeniency: 0.7
Mode: 0
LetterboxInBreaks: 0
WidescreenStoryboard: 1

[Editor]
Bookmarks: 500,14102,17302,26902,32102,36302,39102,52502,54902,55702,62902,63702,65702,78102,79102,84502,90902,101302,103702,109702,113302,115902,126902,127702,128902,142102,148502,154902,180102,180502
DistanceSpacing: 0.8
BeatDivisor: 4
GridSize: 4
TimelineZoom: 5.899997

[Metadata]
Title:PIKACHU USE THUNDERBOLT! (Trap Remix)
TitleUnicode:PIKACHU USE THUNDERBOLT! (Trap Remix)
Artist:Asher Postman
ArtistUnicode:Asher Postman
Creator:thebyteman
Version:PP Thunderbolt
Source:Pokemon
Tags:Pokemon Pikachu Tec dubstep
BeatmapID:1978414
BeatmapSetID:929449

[Difficulty]
HPDrainRate:4
CircleSize:4.8
OverallDifficulty:5
ApproachRate:10
SliderMultiplier:1.4
SliderTickRate:1

[Events]
//Background and Video events
0,0,"joSZF.jpg",0,0
//Break Periods
//Storyboard Layer 0 (Background)
//Storyboard Layer 1 (Fail)
//Storyboard Layer 2 (Pass)
//Storyboard Layer 3 (Foreground)
//Storyboard Sound Samples

[TimingPoints]
500,400,4,1,0,100,1,0
500,-33.3333333333333,4,1,0,100,0,0
1302,400,4,1,0,100,1,0
1302,-100,4,1,0,100,0,0
3702,-50,4,1,0,100,0,0
6902,-100,4,1,0,100,0,0
7302,-400,4,1,0,100,0,0
8902,-40,4,1,0,100,0,0
10502,-100,4,1,0,100,0,0
12302,-33.3333333333333,4,1,0,100,0,0
13302,-100,4,1,0,100,0,0
14102,-33.3333333333333,4,1,0,100,0,0
17302,-100,4,1,0,100,0,0
17902,-40,4,1,0,100,0,0
20702,-26.6666666666667,4,1,0,100,0,0
21102,-40,4,1,0,100,0,0
22102,-25,4,1,0,100,0,0
22902,-26.6666666666667,4,1,0,100,0,0
24102,-40,4,1,0,100,0,0
26902,-26.6666666666667,4,1,0,100,0,0
28502,-33.3333333333333,4,1,0,100,0,0
30102,-57.1428571428571,4,1,0,100,0,0
31702,-133.333333333333,4,1,0,100,0,0
33302,-28.5714285714286,4,1,0,100,0,0
33702,-40,4,1,0,100,0,0
34102,-66.6666666666667,4,1,0,100,0,0
34502,-200,4,1,0,100,0,0
34902,-100,4,1,0,100,0,0
36502,-50,4,1,0,100,0,0
39502,-52.6315789473684,4,1,0,100,0,0
46102,-40,4,1,0,100,0,0
49302,-33.3333333333333,4,1,0,100,0,0
49402,-100,4,1,0,100,0,0
52502,-142.857142857143,4,1,0,100,0,0
53302,-100,4,1,0,100,0,0
54102,-76.9230769230769,4,1,0,100,0,0
54902,-62.5,4,1,0,100,0,0
55702,-52.6315789473684,4,1,0,100,0,0
56502,-45.4545454545455,4,1,0,100,0,0
57302,-38.4615384615385,4,1,0,100,0,0
58102,-33.3333333333333,4,1,0,100,0,0
63302,-25,4,1,0,100,0,0
63702,-28.5714285714286,4,1,0,100,0,1
77702,-50,4,1,0,100,0,0
78202,-50,4,1,0,100,0,0
79302,-42.5531914893617,4,1,0,100,0,0
82902,-142.857142857143,4,1,0,100,0,0
84502,-33.3333333333333,4,1,0,100,0,0
85702,-28.5714285714286,4,1,0,100,0,0
96902,-200,4,1,0,100,0,0
100102,-47.6190476190476,4,1,0,100,0,0
103702,-33.3333333333333,4,1,0,100,0,0
109702,-125,4,1,0,100,0,0
116902,-40,4,1,0,100,0,0
127302,-25,4,1,0,100,0,0
127702,-25,4,1,0,100,0,1
146902,-71.4285714285714,4,1,0,100,0,1
148502,-25,4,1,0,100,0,1
149502,-50,4,1,0,100,0,1
151302,-33.3333333333333,4,1,0,100,0,1
152702,-25,4,1,0,100,0,1
158902,-40,4,1,0,100,0,1
160902,-200,4,1,0,100,0,1
161702,-40,4,1,0,100,0,1
167302,-33.3333333333333,4,1,0,100,0,1
167702,-33.3333333333333,4,1,0,100,0,0
171502,-66.6666666666667,4,1,0,100,0,0
172502,-57.1428571428571,4,1,0,100,0,0
173102,-33.3333333333333,4,1,0,100,0,0
173702,-100,4,1,0,100,0,0
175702,-50,4,1,0,100,0,0
176302,-33.3333333333333,4,1,0,100,0,0
176902,-40,4,1,0,100,0,0
180502,-25,4,1,0,100,0,0
180602,-33.3333333333333,4,1,0,100,0,0
186502,-100,4,1,0,100,0,0
188502,-66.6666666666667,4,1,0,100,0,0
189302,-33.3333333333333,4,1,0,100,0,0
193102,-66.6666666666667,4,1,0,100,0,0

[Colours]
Combo1 : 255,0,0
Combo2 : 255,255,255
Combo3 : 255,255,0

[HitObjects]
255,83,500,6,0,B|206:208|206:208|343:162|343:162|250:325,1,420.000016021729
210,375,1302,5,0,0:0:0:0:
137,238,1702,1,0,0:0:0:0:
504,210,2102,1,0,0:0:0:0:
309,10,2502,5,0,0:0:0:0:
174,105,2702,1,0,0:0:0:0:
329,149,2902,1,0,0:0:0:0:
70,62,3302,5,0,0:0:0:0:
277,115,3502,1,0,0:0:0:0:
83,235,3702,2,0,B|217:247|217:247|289:85,1,280
162,158,4502,5,0,0:0:0:0:
445,223,4902,1,0,0:0:0:0:
46,352,5302,1,0,0:0:0:0:
370,163,5702,5,0,0:0:0:0:
206,246,5902,1,0,0:0:0:0:
369,321,6102,1,0,0:0:0:0:
216,147,6502,5,0,0:0:0:0:
404,224,6702,1,0,0:0:0:0:
110,349,6902,2,0,L|77:270,1,70
49,195,7302,6,0,B|58:218|58:218,1,17.5
416,84,7702,5,0,0:0:0:0:
425,313,8102,1,0,0:0:0:0:
84,105,8502,1,0,0:0:0:0:
289,217,8902,2,0,P|218:221|266:174,2,175
380,86,9702,5,0,0:0:0:0:
436,288,9902,1,0,0:0:0:0:
96,188,10102,1,0,0:0:0:0:
318,25,10502,6,0,L|261:74,1,70
85,213,10902,5,0,0:0:0:0:
206,354,11302,1,0,0:0:0:0:
375,65,11702,1,0,0:0:0:0:
218,74,12302,6,0,P|184:62|206:99,1,105.000004005432
357,121,12502,1,0,0:0:0:0:
189,208,12702,1,0,0:0:0:0:
355,281,12902,1,0,0:0:0:0:
222,89,13102,1,0,0:0:0:0:
267,287,13302,6,0,L|298:203,1,70
427,53,13702,2,0,L|341:100,1,70
242,154,14102,6,0,P|227:219|281:160,1,210
256,192,14502,12,0,16902,0:0:0:0:
129,87,17302,5,0,0:0:0:0:
135,88,17502,2,0,L|226:91,1,70
374,94,17902,2,0,B|485:95|485:95|416:143|416:143|476:156|476:156|379:262,1,350
198,344,18902,6,0,B|195:179|195:179|280:154|307:264|230:273|166:246,1,350
39,265,19502,5,0,0:0:0:0:
39,265,19702,2,0,L|48:125,1,87.5
53,69,19902,5,0,0:0:0:0:
53,69,20102,1,0,0:0:0:0:
53,69,20302,1,0,0:0:0:0:
259,226,20502,5,0,0:0:0:0:
259,226,20702,2,0,B|270:109|270:109|324:106|330:145|328:187|238:147,1,262.500006258488
157,181,21102,6,0,B|159:25|159:25|221:0|254:58|233:122|133:93,1,350
183,93,22102,6,0,B|197:116|260:119|275:48|219:6|179:45|179:45|180:210,1,280
177,326,22702,5,0,0:0:0:0:
177,326,22902,2,0,B|188:209|188:209|242:206|248:245|246:287|156:247,1,262.500006258488
34,261,23302,5,0,0:0:0:0:
34,261,23502,1,0,0:0:0:0:
256,192,23702,1,0,0:0:0:0:
256,192,23902,1,0,0:0:0:0:
142,164,24102,2,0,P|173:271|162:117,1,700
256,192,25102,12,0,26502,0:0:0:0:
214,168,26902,6,0,P|291:157|210:202,1,262.500006258488
169,106,27302,6,0,P|139:226|240:311,1,262.500006258488
343,106,27702,5,0,0:0:0:0:
377,184,27802,1,0,0:0:0:0:
352,265,27902,1,0,0:0:0:0:
278,309,28002,1,0,0:0:0:0:
169,106,28102,6,0,P|139:226|240:311,1,262.500006258488
256,192,28502,6,0,P|365:192|437:122,1,210.000008010865
256,192,28902,6,0,P|256:301|326:373,1,210.000008010865
256,192,29302,5,0,0:0:0:0:
187,181,29402,1,0,0:0:0:0:
122,205,29502,1,0,0:0:0:0:
77,257,29602,1,0,0:0:0:0:
256,192,29702,6,0,P|256:83|186:11,1,210.000008010865
242,90,30102,2,0,P|342:51|387:79,1,122.500001168251
446,121,30502,6,0,P|398:158|338:157,1,122.500001168251
242,90,30902,1,0,0:0:0:0:
204,75,31002,1,0,0:0:0:0:
163,78,31102,1,0,0:0:0:0:
128,98,31202,1,0,0:0:0:0:
66,198,31302,6,0,P|124:213|179:189,1,122.500001168251
251,345,31702,6,0,L|303:292,1,52.5000020027161
324,270,32102,6,0,L|271:323,1,52.5000020027161
249,270,32502,5,0,0:0:0:0:
261,282,32602,1,0,0:0:0:0:
273,294,32702,1,0,0:0:0:0:
286,307,32802,1,0,0:0:0:0:
324,344,32902,6,0,L|271:291,1,52.5000020027161
147,91,33302,2,0,B|238:121|243:36|212:-1|144:19|144:19|143:218,1,367.500014019013
147,91,33702,2,0,B|214:114|226:52|205:18|145:36|145:36|143:218,1,262.5
147,91,34102,2,0,B|191:91|193:53|173:45|144:51|144:51|144:141,1,157.500006008148
147,91,34502,2,0,B|160:82|158:74|146:71|143:83|143:83|144:112,1,52.5
139,192,34902,6,0,B|18:192|18:192|91:244|91:244|39:244|39:244|74:284|74:284|46:284|46:284|85:367|85:367,1,420
224,325,36302,5,0,0:0:0:0:
224,325,36502,2,0,B|301:326|301:326|285:263|285:263|395:279|395:279|229:98|229:98|478:136|478:136|435:218|435:218|339:118,1,980
402,128,39102,1,0,0:0:0:0:
174,178,39302,1,0,0:0:0:0:
379,318,39502,2,0,B|338:251|338:251|294:299|294:299|266:152|266:152|153:362|153:362|56:47|56:47|245:48|245:48|151:222|151:222,1,1196.99996803665
254,230,42302,6,0,P|226:230|204:212,1,52.5000020027161
301,167,42502,2,0,P|279:152|253:153,1,52.5000020027161
358,230,42702,2,0,P|253:311|122:223,1,265.999992897034
76,260,45102,6,0,P|77:192|129:140,1,105.000004005432
438,140,45502,2,0,P|441:191|417:237,1,105.000004005432
219,298,45902,1,0,0:0:0:0:
219,298,46102,2,0,B|208:253|208:253|238:249|238:249|221:227|221:227|249:223|249:223|244:195|244:195|371:159|344:31,1,350
446,277,49302,6,0,B|290:287|290:287|344:197|344:197|177:224|177:224|275:84|275:84|38:82|38:82|67:168|67:168|275:84,1,1050.00004005432
256,192,50702,8,0,51702,0:0:0:0:
112,162,51902,6,0,L|86:185,5,35
46,291,52502,6,0,P|69:326|91:338,1,48.9999985046387
149,318,52902,2,0,P|131:288|113:273,1,48.9999985046387
55,210,53302,6,0,P|26:174|19:133,1,70
64,74,53702,2,0,P|96:108|102:151,1,70
115,240,54102,6,0,P|140:289|181:315,1,90.9999958343508
271,303,54502,2,0,P|247:254|214:227,1,90.9999958343508
132,140,54902,6,0,P|165:78|217:56,1,112
326,40,55302,2,0,P|388:55|422:106,1,112
452,242,55702,6,0,P|419:312|351:334,1,132.999996448517
255,330,56102,2,0,P|280:262|341:223,1,132.999996448517
466,161,56502,6,0,P|450:85|384:38,1,154.000004699707
227,27,56902,2,0,P|248:97|310:143,1,154.000004699707
479,248,57302,6,0,P|440:315|341:349,1,181.999991668702
188,338,57702,2,0,P|221:265|322:212,1,181.999991668702
488,168,58102,6,0,P|470:91|330:26,1,210.000008010865
168,29,58502,2,0,P|96:48|27:165,1,210.000008010865
31,355,58902,5,0,0:0:0:0:
123,213,59102,1,0,0:0:0:0:
197,353,59302,1,0,0:0:0:0:
27,158,59502,5,0,0:0:0:0:
272,176,59702,1,0,0:0:0:0:
112,355,59902,1,0,0:0:0:0:
153,128,60102,1,0,0:0:0:0:
324,334,60302,5,0,0:0:0:0:
324,334,60402,1,0,0:0:0:0:
324,334,60502,1,0,0:0:0:0:
66,168,60702,5,0,0:0:0:0:
394,96,60902,1,0,0:0:0:0:
182,361,61102,1,0,0:0:0:0:
209,55,61302,1,0,0:0:0:0:
365,315,61502,1,0,0:0:0:0:
119,98,61702,1,0,0:0:0:0:
401,122,61902,5,0,0:0:0:0:
400,151,62002,1,0,0:0:0:0:
378,179,62102,5,0,0:0:0:0:
351,205,62202,1,0,0:0:0:0:
344,243,62302,1,0,0:0:0:0:
357,274,62402,1,0,0:0:0:0:
388,299,62502,5,0,0:0:0:0:
430,298,62602,1,0,0:0:0:0:
456,275,62702,1,0,0:0:0:0:
449,231,62802,1,0,0:0:0:0:
426,203,62902,6,0,L|450:167,1,41.9999987182618
388,190,63002,6,0,L|367:227,1,41.9999987182618
350,167,63102,6,0,L|373:122,1,41.9999987182618
308,154,63202,6,0,L|292:202,1,41.9999987182618
270,133,63302,6,0,P|248:166|234:111,1,70
223,159,63402,6,0,P|189:137|244:122,1,70
195,113,63502,6,0,P|220:82|228:139,1,70
243,90,63602,6,0,P|282:87|242:47,1,70
302,29,63702,6,0,B|484:29|484:29|378:144|378:144|476:144|476:144|354:255|354:255|424:255|424:255|213:388|213:388|303:269|303:269|238:269|238:269|327:168|327:168|234:168|234:168|314:15,1,1470.00001401901
136,36,65302,2,0,B|37:68|37:68|171:121|171:121|87:159|87:159|249:257,1,490.000004673004
368,340,65802,5,0,0:0:0:0:
461,35,65902,1,0,0:0:0:0:
167,121,66002,1,0,0:0:0:0:
457,215,66102,5,0,0:0:0:0:
209,34,66202,1,0,0:0:0:0:
281,331,66302,1,0,0:0:0:0:
383,42,66402,1,0,0:0:0:0:
139,242,66502,5,0,0:0:0:0:
431,140,66602,1,0,0:0:0:0:
198,348,66702,1,0,0:0:0:0:
286,54,66802,1,0,0:0:0:0:
438,319,66902,5,0,0:0:0:0:
183,148,67002,1,0,0:0:0:0:
477,231,67102,1,0,0:0:0:0:
178,291,67202,1,0,0:0:0:0:
380,54,67302,5,0,0:0:0:0:
316,348,67402,1,0,0:0:0:0:
223,86,67502,1,0,0:0:0:0:
401,256,67602,1,0,0:0:0:0:
163,219,67702,5,0,0:0:0:0:
457,143,67802,5,0,0:0:0:0:
457,143,67852,1,0,0:0:0:0:
457,143,67902,1,0,0:0:0:0:
215,331,68002,5,0,0:0:0:0:
333,53,68102,5,0,0:0:0:0:
407,336,68202,1,0,0:0:0:0:
216,95,68302,1,0,0:0:0:0:
452,252,68402,1,0,0:0:0:0:
162,235,68502,5,0,0:0:0:0:
405,94,68602,1,0,0:0:0:0:
320,352,68702,2,0,L|222:240,1,122.500001168251
116,78,68902,5,0,0:0:0:0:
356,178,69002,1,0,0:0:0:0:
74,174,69102,1,0,0:0:0:0:
358,274,69202,1,0,0:0:0:0:
244,18,69302,5,0,0:0:0:0:
85,271,69402,1,0,0:0:0:0:
287,152,69502,1,0,0:0:0:0:
246,352,69602,1,0,0:0:0:0:
290,77,69702,5,0,0:0:0:0:
151,333,69802,1,0,0:0:0:0:
383,178,69902,1,0,0:0:0:0:
100,149,70002,1,0,0:0:0:0:
376,290,70102,5,0,0:0:0:0:
177,57,70202,1,0,0:0:0:0:
294,292,70302,1,0,0:0:0:0:
410,58,70402,1,0,0:0:0:0:
212,291,70502,6,0,B|211:251|211:251|163:252|163:252|198:197|198:197|95:191|95:191|110:139|110:139|160:166,1,367.500003504753
299,167,70902,6,0,B|375:195|387:108|300:123|300:123|297:281,1,245.000002336502
326,188,71302,5,0,0:0:0:0:
326,188,71402,1,0,0:0:0:0:
326,188,71502,2,0,B|324:62|324:62|406:62|414:136|300:111,1,245.000002336502
235,107,72902,6,0,P|156:185|266:232,1,245.000002336502
228,175,73202,5,0,0:0:0:0:
492,20,73302,5,0,0:0:0:0:
360,363,73402,1,0,0:0:0:0:
242,21,73502,1,0,0:0:0:0:
499,192,73602,1,0,0:0:0:0:
129,341,73702,5,0,0:0:0:0:
162,32,73802,1,0,0:0:0:0:
374,274,73902,1,0,0:0:0:0:
31,87,74002,1,0,0:0:0:0:
375,56,74102,5,0,0:0:0:0:
35,278,74202,1,0,0:0:0:0:
479,325,74302,1,0,0:0:0:0:
115,121,74402,1,0,0:0:0:0:
393,361,74502,5,0,0:0:0:0:
262,18,74602,1,0,0:0:0:0:
201,361,74702,1,0,0:0:0:0:
78,25,74802,1,0,0:0:0:0:
402,149,74902,5,0,0:0:0:0:
47,294,75002,1,0,0:0:0:0:
414,249,75102,1,0,0:0:0:0:
68,115,75202,1,0,0:0:0:0:
319,350,75302,5,0,0:0:0:0:
387,41,75402,1,0,0:0:0:0:
124,218,75502,1,0,0:0:0:0:
482,192,75602,1,0,0:0:0:0:
163,30,75702,5,0,0:0:0:0:
158,347,75802,5,0,0:0:0:0:
158,347,75852,1,0,0:0:0:0:
158,347,75902,1,0,0:0:0:0:
270,168,76002,5,0,0:0:0:0:
456,349,76102,5,0,0:0:0:0:
293,51,76202,1,0,0:0:0:0:
235,356,76302,1,0,0:0:0:0:
480,124,76402,1,0,0:0:0:0:
43,243,76502,5,0,0:0:0:0:
348,325,76602,1,0,0:0:0:0:
60,77,76702,2,0,L|151:168,1,122.500001168251
231,262,76902,5,0,0:0:0:0:
420,44,77002,1,0,0:0:0:0:
473,337,77102,2,0,L|352:184,1,122.500001168251
298,93,77302,5,0,0:0:0:0:
100,344,77402,1,0,0:0:0:0:
175,47,77502,2,0,L|273:239,1,122.500001168251
332,342,77702,6,0,B|335:216|335:216|393:201|417:242|377:293|315:260,1,280
251,310,78202,6,0,B|249:96|249:96|388:88|398:223|271:243|186:195,1,490
119,211,79102,5,0,0:0:0:0:
119,211,79302,2,0,B|114:65|114:65|225:38|181:214|72:80,1,328.999994979858
27,37,80102,6,0,B|18:93|18:93|80:71|80:71|38:152|38:152|166:113|166:113|73:240|73:240|166:202|129:309,1,575.749991214752
210,354,80902,5,0,0:0:0:0:
368,182,81102,1,0,0:0:0:0:
368,182,81202,1,0,0:0:0:0:
368,182,81302,2,0,P|355:283|325:152,1,411.249993724823
368,182,81902,6,0,B|272:91|170:197|226:330|335:296|335:296|315:364|257:338,1,411.249993724823
216,352,82502,6,0,P|149:265|211:110,1,246.749996234894
231,69,82902,6,0,B|122:162|122:162|56:114|112:64|165:52|184:172,1,342.999989532471
184,246,84502,2,0,P|236:297|199:224,1,210.000008010865
87,195,84902,2,0,P|48:51|112:189,1,420.000016021729
64,350,85502,5,0,0:0:0:0:
64,350,85702,2,0,B|64:236|64:236|146:233|146:330|-16:264,3,245.000002336502
64,286,86502,2,0,B|129:299|142:237|64:236|64:236|64:350,3,245.000002336502
68,38,87302,5,0,0:0:0:0:
312,149,87502,5,0,0:0:0:0:
312,149,87602,1,0,0:0:0:0:
377,93,87702,2,0,P|337:230|334:63,1,490.000004673004
377,93,88302,6,0,B|274:-24|76:151|261:318|375:256|399:153|399:153|475:238|367:301,1,612.500005841255
362,313,88902,6,0,P|196:290|140:99,1,367.500003504753
286,157,89302,5,0,0:0:0:0:
286,157,89502,2,0,B|267:124|289:119|301:131|293:160|293:160|241:160,1,122.500001168251
41,158,89702,1,0,0:0:0:0:
165,89,89902,5,0,0:0:0:0:
165,89,90002,1,0,0:0:0:0:
165,89,90102,2,0,B|205:114|254:34|161:36|161:36|161:166,1,245.000002336502
238,277,90502,6,0,B|238:147|238:147|331:145|284:235|212:191,1,245.000002336502
36,221,90902,5,0,0:0:0:0:
183,61,91102,1,0,0:0:0:0:
167,277,91302,1,0,0:0:0:0:
51,77,91502,1,0,0:0:0:0:
272,196,91702,5,0,0:0:0:0:
432,76,91902,1,0,0:0:0:0:
437,293,92102,1,0,0:0:0:0:
310,73,92302,1,0,0:0:0:0:
491,162,92502,5,0,0:0:0:0:
319,332,92702,1,0,0:0:0:0:
237,109,92902,1,0,0:0:0:0:
139,309,93102,1,0,0:0:0:0:
367,146,93302,5,0,0:0:0:0:
226,345,93502,1,0,0:0:0:0:
129,131,93702,1,0,0:0:0:0:
328,287,93902,1,0,0:0:0:0:
117,252,94102,5,0,0:0:0:0:
278,42,94302,1,0,0:0:0:0:
221,321,94502,1,0,0:0:0:0:
137,94,94702,1,0,0:0:0:0:
397,168,94902,5,0,0:0:0:0:
122,219,95102,1,0,0:0:0:0:
373,303,95302,1,0,0:0:0:0:
245,57,95502,1,0,0:0:0:0:
221,302,95702,5,0,0:0:0:0:
429,105,95902,1,0,0:0:0:0:
121,140,96102,1,0,0:0:0:0:
379,305,96302,1,0,0:0:0:0:
312,63,96502,5,0,0:0:0:0:
184,282,96702,1,0,0:0:0:0:
35,46,96902,2,0,L|67:74,1,35
267,295,97302,5,0,0:0:0:0:
185,45,97502,1,0,0:0:0:0:
48,273,97702,1,0,0:0:0:0:
35,67,97902,1,0,0:0:0:0:
280,170,98102,5,0,0:0:0:0:
146,339,98302,1,0,0:0:0:0:
179,41,98502,5,0,0:0:0:0:
35,240,98702,1,0,0:0:0:0:
244,245,98902,1,0,0:0:0:0:
51,93,99102,1,0,0:0:0:0:
319,110,99302,5,0,0:0:0:0:
155,255,99502,1,0,0:0:0:0:
123,37,99702,1,0,0:0:0:0:
319,110,99902,1,0,0:0:0:0:
244,346,100102,6,0,B|244:37|244:37|429:-13|466:196|334:209|199:183,1,734.999977569581
35,135,101302,5,0,0:0:0:0:
244,346,101502,1,0,0:0:0:0:
314,108,101702,1,0,0:0:0:0:
79,313,101902,1,0,0:0:0:0:
207,46,102102,5,0,0:0:0:0:
343,272,102302,1,0,0:0:0:0:
75,179,102502,1,0,0:0:0:0:
333,119,102702,1,0,0:0:0:0:
216,356,102902,5,0,0:0:0:0:
113,102,103102,1,0,0:0:0:0:
343,272,103302,1,0,0:0:0:0:
275,41,103502,1,0,0:0:0:0:
219,176,103702,6,0,P|265:231|240:154,1,210.000008010865
256,192,104002,12,0,106902,0:0:0:0:
178,264,107102,5,0,0:0:0:0:
134,129,107302,1,0,0:0:0:0:
353,222,107502,2,0,B|276:260|276:260|269:202|269:202|178:267|178:267|221:63|221:63|117:71|117:71|163:221,1,630.000024032594
188,352,108302,5,0,0:0:0:0:
339,151,108502,2,0,P|274:109|317:171,5,210.000008010865
203,364,109702,6,0,B|201:43|201:43|495:-61|462:300|311:279|153:198,1,896
307,139,113102,5,0,0:0:0:0:
307,139,113202,1,0,0:0:0:0:
307,139,113302,1,0,0:0:0:0:
425,348,113502,5,0,0:0:0:0:
204,295,113702,5,0,0:0:0:0:
396,129,113902,1,0,0:0:0:0:
173,103,114102,1,0,0:0:0:0:
310,241,114302,1,0,0:0:0:0:
115,185,114502,5,0,0:0:0:0:
269,115,114702,1,0,0:0:0:0:
234,300,114902,1,0,0:0:0:0:
401,247,115102,1,0,0:0:0:0:
204,184,115302,5,0,0:0:0:0:
420,122,115502,1,0,0:0:0:0:
247,24,115702,1,0,0:0:0:0:
306,266,116502,5,0,0:0:0:0:
306,266,116702,1,0,0:0:0:0:
248,309,116902,2,0,P|336:331|371:236,1,175
346,126,117302,6,0,P|387:161|384:220,1,87.5
322,191,117502,1,0,0:0:0:0:
322,191,117602,1,0,0:0:0:0:
322,191,117702,2,0,P|283:103|398:79,1,175
443,54,118102,5,0,0:0:0:0:
176,83,118302,1,0,0:0:0:0:
179,15,118502,2,0,P|110:58|141:146,1,175
295,132,118902,6,0,P|283:184|232:211,1,87.5
221,137,119102,1,0,0:0:0:0:
221,137,119202,1,0,0:0:0:0:
221,137,119302,2,0,P|255:61|361:111,1,175
419,142,119702,5,0,0:0:0:0:
419,142,119902,1,0,0:0:0:0:
488,149,120102,2,0,P|448:76|367:88,1,175
285,174,120502,5,0,0:0:0:0:
214,168,120702,1,0,0:0:0:0:
214,168,120802,1,0,0:0:0:0:
214,168,120902,2,0,P|290:103|355:170,1,175
390,221,121302,5,0,0:0:0:0:
214,168,121502,1,0,0:0:0:0:
141,149,121702,2,0,P|179:231|288:186,1,175
307,135,122102,5,0,0:0:0:0:
189,94,122302,1,0,0:0:0:0:
189,94,122402,1,0,0:0:0:0:
189,94,122502,2,0,P|97:87|97:200,1,175
92,298,122902,5,0,0:0:0:0:
231,191,123102,1,0,0:0:0:0:
215,309,123302,5,0,0:0:0:0:
98,116,123502,1,0,0:0:0:0:
301,49,123702,5,0,0:0:0:0:
45,213,123902,1,0,0:0:0:0:
413,297,124102,5,0,0:0:0:0:
138,71,124302,5,0,0:0:0:0:
138,71,124402,1,0,0:0:0:0:
138,71,124502,1,0,0:0:0:0:
224,339,124702,5,0,0:0:0:0:
390,90,124902,5,0,0:0:0:0:
45,280,125102,1,0,0:0:0:0:
197,14,125302,5,0,0:0:0:0:
487,368,125502,1,0,0:0:0:0:
16,105,125702,5,0,0:0:0:0:
123,38,125902,5,0,0:0:0:0:
123,38,126002,1,0,0:0:0:0:
123,38,126102,5,0,0:0:0:0:
160,33,126202,1,0,0:0:0:0:
194,37,126302,1,0,0:0:0:0:
224,45,126402,1,0,0:0:0:0:
247,61,126502,5,0,0:0:0:0:
260,90,126602,1,0,0:0:0:0:
244,129,126702,1,0,0:0:0:0:
261,164,126802,1,0,0:0:0:0:
298,181,126902,6,0,L|286:249,1,43.75
347,168,127002,6,0,L|318:120,1,43.75
387,150,127102,6,0,L|427:201,1,43.75
417,111,127202,6,0,L|366:80,1,43.75
446,87,127302,6,0,P|460:54|424:52,1,70
435,43,127402,6,0,P|422:10|395:33,1,70
398,20,127502,6,0,P|366:2|360:38,1,70
354,26,127602,6,0,P|322:8|286:27,1,70
262,46,127702,6,0,B|80:46|80:46|186:161|186:161|88:161|88:161|210:272|210:272|140:272|140:272|351:405|351:405|261:286|261:286|326:286|326:286|237:185|237:185|330:185|330:185|250:32,1,1470.00001401901
217,107,128902,6,0,P|82:120|255:308,1,560
161,223,129502,5,0,0:0:0:0:
161,223,129702,2,0,B|124:260|124:260|183:283|183:283|141:322|141:322|209:401|311:225,1,280
418,207,130302,2,0,B|370:227|370:227|377:153|377:153|326:183|326:183|309:113|309:113|369:80,1,280
477,43,130702,5,0,0:0:0:0:
477,43,130902,2,0,B|464:7|464:7|424:14|424:14|396:68|396:68|363:22|363:22|311:32|311:32|322:122,1,280
306,330,131302,5,0,0:0:0:0:
306,330,131502,2,0,B|271:300|271:300|246:343|246:343|215:303|215:303|187:342|187:342|140:266,1,280
32,39,131902,5,0,0:0:0:0:
32,39,132102,2,0,B|68:68|68:68|20:100|20:100|95:94|95:94|6:169|6:169|131:166|131:166|73:239|73:239|221:232,1,560
411,225,132702,5,0,0:0:0:0:
411,225,132802,1,0,0:0:0:0:
411,225,132902,2,0,B|432:256|432:256|280:213,1,140
270,142,133102,2,0,B|241:117|241:117|406:136,1,140
474,162,133302,5,0,0:0:0:0:
474,162,133402,1,0,0:0:0:0:
474,162,133502,2,0,B|476:101|476:101|375:155,1,140
230,291,133702,5,0,0:0:0:0:
84,51,133802,1,0,0:0:0:0:
395,61,133902,1,0,0:0:0:0:
346,345,134002,1,0,0:0:0:0:
192,119,134102,2,0,B|236:73|236:73|299:202,1,140
346,345,134302,5,0,0:0:0:0:
346,345,134352,1,0,0:0:0:0:
346,345,134402,1,0,0:0:0:0:
469,79,134502,6,0,B|435:33|435:33|320:112,1,140
289,164,134702,2,0,B|323:210|323:210|438:131,1,140
469,79,134902,6,0,B|511:140|511:140|469:248,1,140
414,363,135102,5,0,0:0:0:0:
149,80,135202,1,0,0:0:0:0:
426,147,135302,1,0,0:0:0:0:
96,304,135402,1,0,0:0:0:0:
257,232,135502,6,0,B|258:154|258:154|309:147|301:199|241:181,1,140
67,260,135702,6,0,B|101:205|101:205|143:289|143:289|165:167|165:167|180:299|333:188,1,420
384,177,136102,6,0,B|414:126|414:126|334:147|334:147|373:74|373:74|276:47|276:47|285:103|285:103|174:149,1,420
249,117,136502,2,0,B|285:103|285:103|276:47|276:47|373:74|373:74|334:147|334:147|414:126|414:126|384:177,1,420
270,364,136902,6,0,B|383:178|383:178|199:257|199:257|249:117,1,560
289,19,137502,5,0,0:0:0:0:
298,139,137702,2,0,B|251:183|251:183|150:128,1,140
186,73,137902,2,0,B|233:29|233:29|334:84,1,140
424,167,138102,5,0,0:0:0:0:
368,113,138202,1,0,0:0:0:0:
466,234,138302,2,0,B|454:307|454:307|348:336,1,140
16,369,138702,5,0,0:0:0:0:
161,73,139102,5,0,0:0:0:0:
161,73,139152,1,0,0:0:0:0:
161,73,139202,1,0,0:0:0:0:
121,150,139302,6,0,B|90:220|90:220|138:290,1,140
192,336,139502,2,0,B|222:265|222:265|174:195,1,140
62,45,139702,5,0,0:0:0:0:
62,45,139802,1,0,0:0:0:0:
62,45,139902,2,0,B|75:112|75:112|149:145,1,140
424,215,140102,5,0,0:0:0:0:
109,319,140202,1,0,0:0:0:0:
148,55,140302,1,0,0:0:0:0:
267,306,140402,1,0,0:0:0:0:
418,60,140502,2,0,B|341:38|341:38|287:98,1,140
177,240,140702,5,0,0:0:0:0:
366,124,140802,1,0,0:0:0:0:
124,56,140902,2,0,B|203:77|203:77|237:161,1,140
243,227,141102,2,0,B|164:206|164:206|140:117,1,140
124,56,141302,2,0,B|62:109|62:109|68:199,1,140
86,264,141502,5,0,0:0:0:0:
150,337,141602,1,0,0:0:0:0:
245,359,141702,1,0,0:0:0:0:
342,351,141802,1,0,0:0:0:0:
427,302,141902,1,0,0:0:0:0:
445,205,142002,1,0,0:0:0:0:
401,116,142102,1,0,0:0:0:0:
255,191,142302,6,0,B|255:44|255:44|353:44|293:166|192:79|192:79|192:146|192:146|104:137|104:137|76:241,1,560
43,352,142902,5,0,0:0:0:0:
354,201,143102,2,0,B|299:244|299:244|295:179|295:179|229:244|229:244|220:85|220:85|89:162|89:162|157:219|157:219|205:101,1,700
220,87,143702,6,0,B|269:121|269:121|283:78|283:78|341:117|341:117|382:22|382:22|445:88|445:88|413:120|413:120|435:176|435:176|352:202,1,560
354,201,144302,6,0,B|299:244|299:244|295:179|295:179|229:244|229:244|220:85|220:85|89:162|89:162|157:219|157:219|184:151,1,700
219,86,144902,6,0,B|211:153|211:153|166:172|166:172|194:202|194:202|146:225|146:225|160:305|160:305|348:365|385:182,1,560
376,215,145502,6,0,B|376:69|376:69|477:47|474:121|460:181|354:151|270:74|270:74|199:165|199:165|210:178|210:178|176:178|176:178|203:191|203:191|167:198|167:198|189:220|189:220|153:223|153:223|182:242|182:242|142:245|142:245|175:260|175:260|189:350|81:325,1,980
126,330,146302,6,0,B|183:363|183:363|279:360|279:360|302:239,1,280
316,95,146702,5,0,0:0:0:0:
256,268,146902,2,0,B|256:35|256:35|377:-6|432:94|377:199|247:156,1,538.999983551026
258,164,148502,6,0,P|175:295|356:244,1,420
366,265,148902,6,0,P|348:216|374:221,1,70
363,214,149002,6,0,P|342:171|328:193,1,70
330,181,149102,6,0,P|289:174|305:153,1,70
295,161,149202,6,0,P|258:148|266:174,1,70
257,163,149302,6,0,P|224:218|193:146,1,140
174,37,149502,6,0,P|79:112|224:134,1,280
153,109,150102,2,0,P|249:179|181:250,1,210
177,179,150502,1,0,0:0:0:0:
215,238,150702,2,0,P|241:145|153:109,1,210
47,159,151302,6,0,B|25:206|25:206|72:224|72:224|53:270|53:270|137:308,2,210.000008010865
132,69,151902,5,0,0:0:0:0:
132,69,152102,2,0,B|87:94|87:94|129:132|129:132|47:158|47:158|12:250|83:304|165:304,1,420.000016021729
391,295,152702,6,0,P|299:258|409:184,1,280
361,233,153102,1,0,0:0:0:0:
256,192,153302,12,0,156302,0:0:0:0:
101,69,156502,5,0,0:0:0:0:
283,229,156702,1,0,0:0:0:0:
277,49,156902,5,0,0:0:0:0:
146,255,157102,1,0,0:0:0:0:
364,221,157302,5,0,0:0:0:0:
102,59,157502,1,0,0:0:0:0:
349,118,157702,5,0,0:0:0:0:
210,289,157902,1,0,0:0:0:0:
204,82,158102,5,0,0:0:0:0:
346,296,158302,1,0,0:0:0:0:
356,90,158502,5,0,0:0:0:0:
177,273,158702,1,0,0:0:0:0:
300,45,158902,6,0,B|218:183|218:183|392:137|392:137|286:291,1,525
232,366,159702,5,0,0:0:0:0:
364,182,159902,1,0,0:0:0:0:
187,188,160102,5,0,0:0:0:0:
402,314,160302,1,0,0:0:0:0:
281,136,160502,5,0,0:0:0:0:
147,325,160702,1,0,0:0:0:0:
394,134,160902,6,0,L|369:176,1,35
240,225,161302,5,0,0:0:0:0:
220,140,161502,1,0,0:0:0:0:
121,349,161702,6,0,B|123:315|123:315|161:332|161:332|150:299|150:299|179:313|179:313|172:284|172:284|296:362|380:249|334:70|156:163,1,525
239,223,162502,5,0,0:0:0:0:
394,319,162702,1,0,0:0:0:0:
399,163,162902,5,0,0:0:0:0:
248,345,163102,1,0,0:0:0:0:
289,153,163302,5,0,0:0:0:0:
447,297,163502,1,0,0:0:0:0:
215,272,163702,5,0,0:0:0:0:
421,186,163902,1,0,0:0:0:0:
348,356,164102,5,0,0:0:0:0:
310,138,164302,1,0,0:0:0:0:
211,344,164502,5,0,0:0:0:0:
419,193,164702,1,0,0:0:0:0:
316,217,164902,5,0,0:0:0:0:
380,121,165102,1,0,0:0:0:0:
447,218,165302,6,0,P|303:64|385:240,1,525
382,133,166102,5,0,0:0:0:0:
455,295,166302,1,0,0:0:0:0:
299,245,166502,5,0,0:0:0:0:
496,178,166702,1,0,0:0:0:0:
396,333,166902,5,0,0:0:0:0:
303,119,167102,1,0,0:0:0:0:
398,186,167302,6,0,B|398:72|398:72|465:64|461:145|354:109,1,210.000008010865
253,148,167702,6,0,P|225:224|297:187,1,210.000008010865
256,192,168002,12,0,170502,0:0:0:0:
256,192,170902,5,0,0:0:0:0:
256,192,171102,2,0,B|315:213|344:160|321:109|253:123|253:123|252:334,1,315.000012016297
252,265,171502,6,0,B|253:123|253:123|321:109|344:160|315:213|256:192,1,315.000012016297
137,212,172502,6,0,B|137:141|137:141|176:128|194:187|63:160,1,122.500001168251
364,203,173102,5,0,0:0:0:0:
364,203,173302,2,0,B|364:110|364:110|433:101|427:176|303:143,1,210.000008010865
87,155,173702,6,0,B|208:200|246:107|205:-27|85:32|85:32|84:352,1,630
158,304,175702,6,0,B|157:232|157:232|196:219|214:278|83:251,1,140
442,123,176302,5,0,0:0:0:0:
442,123,176502,2,0,B|442:30|442:30|511:21|505:96|381:63,1,210.000008010865
255,237,176902,6,0,B|255:157|255:157|294:144|321:176|302:208|236:179,1,175
257,202,177302,5,0,0:0:0:0:
257,202,177502,2,0,B|291:186|319:180|291:147|256:158|256:158|255:259,1,175
60,299,177902,6,0,B|60:149|60:149|142:118|169:194|129:267|21:193,2,350
291,292,178902,6,0,B|290:199|290:199|351:198|343:248|266:233,1,175
294,69,179502,5,0,0:0:0:0:
294,69,179702,2,0,B|328:53|356:47|328:14|293:25|293:25|292:99,1,175
256,192,180102,5,0,0:0:0:0:
256,192,180302,1,0,0:0:0:0:
237,251,180502,6,0,P|311:166|199:161,1,280
256,192,180802,12,0,183302,0:0:0:0:
208,359,183702,5,0,0:0:0:0:
208,359,183902,2,0,B|208:253|208:253|275:236|268:311|190:301|136:287,1,210.000008010865
104,292,184302,6,0,B|102:29|102:29|261:-7|267:196|146:167|26:122,1,630.000024032594
427,128,185302,6,0,B|426:35|426:35|487:34|479:84|402:69,1,175
449,301,185902,5,0,0:0:0:0:
449,301,186102,2,0,B|496:293|507:271|477:239|444:257|444:257|445:405,1,210.000008010865
334,280,186502,6,0,B|334:14|334:14|500:9|487:154|408:172|284:157,1,630
178,133,188502,6,0,B|239:147|245:81|179:79|179:79|179:196,1,210.000008010865
185,339,189102,5,0,0:0:0:0:
185,339,189302,2,0,B|185:228|185:228|263:231|263:291|121:283,1,210.000008010865
51,236,189702,6,0,B|51:128|51:128|117:130|109:177|44:174,1,210.000008010865
50,188,190102,5,0,0:0:0:0:
50,188,190302,2,0,B|106:177|105:133|52:132|52:132|52:240,1,210.000008010865
47,311,190702,6,0,B|103:300|102:256|49:255|49:255|49:363,1,210.000008010865
418,62,191702,6,0,B|331:165|331:165|475:143|475:143|328:287,1,420.000016021729
264,353,192302,5,0,0:0:0:0:
194,88,192502,1,0,0:0:0:0:
375,240,192702,1,0,0:0:0:0:
141,238,192902,1,0,0:0:0:0:
299,25,193102,6,0,B|481:25|481:25|375:140|375:140|473:140|473:140|351:251|351:251|421:251|421:251|210:384|210:384|300:265|300:265|235:265|235:265|324:164|324:164|231:164|231:164|311:11,1,1470.00001401901
