osu file format v14

[General]
AudioFilename: audio.ogg
AudioLeadIn: 0
PreviewTime: 81926
Countdown: 0
SampleSet: Soft
StackLeniency: 0.7
Mode: 0
LetterboxInBreaks: 0
WidescreenStoryboard: 0

[Editor]
Bookmarks: 254694
DistanceSpacing: 1.6
BeatDivisor: 4
GridSize: 8
TimelineZoom: 2.2

[Metadata]
Title:Sayonara
TitleUnicode:Sayonara
Artist:Ascension
ArtistUnicode:Ascension
Creator:Sh4rq_
Version:Last Goodbye
Source:
Tags:turtatical nishihara sh3rg_ Nick Blake Dick Gilchrist Stuart Docherty Richard Carnie english power metal under the veil of madness fraser edwards Edinburgh melodic metal
BeatmapID:4181770
BeatmapSetID:2009850

[Difficulty]
HPDrainRate:5
CircleSize:4.2
OverallDifficulty:9.8
ApproachRate:9.8
SliderMultiplier:2
SliderTickRate:1

[Events]
//Background and Video events
0,0,"BG.jpg",0,0
//Break Periods
//Storyboard Layer 0 (Background)
//Storyboard Layer 1 (Fail)
//Storyboard Layer 2 (Pass)
//Storyboard Layer 3 (Foreground)
//Storyboard Layer 4 (Overlay)
//Storyboard Sound Samples

[TimingPoints]
696,307.692307692308,4,2,1,60,1,0
4131,-100,4,2,1,60,0,0
4233,-100,4,2,1,60,0,0
4285,-100,4,2,1,60,0,0
4388,-100,4,2,2,60,0,0
4542,-100,4,2,1,60,0,0
5003,-100,4,2,3,60,0,0
5157,-100,4,2,1,60,0,0
5311,-100,4,2,4,60,0,0
5619,-100,4,2,1,60,0,0
9003,-100,4,2,2,60,0,0
9311,-100,4,2,1,60,0,0
9387,-100,4,2,1,60,0,0
9465,-100,4,2,2,60,0,0
9772,-100,4,2,1,60,0,0
10080,-100,4,2,3,60,0,0
10234,-100,4,2,4,60,0,0
10388,-100,4,2,5,60,0,0
10542,-100,4,2,1,60,0,0
19157,-166.666666666667,4,2,1,60,0,0
19619,-166.666666666667,4,2,2,60,0,0
19721,-166.666666666667,4,2,1,60,0,0
19926,-166.666666666667,4,2,3,60,0,0
20234,-105.263157894737,4,2,1,60,0,0
20772,-105.263157894737,4,2,1,60,0,0
21003,-105.263157894737,4,2,1,60,0,0
21080,-105.263157894737,4,2,1,60,0,0
21311,-105.263157894737,4,2,1,60,0,0
22079,-105.263157894737,4,2,1,60,0,0
22234,-105.263157894737,4,2,1,60,0,0
23233,-105.263157894737,4,2,1,60,0,0
23464,-105.263157894737,4,2,1,60,0,0
23617,-105.263157894737,4,2,1,60,0,0
23772,-105.263157894737,4,2,1,60,0,0
25516,-105.263157894737,4,2,1,60,0,0
25618,-105.263157894737,4,2,1,60,0,0
25694,-105.263157894737,4,2,1,60,0,0
25926,-105.263157894737,4,2,1,60,0,0
26003,-105.263157894737,4,2,1,60,0,0
26234,-105.263157894737,4,2,1,60,0,0
27234,-105.263157894737,4,2,1,60,0,0
27310,-105.263157894737,4,2,1,60,0,0
27771,-105.263157894737,4,2,1,60,0,0
27926,-105.263157894737,4,2,1,60,0,0
28156,-105.263157894737,4,2,1,60,0,0
28387,-105.263157894737,4,2,1,60,0,0
29772,-105.263157894737,4,2,2,60,0,0
30080,-105.263157894737,4,2,1,60,0,0
30617,-105.263157894737,4,2,1,60,0,0
30849,-105.263157894737,4,2,1,60,0,0
30926,-105.263157894737,4,2,1,60,0,0
31157,-105.263157894737,4,2,1,60,0,0
31848,-105.263157894737,4,2,1,60,0,0
32080,-105.263157894737,4,2,1,60,0,0
33079,-105.263157894737,4,2,1,60,0,0
33310,-105.263157894737,4,2,1,60,0,0
33463,-105.263157894737,4,2,1,60,0,0
33618,-105.263157894737,4,2,1,60,0,0
34695,-105.263157894737,4,2,2,60,0,0
34849,-105.263157894737,4,2,1,60,0,0
35362,-105.263157894737,4,2,1,60,0,0
35464,-105.263157894737,4,2,1,60,0,0
35540,-105.263157894737,4,2,1,60,0,0
35772,-105.263157894737,4,2,1,60,0,0
35849,-105.263157894737,4,2,1,60,0,0
36080,-105.263157894737,4,2,1,60,0,0
37080,-105.263157894737,4,2,1,60,0,0
37157,-105.263157894737,4,2,1,60,0,0
37617,-105.263157894737,4,2,1,60,0,0
37772,-105.263157894737,4,2,1,60,0,0
38002,-105.263157894737,4,2,1,60,0,0
38234,-105.263157894737,4,2,1,60,0,0
38848,-105.263157894737,4,2,1,60,0,0
39003,-105.263157894737,4,2,1,60,0,0
40234,-133.333333333334,4,2,2,60,0,0
40541,-133.333333333334,4,2,1,60,0,0
40695,-133.333333333334,4,2,1,60,0,0
40772,-133.333333333334,4,2,2,60,0,0
41003,-133.333333333334,4,2,1,60,0,0
41157,-133.333333333334,4,2,3,60,0,0
41310,-133.333333333334,4,2,1,60,0,0
41464,-133.333333333334,4,2,1,60,0,0
41541,-133.333333333334,4,2,2,60,0,0
41618,-133.333333333334,4,2,1,60,0,0
41695,-133.333333333334,4,2,2,60,0,0
41772,-133.333333333334,4,2,1,60,0,0
41926,-133.333333333334,4,2,1,60,0,0
42387,-117.64705882353,4,2,1,60,0,0
42540,-117.64705882353,4,2,1,60,0,0
42695,-117.64705882353,4,2,1,60,0,0
43002,-117.64705882353,4,2,1,5,0,0
43157,-117.64705882353,4,2,1,60,0,0
44463,-117.64705882353,4,2,1,60,0,0
44541,-117.64705882353,4,2,1,60,0,0
45463,-117.64705882353,4,2,1,5,0,0
45618,-117.64705882353,4,2,1,60,0,0
47310,-86.9565217391307,4,2,1,60,0,0
47772,-117.647058823529,4,2,1,60,0,0
49386,-117.647058823529,4,2,1,60,0,0
49464,-117.647058823529,4,2,1,60,0,0
49925,-117.647058823529,4,2,1,60,0,0
50080,-117.647058823529,4,2,1,60,0,0
50310,-117.647058823529,4,2,1,60,0,0
50387,-117.647058823529,4,2,1,60,0,0
51310,-117.647058823529,4,2,1,60,0,0
51464,-117.647058823529,4,2,1,60,0,0
51618,-117.647058823529,4,2,1,60,0,0
51772,-117.647058823529,4,2,1,60,0,0
51849,-117.647058823529,4,2,2,60,0,0
51926,-117.647058823529,4,2,1,60,0,0
52234,-86.9565217391302,4,2,1,60,0,0
52695,-117.647058823529,4,2,1,60,0,0
56541,-105.263157894737,4,2,1,60,0,0
57157,-86.9565217391302,4,2,1,60,0,0
57618,-117.647058823529,4,2,1,60,0,0
61848,-117.647058823529,4,2,1,60,0,0
61926,-117.647058823529,4,2,1,60,0,0
62002,-117.647058823529,4,2,1,60,0,0
62080,-133.333333333333,4,2,1,60,0,0
62849,-133.333333333333,4,2,1,60,0,0
63003,-133.333333333333,4,2,1,60,0,0
64234,-133.333333333333,4,2,2,60,0,0
64387,-133.333333333333,4,2,3,60,0,0
64541,-133.333333333333,4,2,1,60,0,0
65386,-133.333333333333,4,2,1,60,0,0
65464,-133.333333333333,4,2,1,60,0,0
65694,-133.333333333333,4,2,1,60,0,0
65772,-133.333333333333,4,2,1,60,0,0
66617,-133.333333333333,4,2,1,60,0,0
66695,-133.333333333333,4,2,1,60,0,0
66771,-133.333333333333,4,2,1,60,0,0
66849,-133.333333333333,4,2,1,60,0,0
66925,-133.333333333333,4,2,1,60,0,0
67003,-133.333333333333,4,2,1,60,0,0
67848,-133.333333333333,4,2,1,60,0,0
67926,-133.333333333333,4,2,1,60,0,0
68156,-133.333333333333,4,2,1,60,0,0
68234,-133.333333333333,4,2,1,60,0,0
69464,-222.222222222221,4,2,1,60,0,0
69694,-222.222222222221,4,2,1,5,0,0
69772,-125,4,2,1,60,0,0
71618,-125,4,2,2,60,0,0
71772,-125,4,2,3,60,0,0
71926,-100,4,2,1,60,0,0
79464,-100,4,2,2,60,0,0
79618,-100,4,2,1,60,0,0
79695,-100,4,2,2,60,0,0
79772,-100,4,2,1,60,0,0
79926,-100,4,2,1,60,0,0
80003,-100,4,2,2,60,0,0
80080,-100,4,2,1,60,0,0
80234,-100,4,2,1,60,0,0
80310,-100,4,2,3,60,0,0
80387,-100,4,2,4,60,0,0
80541,-100,4,2,1,60,0,0
80695,-100,4,2,1,60,0,0
80771,-100,4,2,1,60,0,0
80849,-100,4,2,1,60,0,0
81771,-100,4,2,1,5,0,0
81926,-83.3333333333333,4,2,1,60,0,1
86386,-83.3333333333333,4,2,1,75,0,1
86541,-83.3333333333333,4,2,1,60,0,1
86694,-83.3333333333333,4,2,1,75,0,1
86849,-83.3333333333333,4,2,1,60,0,1
90617,-83.3333333333333,4,2,1,75,0,1
90695,-83.3333333333333,4,2,2,60,0,1
91002,-83.3333333333333,4,2,1,60,0,1
91079,-83.3333333333333,4,2,2,60,0,1
91156,-83.3333333333333,4,2,1,60,0,1
91310,-83.3333333333333,4,2,3,60,0,1
91464,-83.3333333333333,4,2,4,60,0,1
91618,-83.3333333333333,4,2,5,60,0,1
91772,-83.3333333333333,4,2,1,60,0,1
95541,-83.3333333333333,4,2,2,60,0,1
95618,-83.3333333333333,4,2,1,60,0,1
95772,-83.3333333333333,4,2,2,60,0,1
95848,-83.3333333333333,4,2,2,75,0,1
95926,-83.3333333333333,4,2,3,60,0,1
96079,-83.3333333333333,4,2,1,60,0,1
96233,-83.3333333333333,4,2,4,60,0,1
96387,-83.3333333333333,4,2,1,60,0,1
96464,-83.3333333333333,4,2,1,60,0,1
96541,-83.3333333333333,4,2,1,60,0,1
100387,-83.3333333333333,4,2,5,60,0,1
101619,-105.263157894737,4,2,1,60,0,0
101772,307.692307692308,4,3,1,60,1,0
101926,-100,4,2,1,60,0,0
102155,-105.263157894737,4,2,1,60,0,0
102387,-105.263157894737,4,2,1,60,0,0
102464,-105.263157894737,4,2,1,60,0,0
102695,-105.263157894737,4,2,1,60,0,0
103464,-105.263157894737,4,2,1,60,0,0
103618,-105.263157894737,4,2,1,60,0,0
104617,-105.263157894737,4,2,1,60,0,0
104849,-105.263157894737,4,2,1,60,0,0
105002,-105.263157894737,4,2,1,60,0,0
105156,-105.263157894737,4,2,1,60,0,0
107078,-105.263157894737,4,2,1,60,0,0
107310,-105.263157894737,4,2,1,60,0,0
107387,-105.263157894737,4,2,1,60,0,0
107618,-105.263157894737,4,2,1,60,0,0
108618,-105.263157894737,4,2,1,60,0,0
108695,-105.263157894737,4,2,2,60,0,0
108849,-105.263157894737,4,2,1,60,0,0
109540,-105.263157894737,4,2,1,60,0,0
109772,-105.263157894737,4,2,1,60,0,0
112002,-105.263157894737,4,2,1,60,0,0
112233,-105.263157894737,4,2,1,60,0,0
112310,-105.263157894737,4,2,1,60,0,0
112541,-105.263157894737,4,2,1,60,0,0
113310,-105.263157894737,4,2,1,60,0,0
113464,-105.263157894737,4,2,1,60,0,0
114463,-105.263157894737,4,2,1,60,0,0
114695,-105.263157894737,4,2,1,60,0,0
114848,-105.263157894737,4,2,1,60,0,0
115002,-105.263157894737,4,2,1,60,0,0
116925,-105.263157894737,4,2,1,60,0,0
117156,-105.263157894737,4,2,1,60,0,0
117233,-105.263157894737,4,2,1,60,0,0
117464,-105.263157894737,4,2,1,60,0,0
118464,-105.263157894737,4,2,1,60,0,0
118541,-105.263157894737,4,2,2,60,0,0
118695,-105.263157894737,4,2,1,60,0,0
119386,-105.263157894737,4,2,1,60,0,0
119618,-105.263157894737,4,2,1,60,0,0
120232,-105.263157894737,4,2,1,60,0,0
120387,-105.263157894737,4,2,1,60,0,0
120925,-105.263157894737,4,2,1,60,0,0
121002,-105.263157894737,4,2,1,60,0,0
121078,-105.263157894737,4,2,1,60,0,0
121156,-105.263157894737,4,2,1,60,0,0
121618,-105.263157894737,4,2,2,60,0,0
121926,-105.263157894737,4,2,1,60,0,0
122079,-105.263157894737,4,2,3,60,0,0
122387,-105.263157894737,4,2,1,60,0,0
122541,-105.263157894737,4,2,1,60,0,0
122618,-105.263157894737,4,2,2,60,0,0
122695,-105.263157894737,4,2,1,60,0,0
122849,-105.263157894737,4,2,3,60,0,0
123156,-105.263157894737,4,2,1,60,0,0
123310,-105.263157894737,4,2,1,60,0,0
123386,-105.263157894737,4,2,1,60,0,0
123464,-105.263157894737,4,2,1,60,0,0
123772,-117.64705882353,4,2,1,60,0,0
123925,-117.64705882353,4,2,1,60,0,0
124079,-117.64705882353,4,2,1,60,0,0
124386,-117.64705882353,4,2,1,5,0,0
124541,-117.64705882353,4,2,1,60,0,0
125848,-117.64705882353,4,2,1,60,0,0
125926,-117.64705882353,4,2,1,60,0,0
126848,-117.64705882353,4,2,1,5,0,0
127002,-117.64705882353,4,2,1,60,0,0
128695,-80.0000000000001,4,2,1,60,0,0
129156,-117.647058823529,4,2,1,60,0,0
130771,-117.647058823529,4,2,1,60,0,0
130849,-117.647058823529,4,2,1,60,0,0
131309,-117.647058823529,4,2,1,60,0,0
131464,-117.647058823529,4,2,1,60,0,0
131694,-117.647058823529,4,2,1,60,0,0
131772,-117.647058823529,4,2,1,60,0,0
133618,-79.9999999999999,4,2,1,60,0,0
134079,-117.647058823529,4,2,1,60,0,0
134463,-117.647058823529,4,2,1,60,0,0
134541,-117.647058823529,4,2,1,60,0,0
135694,-117.647058823529,4,2,1,60,0,0
135772,-117.647058823529,4,2,1,60,0,0
136694,-117.647058823529,4,2,1,5,0,0
136849,-117.647058823529,4,2,1,60,0,0
138541,-80,4,2,1,60,0,0
139002,-117.647058823529,4,2,1,60,0,0
139386,-117.647058823529,4,2,1,60,0,0
139618,-117.647058823529,4,2,1,60,0,0
140464,-117.647058823529,4,2,1,60,0,0
140541,-117.647058823529,4,2,1,60,0,0
142771,-117.647058823529,4,2,1,60,0,0
142849,-117.647058823529,4,2,1,60,0,0
143386,-117.647058823529,4,2,1,60,0,0
143464,-133.333333333333,4,2,1,60,0,0
144233,-133.333333333333,4,2,1,60,0,0
144387,-133.333333333333,4,2,1,60,0,0
145618,-133.333333333333,4,2,4,60,0,0
145772,-133.333333333333,4,2,5,60,0,0
145926,-133.333333333333,4,2,1,60,0,0
146770,-133.333333333333,4,2,1,60,0,0
146848,-133.333333333333,4,2,1,60,0,0
147078,-133.333333333333,4,2,1,60,0,0
147156,-133.333333333333,4,2,1,60,0,0
148001,-133.333333333333,4,2,1,60,0,0
148079,-133.333333333333,4,2,1,60,0,0
148155,-133.333333333333,4,2,1,60,0,0
148233,-133.333333333333,4,2,1,60,0,0
148309,-133.333333333333,4,2,1,60,0,0
148387,-133.333333333333,4,2,1,60,0,0
149232,-133.333333333333,4,2,1,60,0,0
149310,-133.333333333333,4,2,1,60,0,0
149540,-133.333333333333,4,2,1,60,0,0
149618,-133.333333333333,4,2,1,60,0,0
151001,-133.333333333333,4,2,1,60,0,0
151156,-133.333333333333,4,2,1,60,0,0
152271,-133.333333333333,4,2,1,60,0,0
152387,-133.333333333333,4,2,1,60,0,0
153002,-133.333333333333,4,2,2,60,0,0
153156,-133.333333333333,4,2,1,60,0,0
153310,-100,4,2,1,60,0,0
160926,-100,4,2,2,60,0,0
161310,-100,4,2,1,60,0,0
161387,-100,4,2,3,60,0,0
161772,-100,4,2,1,60,0,0
161849,-100,4,2,4,60,0,0
162079,-100,4,2,1,60,0,0
162156,-100,4,2,3,60,0,0
162233,-100,4,2,4,60,0,0
162387,-100,4,2,1,60,0,0
162541,-100,4,2,1,60,0,0
162618,-100,4,2,3,60,0,0
162849,-100,4,2,1,60,0,0
163002,-222.222222222222,4,2,1,60,0,0
163232,-222.222222222222,4,2,1,5,0,0
163310,-83.3333333333333,4,2,1,60,0,1
167770,-83.3333333333333,4,2,1,75,0,1
167925,-83.3333333333333,4,2,1,60,0,1
168078,-83.3333333333333,4,2,1,75,0,1
168233,-83.3333333333333,4,2,1,60,0,1
170770,-83.3333333333333,4,2,1,75,0,1
170848,-83.3333333333333,4,2,1,60,0,1
171386,-83.3333333333333,4,2,1,75,0,1
171463,-83.3333333333333,4,2,1,60,0,1
171617,-83.3333333333333,4,2,2,60,0,1
172386,-83.3333333333333,4,2,1,60,0,1
172463,-83.3333333333333,4,2,2,60,0,1
172540,-83.3333333333333,4,2,1,60,0,1
172694,-83.3333333333333,4,2,3,60,0,1
172848,-83.3333333333333,4,2,4,60,0,1
173002,-83.3333333333333,4,2,5,60,0,1
173156,-83.3333333333333,4,2,1,60,0,1
177566,-83.3333333333333,4,2,1,60,0,1
177669,-83.3333333333333,4,3,1,75,0,1
177771,-83.3333333333333,4,2,1,60,0,1
177873,-83.3333333333333,4,2,1,60,0,1
178079,-83.3333333333333,4,2,1,60,0,1
181771,-83.3333333333333,4,2,5,60,0,1
183002,-105.263157894737,4,2,1,60,0,0
183156,307.692307692308,4,3,1,60,1,0
183309,-100,4,2,1,60,0,0
183539,-105.263157894737,4,2,1,60,0,0
183771,-105.263157894737,4,2,1,60,0,0
183848,-105.263157894737,4,2,1,60,0,0
184078,-105.263157894737,4,2,1,60,0,0
184848,-105.263157894737,4,2,1,60,0,0
185002,-105.263157894737,4,2,1,60,0,0
186001,-105.263157894737,4,2,1,60,0,0
186232,-105.263157894737,4,2,1,60,0,0
186385,-105.263157894737,4,2,1,60,0,0
186540,-105.263157894737,4,2,1,60,0,0
187539,-105.263157894737,4,3,1,60,0,0
187617,-105.263157894737,4,2,1,60,0,0
188462,-105.263157894737,4,2,1,60,0,0
188694,-105.263157894737,4,2,1,60,0,0
188771,-105.263157894737,4,2,1,60,0,0
189002,-105.263157894737,4,2,1,60,0,0
190002,-105.263157894737,4,2,1,60,0,0
190078,-105.263157894737,4,2,2,60,0,0
190232,-105.263157894737,4,2,1,60,0,0
190771,-105.263157894737,4,2,1,60,0,0
190848,-105.263157894737,4,2,1,60,0,0
190924,-105.263157894737,4,2,1,60,0,0
191155,-105.263157894737,4,2,1,60,0,0
192848,-95.2380952380954,4,2,1,60,0,0
193385,-95.2380952380954,4,2,1,60,0,0
193617,-95.2380952380954,4,2,1,60,0,0
193694,-95.2380952380954,4,2,1,60,0,0
193925,-95.2380952380954,4,2,1,60,0,0
194694,-95.2380952380954,4,2,1,60,0,0
194848,-95.2380952380954,4,2,1,60,0,0
195847,-95.2380952380954,4,2,1,60,0,0
196078,-95.2380952380954,4,2,1,60,0,0
196231,-95.2380952380954,4,2,1,60,0,0
196386,-95.2380952380954,4,2,1,60,0,0
198308,-95.2380952380954,4,2,1,60,0,0
198540,-95.2380952380954,4,2,1,60,0,0
198617,-95.2380952380954,4,2,1,60,0,0
198848,-95.2380952380954,4,2,1,60,0,0
199847,-95.2380952380954,4,3,1,60,0,0
199925,-95.2380952380954,4,2,1,60,0,0
200001,-95.2380952380954,4,3,1,60,0,0
200078,-95.2380952380954,4,2,1,60,0,0
200154,-95.2380952380954,4,3,1,60,0,0
200232,-95.2380952380954,4,2,1,60,0,0
200617,-95.2380952380954,4,2,1,60,0,0
200694,-95.2380952380954,4,2,1,60,0,0
200770,-95.2380952380954,4,2,1,60,0,0
201002,-95.2380952380954,4,2,1,60,0,0
201616,-95.2380952380954,4,2,1,60,0,0
201771,-95.2380952380954,4,2,1,60,0,0
201848,-95.2380952380954,4,2,1,60,0,0
201925,-95.2380952380954,4,2,1,60,0,0
202308,-95.2380952380954,4,2,1,60,0,0
202386,-95.2380952380954,4,2,1,60,0,0
202462,-95.2380952380954,4,2,1,60,0,0
202540,-95.2380952380954,4,2,1,60,0,0
204578,-95.2380952380954,4,2,1,60,0,0
204694,-222.222222222222,4,2,1,60,0,0
205078,-222.222222222222,4,2,1,5,0,0
205156,307.692307692308,4,2,1,60,1,0
205156,-222.222222222222,4,2,1,60,0,0
208693,-222.222222222222,4,2,1,60,0,0
208848,-222.222222222222,4,2,1,60,0,0
210078,-133.333333333333,4,2,1,60,0,0
210539,-133.333333333333,4,2,1,5,0,0
210694,-133.333333333333,4,2,1,60,0,0
210848,-133.333333333333,4,2,2,60,0,0
211002,-133.333333333333,4,2,1,60,0,0
211309,-133.333333333333,4,2,3,60,0,0
211347,-133.333333333333,4,2,3,60,0,0
211463,-133.333333333333,4,2,3,60,0,0
211617,-133.333333333333,4,2,1,60,0,0
211925,-133.333333333333,4,2,5,60,0,0
211963,-133.333333333333,4,2,5,60,0,0
211976,-133.333333333333,4,2,4,60,0,0
212078,-133.333333333333,4,2,1,60,0,0
212232,-133.333333333333,4,2,1,60,0,0
212617,-133.333333333333,4,2,2,60,0,0
212694,-133.333333333333,4,2,3,60,0,0
212771,-133.333333333333,4,2,2,60,0,0
212848,-133.333333333333,4,2,1,60,0,0
213002,-133.333333333333,4,2,1,60,0,0
213078,-133.333333333333,4,2,2,60,0,0
213155,-133.333333333333,4,2,4,60,0,0
213309,-133.333333333333,4,2,1,60,0,0
213463,-133.333333333333,4,2,2,60,0,0
213771,-133.333333333333,4,2,1,60,0,0
215002,-83.3333333333333,4,2,1,60,0,0
233309,-83.3333333333333,4,2,2,60,0,0
233360,-83.3333333333333,4,2,3,60,0,0
233463,-83.3333333333333,4,2,5,60,0,0
234386,-1000,4,2,1,60,0,0
234616,-1000,4,2,1,5,0,0
234694,-111.111111111111,4,2,1,60,0,0
238540,-111.111111111111,4,2,2,60,0,0
239002,-111.111111111111,4,2,3,60,0,0
239309,-111.111111111111,4,2,4,60,0,0
239463,-111.111111111111,4,2,5,60,0,0
239617,-95.2380952380952,4,2,1,60,0,0
242155,-95.2380952380952,4,2,1,60,0,0
242386,-95.2380952380952,4,2,1,60,0,0
242463,-95.2380952380952,4,2,1,60,0,0
242694,-95.2380952380952,4,2,1,60,0,0
242771,-95.2380952380952,4,2,1,60,0,0
243002,-95.2380952380952,4,2,1,60,0,0
243386,-95.2380952380952,4,2,1,60,0,0
243617,-95.2380952380952,4,2,1,60,0,0
243694,-95.2380952380952,4,2,1,60,0,0
243925,-95.2380952380952,4,2,1,60,0,0
244002,-95.2380952380952,4,2,1,60,0,0
244232,-95.2380952380952,4,2,1,60,0,0
244617,-95.2380952380952,4,2,1,60,0,0
244848,-95.2380952380952,4,2,1,60,0,0
244925,-95.2380952380952,4,2,1,60,0,0
245155,-95.2380952380952,4,2,1,60,0,0
245232,-95.2380952380952,4,2,1,60,0,0
245463,-95.2380952380952,4,2,1,60,0,0
246078,-95.2380952380952,4,2,5,60,0,0
246386,-95.2380952380952,4,2,1,60,0,0
246540,-95.2380952380952,4,2,5,60,0,0
246848,-95.2380952380952,4,2,1,60,0,0
247002,-95.2380952380952,4,2,1,60,0,0
247078,-95.2380952380952,4,2,1,60,0,0
247309,-95.2380952380952,4,2,1,60,0,0
247386,-95.2380952380952,4,2,1,60,0,0
247617,-95.2380952380952,4,2,1,60,0,0
247694,-95.2380952380952,4,2,1,60,0,0
247925,-95.2380952380952,4,2,1,60,0,0
248309,-95.2380952380952,4,2,1,60,0,0
248540,-95.2380952380952,4,2,1,60,0,0
248617,-95.2380952380952,4,2,1,60,0,0
248848,-95.2380952380952,4,2,1,60,0,0
248925,-95.2380952380952,4,2,1,60,0,0
249155,-95.2380952380952,4,2,1,60,0,0
249771,-95.2380952380952,4,2,2,60,0,0
249925,-95.2380952380952,4,2,1,60,0,0
250078,-95.2380952380952,4,2,3,60,0,0
250232,-95.2380952380952,4,2,1,60,0,0
250386,-95.2380952380952,4,2,4,60,0,0
250540,-95.2380952380952,4,2,1,60,0,0
250694,-95.2380952380952,4,2,1,60,0,0
251002,-95.2380952380952,4,2,5,60,0,0
251925,-95.2380952380952,4,2,1,60,0,0
253002,-95.2380952380952,4,2,2,60,0,0
253155,-95.2380952380952,4,2,1,60,0,0
253309,-95.2380952380952,4,2,3,60,0,0
253463,-95.2380952380952,4,2,1,60,0,0
254848,-95.2380952380952,4,2,2,60,0,0
255002,-95.2380952380952,4,2,1,60,0,0
255463,-95.2380952380952,4,2,4,60,0,0
255617,-95.2380952380952,4,2,1,60,0,0
256386,-95.2380952380952,4,2,2,60,0,0
256540,-95.2380952380952,4,2,1,60,0,0
256617,-95.2380952380952,4,2,2,60,0,0
256694,-95.2380952380952,4,2,3,60,0,0
256848,-95.2380952380952,4,2,1,60,0,0
257925,-95.2380952380952,4,2,2,60,0,0
258078,-95.2380952380952,4,2,1,60,0,0
258232,-95.2380952380952,4,2,3,60,0,0
258386,-95.2380952380952,4,2,1,60,0,0
260617,-95.2380952380952,4,2,2,60,0,0
260694,-95.2380952380952,4,2,4,60,0,0
260771,-95.2380952380952,4,2,2,60,0,0
260848,-95.2380952380952,4,2,1,60,0,0
260924,-95.2380952380952,4,2,1,60,0,0
261002,-95.2380952380952,4,2,1,60,0,0
261078,-95.2380952380952,4,2,2,60,0,0
261155,-95.2380952380952,4,2,4,60,0,0
261232,-95.2380952380952,4,2,2,60,0,0
261309,-95.2380952380952,4,2,4,60,0,0
261463,-95.2380952380952,4,2,5,60,0,0
261771,-95.2380952380952,4,2,1,60,0,0
265617,-95.2380952380952,4,2,2,60,0,0
265925,-95.2380952380952,4,2,1,60,0,0
266002,-95.2380952380952,4,2,2,60,0,0
266155,-95.2380952380952,4,2,1,60,0,0
266232,-95.2380952380952,4,2,1,60,0,0
266309,-95.2380952380952,4,2,2,60,0,0
266386,-95.2380952380952,4,2,3,60,0,0
266694,-95.2380952380952,4,2,1,60,0,0
270386,-400,4,2,1,60,0,0
270463,-400,4,2,1,60,0,0
275155,-400,4,2,1,60,0,0
275309,-95.2380952380952,4,2,1,60,0,0
275463,-95.2380952380952,4,2,2,60,0,0
275771,-95.2380952380952,4,2,1,60,0,0
276694,-95.2380952380952,4,2,2,60,0,0
277002,-95.2380952380952,4,2,1,60,0,0
277078,-95.2380952380952,4,2,2,60,0,0
277155,-95.2380952380952,4,2,1,60,0,0
277309,-95.2380952380952,4,2,1,60,0,0
277386,-95.2380952380952,4,2,3,60,0,0
277617,-95.2380952380952,4,2,1,60,0,0
277693,-100,4,2,1,60,0,0
277924,-100,4,2,1,60,0,0
278001,-100,4,2,1,60,0,0
278078,-100,4,2,1,60,0,0
278155,-100,4,2,1,60,0,0
278232,-100,4,2,1,60,0,0
278309,-100,4,2,1,60,0,0
278386,-100,4,2,1,60,0,0
278617,-100,4,2,1,60,0,0
278693,-100,4,2,1,60,0,0
278770,-100,4,2,1,60,0,0
278847,-100,4,2,1,60,0,0
278924,-100,4,2,1,60,0,0
279001,-100,4,2,1,60,0,0
279078,-100,4,2,1,60,0,0
279155,-100,4,2,1,60,0,0
279232,-100,4,2,1,60,0,0
279309,-100,4,2,1,60,0,0
279386,-100,4,2,1,60,0,0
279463,-100,4,2,1,60,0,0
279693,-100,4,2,1,60,0,0
279770,-100,4,2,1,60,0,0
279847,-100,4,2,1,60,0,0
279924,-100,4,2,1,60,0,0
280001,-100,4,2,1,60,0,0
280078,-100,4,2,1,60,0,0
280155,-100,4,2,1,60,0,0
280232,-100,4,2,1,60,0,0
280309,-100,4,2,1,60,0,0
280386,-100,4,2,1,60,0,0
280463,-100,4,2,1,60,0,0
280540,-100,4,2,1,60,0,0
280617,-100,4,2,1,60,0,0
280693,-100,4,2,1,60,0,0
280770,-100,4,2,1,60,0,0
280847,-100,4,2,1,60,0,0
281078,-100,4,2,1,60,0,0
281155,-100,4,2,1,60,0,0
281232,-100,4,2,1,60,0,0
281309,-100,4,2,1,60,0,0
281386,-100,4,2,1,60,0,0
281463,-100,4,2,1,60,0,0
281540,-100,4,2,1,60,0,0
281617,-100,4,2,1,60,0,0
281693,-100,4,2,1,60,0,0
281770,-100,4,2,1,60,0,0
281847,-100,4,2,1,60,0,0
281924,-100,4,2,1,60,0,0
282155,-100,4,2,1,60,0,0
282232,-100,4,2,1,60,0,0
282309,-100,4,2,1,60,0,0
282386,-100,4,2,1,60,0,0
282463,-100,4,2,1,60,0,0
282540,-100,4,2,1,60,0,0
282770,-100,4,2,1,5,0,0
282847,-100,4,2,1,60,0,0
285078,-100,4,2,1,60,0,0
285155,-100,4,2,1,60,0,0
285232,-100,4,2,1,60,0,0
285309,-100,4,2,1,60,0,0
285386,-100,4,2,1,60,0,0
285463,-100,4,2,1,60,0,0
285540,-100,4,2,1,60,0,0
285617,-100,4,2,1,60,0,0
285693,-100,4,2,1,60,0,0
285770,-100,4,2,1,60,0,0
286155,-100,4,2,1,60,0,0
286232,-100,4,2,1,60,0,0
287077,-100,4,2,1,60,0,0
287155,-100,4,2,1,60,0,0
287463,-105.263157894737,4,2,1,60,0,0
292386,-153.846153846154,4,2,1,60,0,0
292616,-153.846153846154,4,2,1,5,0,0
292693,-100,4,2,1,60,0,0
292770,-100,4,2,1,60,0,0
292847,-100,4,2,1,60,0,0
292924,-100,4,2,1,60,0,0
293001,-100,4,2,1,60,0,0
293078,-100,4,2,1,60,0,0
293155,-100,4,2,1,60,0,0
293386,-100,4,2,1,60,0,0
293463,-100,4,2,1,60,0,0
293540,-100,4,2,1,60,0,0
293617,-100,4,2,1,60,0,0
293693,-100,4,2,1,60,0,0
293770,-100,4,2,1,60,0,0
293847,-100,4,2,1,60,0,0
293924,-100,4,2,1,60,0,0
294001,-100,4,2,1,60,0,0
294078,-100,4,2,1,60,0,0
294155,-100,4,2,1,60,0,0
294232,-100,4,2,1,60,0,0
294770,-100,4,2,1,60,0,0
294847,-100,4,2,1,60,0,0
294924,-100,4,2,1,60,0,0
295001,-100,4,2,1,60,0,0
295078,-100,4,2,1,60,0,0
295155,-100,4,2,1,60,0,0
295232,-100,4,2,1,60,0,0
295309,-100,4,2,1,60,0,0
295386,-100,4,2,1,60,0,0
295463,-100,4,2,1,60,0,0
295540,-100,4,2,1,60,0,0
295617,-100,4,2,1,60,0,0
295693,-100,4,2,1,60,0,0
295770,-100,4,2,1,60,0,0
295847,-100,4,2,1,60,0,0
295924,-100,4,2,1,60,0,0
296001,-100,4,2,1,60,0,0
296078,-100,4,2,1,60,0,0
296154,-100,4,2,1,60,0,0
296232,-100,4,2,1,60,0,0
296308,-100,4,2,1,60,0,0
296386,-100,4,2,2,60,0,0
296540,-100,4,2,1,60,0,0
296617,-100,4,2,2,60,0,0
296693,-100,4,2,1,60,0,0
296847,-100,4,2,1,60,0,0
296924,-100,4,2,3,60,0,0
297001,-100,4,2,1,60,0,0
297039,-100,4,2,1,60,0,0
297078,-100,4,2,1,60,0,0
297116,-100,4,2,1,60,0,0
297155,-100,4,2,1,60,0,0
297193,-100,4,2,1,60,0,0
297232,-100,4,2,1,60,0,0
297270,-100,4,2,1,60,0,0
297309,-100,4,2,1,60,0,0
297462,-100,4,2,1,60,0,0
297617,-100,4,2,1,60,0,0
298078,-100,4,2,1,60,0,0
298232,-100,4,2,1,60,0,0
298693,-100,4,2,1,60,0,0
298847,-100,4,2,1,60,0,0
299463,-100,4,2,4,60,0,0
299617,-100,4,2,5,60,0,0
299770,-111.111111111111,4,2,1,60,0,0
300000,-111.111111111111,4,2,1,5,0,0
300078,-111.111111111111,4,2,1,60,0,0
302309,-111.111111111111,4,2,1,60,0,0
302540,-111.111111111111,4,2,1,60,0,0
302770,-111.111111111111,4,2,1,60,0,0
302847,-111.111111111111,4,2,1,60,0,0
303077,-111.111111111111,4,2,1,60,0,0
303155,-111.111111111111,4,2,1,60,0,0
303386,-111.111111111111,4,2,1,60,0,0
303463,-111.111111111111,4,2,1,60,0,0
303540,-111.111111111111,4,2,1,60,0,0
303770,-111.111111111111,4,2,1,60,0,0
303847,-111.111111111111,4,2,1,60,0,0
303924,-111.111111111111,4,2,1,60,0,0
304001,-111.111111111111,4,2,1,60,0,0
304078,-111.111111111111,4,2,1,60,0,0
304155,-111.111111111111,4,2,1,60,0,0
304232,-111.111111111111,4,2,1,60,0,0
304309,-111.111111111111,4,2,1,60,0,0
304386,-111.111111111111,4,2,1,60,0,0
304463,-111.111111111111,4,2,1,60,0,0
304540,-111.111111111111,4,2,1,60,0,0
304617,-111.111111111111,4,2,1,60,0,0
304693,-166.666666666666,4,2,1,60,0,0
304923,-166.666666666666,4,2,1,5,0,0
305001,-100,4,2,1,60,0,0
306116,-100,4,2,1,60,0,0
306232,-100,4,2,1,60,0,0
306847,-100,4,2,2,60,0,0
307001,-100,4,2,1,60,0,0
307155,-100,4,2,1,60,0,0
316386,-100,4,2,2,60,0,0
316617,-100,4,2,1,60,0,0
317156,-90.9090909090909,4,2,1,60,0,1
320847,-90.9090909090909,4,2,2,60,0,1
321001,-90.9090909090909,4,2,1,60,0,1
321308,-90.9090909090909,4,2,3,60,0,1
321462,-90.9090909090909,4,2,1,60,0,1
321846,-90.9090909090909,4,2,1,60,0,1
322078,-90.9090909090909,4,2,1,60,0,1
325847,-90.9090909090909,4,2,2,60,0,1
326155,-90.9090909090909,4,2,1,60,0,1
326231,-90.9090909090909,4,2,1,60,0,1
326308,-90.9090909090909,4,2,3,60,0,1
326616,-90.9090909090909,4,2,1,60,0,1
326693,-90.9090909090909,4,2,1,60,0,1
326770,-90.9090909090909,4,2,4,60,0,1
327001,-90.9090909090909,4,2,1,60,0,1
330770,-90.9090909090909,4,2,2,60,0,1
330847,-90.9090909090909,4,2,1,60,0,1
331001,-90.9090909090909,4,2,2,60,0,1
331155,-90.9090909090909,4,2,1,60,0,1
331308,-90.9090909090909,4,2,1,60,0,1
334847,-90.9090909090909,4,2,2,60,0,1
335308,-90.9090909090909,4,2,3,60,0,1
335462,-90.9090909090909,4,2,4,60,0,1
335617,-90.9090909090909,4,2,5,60,0,0
336848,-83.3333333333333,4,2,1,60,0,1
341308,-83.3333333333333,4,2,1,80,0,1
341462,-83.3333333333333,4,2,1,60,0,1
341615,-83.3333333333333,4,2,1,80,0,1
341770,-83.3333333333333,4,2,1,60,0,1
344308,-83.3333333333333,4,2,4,60,0,1
344385,-83.3333333333333,4,2,5,60,0,1
344539,-83.3333333333333,4,2,1,60,0,1
344693,-83.3333333333333,4,2,1,60,0,1
344770,-83.3333333333333,4,2,3,60,0,1
344847,-83.3333333333333,4,2,4,60,0,1
345001,-83.3333333333333,4,2,1,60,0,1
345155,-83.3333333333333,4,2,2,60,0,1
345462,-83.3333333333333,4,2,1,60,0,1
350462,-83.3333333333333,4,2,2,60,0,1
350539,-83.3333333333333,4,2,1,60,0,1
350693,-83.3333333333333,4,2,3,60,0,1
351001,-83.3333333333333,4,2,1,60,0,1
351155,-83.3333333333333,4,2,4,60,0,1
351308,-83.3333333333333,4,2,1,60,0,1
351616,-83.3333333333333,4,2,1,60,0,1
354847,-83.3333333333333,4,2,2,60,0,1
355001,-83.3333333333333,4,2,1,60,0,1
355078,-83.3333333333333,4,2,2,60,0,1
355155,-83.3333333333333,4,2,1,60,0,1
355308,-83.3333333333333,4,2,1,60,0,1
355384,-83.3333333333333,4,2,1,80,0,1
355462,-83.3333333333333,4,2,2,60,0,1
355924,-83.3333333333333,4,2,3,60,0,1
356231,-83.3333333333333,4,2,4,60,0,1
356385,-83.3333333333333,4,2,5,60,0,1
356539,-83.3333333333333,4,2,1,60,0,1
360231,-83.3333333333333,4,2,2,60,0,1
360539,-83.3333333333333,4,2,1,60,0,1
360693,-83.3333333333333,4,2,3,60,0,1
360847,-83.3333333333333,4,2,1,60,0,1
364538,-83.3333333333333,4,2,1,80,0,1
364616,-83.3333333333333,4,2,1,60,0,1
364847,-83.3333333333333,4,2,2,60,0,1
365155,-83.3333333333333,4,2,1,60,0,1
370155,-83.3333333333333,4,2,2,60,0,1
370231,-83.3333333333333,4,2,1,60,0,1
370385,-83.3333333333333,4,2,3,60,0,1
370539,-83.3333333333333,4,2,1,60,0,1
370693,-83.3333333333333,4,2,1,60,0,1
370796,-83.3333333333333,4,2,1,80,0,1
371001,-83.3333333333333,4,2,1,60,0,1
371103,-83.3333333333333,4,2,1,80,0,1
371308,-83.3333333333333,4,2,1,60,0,1
375002,307.692307692308,5,2,5,60,1,0
375925,-100,5,2,1,60,0,0
376540,-100,5,2,1,60,0,0

[Colours]
Combo1 : 255,66,66
Combo2 : 174,0,0
Combo3 : 106,106,106

[HitObjects]
106,104,696,6,0,L|51:93,3,50,12|0|0|0,3:3|3:3|3:3|3:3,0:0:0:0:
71,232,1003,6,0,L|186:202,1,100,10|0,3:3|3:3,0:0:0:0:
236,135,1234,1,0,3:3:0:0:
259,126,1311,2,0,L|374:156,1,100,10|0,3:3|3:3,0:0:0:0:
455,237,1542,1,0,3:3:0:0:
443,231,1619,2,0,P|431:207|434:169,1,50,10|0,3:3|3:3,0:0:0:0:
327,62,1772,2,0,P|341:39|376:23,1,50,0|0,3:3|3:3,0:0:0:0:
450,104,1926,2,0,L|373:87,1,50,10|0,3:3|3:3,0:0:0:0:
308,242,2080,5,0,3:3:0:0:
289,248,2157,1,0,3:3:0:0:
270,254,2234,1,10,3:3:0:0:
251,260,2311,1,0,3:3:0:0:
235,265,2388,2,0,L|253:210,1,50,0|0,3:3|3:3,0:0:0:0:
200,93,2542,5,10,3:3:0:0:
176,67,2619,1,0,3:3:0:0:
141,59,2696,1,0,3:3:0:0:
108,71,2772,1,0,3:3:0:0:
93,102,2849,2,0,L|100:162,3,50,10|0|0|0,3:3|3:3|3:3|3:3,0:0:0:0:
38,265,3157,5,10,3:3:0:0:
77,303,3234,1,0,3:3:0:0:
131,309,3311,1,0,3:3:0:0:
179,283,3388,1,0,3:3:0:0:
199,231,3465,5,10,3:3:0:0:
222,192,3542,1,0,3:3:0:0:
263,173,3619,1,0,3:3:0:0:
307,180,3696,1,0,3:3:0:0:
332,216,3772,5,10,3:3:0:0:
348,246,3849,1,0,3:3:0:0:
379,261,3926,1,0,3:3:0:0:
413,258,4003,1,0,3:3:0:0:
439,235,4080,2,0,L|430:183,4,33.3333333333333,12|0|0|0|0,3:1|0:0|0:0|3:3|0:0,0:0:0:0:
492,139,4388,5,8,2:3:0:0:
438,125,4465,1,8,2:3:0:0:
384,112,4542,1,8,2:3:0:0:
330,99,4619,1,8,2:3:0:0:
276,86,4696,5,8,2:3:0:0:
286,75,4772,1,8,2:3:0:0:
296,64,4849,1,0,3:3:0:0:
306,53,4926,1,0,3:3:0:0:
316,42,5003,5,8,2:3:0:0:
302,84,5080,1,8,2:3:0:0:
288,126,5157,1,8,2:3:0:0:
274,169,5234,1,8,2:3:0:0:
298,212,5311,5,8,3:3:0:0:
305,241,5388,1,8,2:3:0:0:
312,270,5465,1,8,2:3:0:0:
319,299,5542,1,8,2:3:0:0:
351,319,5619,5,4,3:1:0:0:
291,355,5696,1,0,3:3:0:0:
229,343,5772,1,8,3:3:0:0:
201,297,5849,1,0,3:3:0:0:
207,243,5926,1,0,3:3:0:0:
240,211,6003,1,0,3:3:0:0:
283,204,6080,1,10,3:3:0:0:
318,219,6157,1,0,3:3:0:0:
329,244,6234,1,0,3:3:0:0:
324,262,6311,1,0,3:3:0:0:
304,275,6388,1,8,3:3:0:0:
271,268,6465,1,0,3:3:0:0:
247,233,6542,1,2,3:3:0:0:
257,179,6619,1,0,3:3:0:0:
306,149,6696,1,8,3:3:0:0:
369,162,6772,1,0,3:3:0:0:
404,222,6849,6,0,L|392:275,3,50,2|0|8|0,3:3|3:3|3:3|3:3,0:0:0:0:
480,168,7157,2,0,P|461:151|407:131,1,50,0|0,3:3|3:3,0:0:0:0:
304,275,7311,2,0,P|279:307|231:312,1,50,10|0,3:3|3:3,0:0:0:0:
127,105,7465,5,0,3:3:0:0:
180,67,7542,1,0,3:3:0:0:
238,77,7619,1,8,3:3:0:0:
266,122,7696,1,0,3:3:0:0:
254,167,7772,1,2,3:3:0:0:
216,187,7849,1,0,3:3:0:0:
186,178,7926,1,8,3:3:0:0:
178,158,8003,1,0,3:3:0:0:
187,148,8080,5,2,3:3:0:0:
245,135,8157,1,0,3:3:0:0:
290,161,8234,1,8,3:3:0:0:
298,209,8311,1,0,3:3:0:0:
313,255,8388,1,0,3:3:0:0:
349,279,8465,1,0,3:3:0:0:
387,274,8542,1,10,3:3:0:0:
406,255,8619,1,0,3:3:0:0:
409,245,8696,5,0,3:3:0:0:
401,222,8772,1,0,3:3:0:0:
363,210,8849,1,8,3:3:0:0:
321,232,8926,1,0,3:3:0:0:
313,288,9003,5,8,2:3:0:0:
260,303,9080,1,8,2:3:0:0:
207,318,9157,1,0,3:3:0:0:
153,332,9234,1,0,3:3:0:0:
100,349,9311,6,0,L|115:279,1,50,12|0,2:3|0:0,0:0:0:0:
191,80,9465,1,8,2:3:0:0:
177,101,9541,1,8,2:3:0:0:
166,123,9618,1,8,2:3:0:0:
159,147,9695,1,8,2:3:0:0:
154,171,9772,1,8,2:3:0:0:
152,196,9849,1,8,2:3:0:0:
154,221,9926,5,8,3:3:0:0:
201,205,10003,1,8,2:3:0:0:
248,189,10080,1,8,2:3:0:0:
295,173,10157,1,8,2:3:0:0:
340,153,10234,5,8,3:3:0:0:
353,159,10311,1,8,2:3:0:0:
368,167,10388,2,0,L|421:200,1,50,8|8,2:3|2:3,0:0:0:0:
465,333,10542,5,4,3:1:0:0:
455,331,10619,1,0,3:3:0:0:
445,328,10696,2,0,L|376:309,1,50,0|0,3:3|3:3,0:0:0:0:
309,243,10849,6,0,P|246:226|193:243,1,100,10|2,3:2|3:2,0:0:0:0:
158,323,11080,1,0,3:3:0:0:
164,307,11157,2,0,P|129:258|81:232,1,100,10|2,3:2|3:2,0:0:0:0:
17,104,11388,1,0,3:3:0:0:
25,95,11465,2,0,L|44:170,1,50,10|0,3:2|3:3,0:0:0:0:
131,159,11619,2,0,L|112:84,1,50,2|0,3:2|3:3,0:0:0:0:
206,38,11772,5,10,3:2:0:0:
250,44,11849,1,0,3:3:0:0:
294,50,11926,1,2,3:2:0:0:
338,57,12003,1,0,3:3:0:0:
382,62,12080,2,0,L|404:134,1,50,10|0,3:2|3:3,0:0:0:0:
463,267,12234,5,2,3:2:0:0:
428,296,12311,1,0,3:3:0:0:
382,296,12388,2,0,P|357:279|344:258,1,50,10|0,3:2|3:3,0:0:0:0:
488,96,12542,6,0,P|468:133|461:167,1,50,2|0,3:2|3:3,0:0:0:0:
405,227,12696,2,0,P|395:203|382:182,1,50,10|0,3:2|3:3,0:0:0:0:
500,109,12849,2,0,P|476:143|465:176,1,50,2|0,3:2|3:3,0:0:0:0:
327,342,13003,5,10,3:2:0:0:
265,380,13080,1,0,3:3:0:0:
200,368,13157,1,2,3:2:0:0:
159,327,13234,1,0,3:3:0:0:
155,274,13311,1,10,3:2:0:0:
184,236,13388,1,0,3:3:0:0:
221,232,13465,1,2,3:2:0:0:
242,248,13542,1,0,3:3:0:0:
238,285,13619,5,10,3:2:0:0:
247,300,13696,1,0,3:3:0:0:
283,316,13772,1,2,3:2:0:0:
321,306,13849,1,0,3:3:0:0:
339,271,13926,5,10,3:2:0:0:
359,226,14003,1,0,3:3:0:0:
406,201,14080,1,2,3:1:0:0:
463,221,14157,1,2,3:2:0:0:
484,290,14234,6,0,L|471:341,3,50,2|2|2|2,3:2|3:2|3:2|3:2,0:0:0:0:
263,117,14542,2,0,L|250:168,3,50,8|2|2|2,3:3|3:1|3:2|3:2,0:0:0:0:
462,57,14849,2,0,L|449:6,3,50,2|2|2|2,3:2|3:2|3:2|3:2,0:0:0:0:
263,214,15157,2,0,L|250:163,3,50,8|2|2|2,3:3|3:1|3:2|3:2,0:0:0:0:
135,67,15465,5,4,3:3:0:0:
81,45,15542,1,0,3:3:0:0:
32,59,15619,1,8,3:3:0:0:
10,101,15696,1,0,3:3:0:0:
19,143,15772,1,2,3:2:0:0:
54,164,15849,1,0,3:3:0:0:
86,157,15926,1,10,3:2:0:0:
95,142,16003,1,0,3:3:0:0:
89,133,16080,5,2,3:2:0:0:
72,134,16157,1,0,3:3:0:0:
47,164,16234,1,8,3:3:0:0:
60,209,16311,1,0,3:3:0:0:
116,227,16388,2,0,P|132:206|174:182,1,50,2|0,3:2|3:3,0:0:0:0:
216,107,16542,2,0,P|232:128|274:152,1,50,8|0,3:3|3:3,0:0:0:0:
362,248,16696,5,2,3:1:0:0:
394,257,16772,1,2,3:1:0:0:
428,252,16849,1,8,3:3:0:0:
456,230,16926,1,0,3:3:0:0:
470,199,17003,1,2,3:2:0:0:
469,164,17080,1,0,3:3:0:0:
451,134,17157,1,8,3:3:0:0:
422,116,17234,1,0,3:3:0:0:
387,113,17311,5,2,3:2:0:0:
369,158,17387,1,0,3:3:0:0:
380,206,17464,1,10,3:2:0:0:
416,240,17541,1,0,3:3:0:0:
435,286,17618,1,2,3:2:0:0:
423,333,17695,1,0,3:3:0:0:
385,365,17772,1,8,3:3:0:0:
336,367,17849,1,0,3:3:0:0:
295,339,17926,5,8,3:3:0:0:
303,310,18003,1,8,2:3:0:0:
282,278,18080,5,8,2:3:0:0:
274,248,18157,1,8,2:3:0:0:
297,214,18234,6,0,P|286:243|258:277,1,50,8|8,3:3|2:3,0:0:0:0:
219,321,18388,2,0,P|208:292|180:258,1,50,8|8,2:3|2:3,0:0:0:0:
43,273,18542,5,4,3:2:0:0:
31,305,18619,1,0,3:3:0:0:
57,327,18696,5,0,3:3:0:0:
79,349,18772,1,0,3:3:0:0:
112,338,18849,6,0,P|90:318|81:293,1,50,2|2,3:3|3:3,0:0:0:0:
131,209,19003,1,2,3:3:0:0:
159,189,19080,1,2,3:3:0:0:
193,194,19157,6,0,B|231:219|276:188|257:167|305:127|361:172,1,179.999994506836,4|8,3:3|2:3,0:0:0:0:
359,179,19670,5,8,2:3:0:0:
364,191,19721,5,8,2:3:0:0:
369,203,19772,5,8,2:3:0:0:
437,142,19926,6,0,L|448:111,2,19.9999993896485,8|8|8,2:3|2:3|2:3,0:0:0:0:
449,109,20080,5,8,2:3:0:0:
239,30,20234,6,0,P|200:76|153:209,1,189.999994926453,4|0,3:3|3:3,0:0:0:0:
277,216,20619,1,0,3:3:0:0:
269,203,20696,2,0,P|231:167|203:160,1,47.4999987316132,12|0,2:2|0:0,0:0:0:0:
143,269,20849,1,0,0:0:0:0:
47,126,21003,1,4,3:3:0:0:
47,126,21080,1,0,0:0:0:0:
47,126,21157,1,0,0:0:0:0:
80,225,21311,1,10,2:3:0:0:
154,117,21465,6,0,P|203:91|253:79,1,94.9999974632264,0|2,3:3|2:3,0:0:0:0:
339,158,21772,1,0,3:3:0:0:
465,43,21926,2,0,P|416:17|366:5,1,94.9999974632264,10|0,2:3|0:0,0:0:0:0:
261,89,22234,1,2,3:3:0:0:
437,227,22388,1,0,3:3:0:0:
437,227,22465,1,0,3:3:0:0:
437,227,22542,1,10,2:3:0:0:
307,313,22696,6,0,P|258:274|130:214,1,189.999994926453,0|0,3:3|3:3,0:0:0:0:
132,127,23080,1,0,3:3:0:0:
114,123,23157,2,0,P|80:143|61:170,1,47.4999987316132,10|0,2:3|0:0,0:0:0:0:
89,272,23310,1,0,0:0:0:0:
223,155,23464,2,0,P|268:132|348:119,1,94.9999974632264,2|0,3:3|0:0,0:0:0:0:
376,223,23772,1,10,2:3:0:0:
234,350,23926,6,0,P|190:317|138:298,1,94.9999974632264,0|2,3:3|2:3,0:0:0:0:
55,343,24234,1,0,3:3:0:0:
0,211,24387,2,0,P|43:192|81:163,1,94.9999974632264,10|0,2:3|3:3,0:0:0:0:
96,63,24618,1,0,3:3:0:0:
89,48,24695,1,4,2:1:0:0:
208,222,24849,1,8,2:3:0:0:
158,0,25003,1,4,3:3:0:0:
37,285,25157,6,0,B|83:253|137:281|119:307|166:341|212:308,1,189.999994926453,4|0,3:3|3:3,0:0:0:0:
215,303,25516,5,0,3:3:0:0:
220,295,25567,5,0,3:3:0:0:
226,288,25618,6,0,P|256:287|286:307,1,47.4999987316132,12|0,2:2|0:0,0:0:0:0:
410,314,25772,1,0,0:0:0:0:
335,108,25926,1,2,3:3:0:0:
335,108,26003,1,0,0:0:0:0:
335,108,26080,1,0,0:0:0:0:
478,47,26234,1,10,2:3:0:0:
353,202,26387,6,0,P|285:170|240:161,1,94.9999974632264,0|2,3:3|2:3,0:0:0:0:
177,224,26695,1,0,3:3:0:0:
61,131,26849,2,0,P|106:116|147:94,1,94.9999974632264,10|0,2:3|3:3,0:0:0:0:
222,42,27080,1,0,3:3:0:0:
217,33,27157,5,2,3:3:0:0:
171,20,27234,1,0,0:0:0:0:
130,44,27310,1,0,3:3:0:0:
126,92,27387,1,0,3:3:0:0:
161,122,27464,1,8,2:2:0:0:
196,119,27541,1,8,2:2:0:0:
207,106,27618,6,0,P|246:132|305:158,1,94.9999974632264,4|0,3:2|0:0,0:0:0:0:
381,107,27926,1,0,3:3:0:0:
314,261,28080,2,0,P|337:237|375:220,1,47.4999987316132,10|0,2:3|0:0,0:0:0:0:
452,216,28234,2,0,P|429:192|391:175,1,47.4999987316132
198,239,28387,5,2,3:3:0:0:
361,364,28541,1,0,3:3:0:0:
289,152,28695,1,10,2:3:0:0:
143,365,28849,5,0,3:3:0:0:
143,365,28926,1,0,3:3:0:0:
143,365,29003,2,0,P|128:327|101:292,3,47.4999987316132,2|8|8|8,3:3|2:2|2:2|2:2,0:0:0:0:
26,295,29310,5,8,3:3:0:0:
43,272,29387,1,8,2:2:0:0:
57,247,29464,1,8,2:2:0:0:
67,220,29541,1,8,2:2:0:0:
71,191,29618,5,8,3:3:0:0:
40,225,29696,1,8,2:2:0:0:
41,271,29772,1,8,2:3:0:0:
73,305,29849,1,8,2:3:0:0:
119,306,29926,1,8,2:3:0:0:
155,276,30003,1,8,2:3:0:0:
160,230,30080,6,0,B|246:248|246:248|251:240|251:240|364:263,1,189.999994926453,4|0,3:3|3:3,0:0:0:0:
375,364,30464,1,0,3:3:0:0:
391,369,30541,2,0,P|417:352|435:330,1,47.4999987316132,12|0,2:2|0:0,0:0:0:0:
433,231,30695,1,0,0:0:0:0:
289,332,30849,1,2,3:3:0:0:
289,332,30926,1,0,0:0:0:0:
289,332,31003,1,0,0:0:0:0:
225,117,31157,1,10,2:3:0:0:
341,258,31310,6,0,P|364:202|449:98,1,189.999994926453,0|0,3:3|3:3,0:0:0:0:
512,138,31695,1,0,3:3:0:0:
505,158,31772,2,0,P|483:177|449:186,1,47.4999987316132,10|0,2:3|0:0,0:0:0:0:
360,62,31926,1,0,0:0:0:0:
433,258,32080,1,2,3:3:0:0:
318,150,32234,1,0,3:3:0:0:
318,150,32310,1,0,3:3:0:0:
318,150,32387,1,10,2:3:0:0:
209,342,32541,6,0,P|160:306|16:228,1,189.999994926453,0|0,3:3|3:3,0:0:0:0:
117,179,32926,1,0,3:3:0:0:
138,189,33003,2,0,P|165:166|203:152,1,47.4999987316132,10|0,2:3|0:0,0:0:0:0:
24,112,33157,1,0,0:0:0:0:
153,287,33310,2,0,P|188:250|229:222,1,94.9999974632264,2|0,3:3|0:0,0:0:0:0:
315,254,33618,1,10,2:3:0:0:
239,109,33772,6,0,P|286:126|335:134,1,94.9999974632264,0|2,3:3|2:3,0:0:0:0:
431,203,34080,1,0,3:3:0:0:
506,0,34234,2,0,P|459:7|414:24,1,94.9999974632264,10|0,2:3|3:3,0:0:0:0:
317,151,34464,1,0,3:3:0:0:
330,133,34542,5,4,3:2:0:0:
297,105,34618,1,0,3:3:0:0:
254,102,34695,1,8,2:3:0:0:
219,126,34772,1,8,2:3:0:0:
207,167,34849,1,8,2:3:0:0:
179,199,34926,1,8,2:3:0:0:
137,207,35003,6,0,B|183:246|183:246|136:370,1,189.999994926453,4|0,3:3|3:3,0:0:0:0:
130,359,35362,5,0,3:3:0:0:
124,351,35413,5,0,3:3:0:0:
118,343,35464,6,0,P|88:326|70:321,1,47.4999987316132,12|0,2:2|0:0,0:0:0:0:
10,363,35618,1,0,0:0:0:0:
194,295,35772,1,2,3:3:0:0:
194,295,35849,1,0,0:0:0:0:
194,295,35926,1,0,0:0:0:0:
79,195,36080,1,10,2:3:0:0:
234,372,36234,6,0,P|280:343|321:330,1,94.9999974632264,0|2,3:3|2:3,0:0:0:0:
426,376,36541,1,0,3:3:0:0:
337,196,36695,2,0,P|383:225|424:238,1,94.9999974632264,10|0,2:3|3:3,0:0:0:0:
503,158,36926,1,0,3:3:0:0:
490,169,37003,5,2,3:3:0:0:
442,167,37080,1,0,0:0:0:0:
413,129,37157,1,0,3:3:0:0:
415,81,37234,1,0,3:3:0:0:
395,38,37310,1,8,2:2:0:0:
350,20,37387,1,8,2:2:0:0:
305,37,37464,6,0,L|278:142,1,94.9999974632264,4|0,3:3|0:0,0:0:0:0:
221,215,37772,1,0,3:3:0:0:
66,78,37926,2,0,P|87:68|124:66,1,47.4999987316132,10|0,2:3|0:0,0:0:0:0:
201,101,38080,1,0,0:0:0:0:
95,232,38234,5,2,3:3:0:0:
220,9,38387,1,2,2:2:0:0:
16,154,38541,1,8,2:2:0:0:
214,295,38695,6,0,P|280:266|328:255,1,94.9999974632264,2|0,3:3|0:0,0:0:0:0:
381,308,39003,1,2,3:3:0:0:
306,136,39157,1,8,2:2:0:0:
493,299,39310,1,2,3:3:0:0:
493,299,39387,1,2,2:3:0:0:
493,299,39464,1,2,2:3:0:0:
370,205,39618,1,2,2:3:0:0:
494,63,39772,1,8,2:2:0:0:
486,100,39849,1,8,2:2:0:0:
478,137,39926,5,4,3:3:0:0:
336,36,40234,6,0,P|308:26|280:21,1,37.5000014305115,8|8,2:3|2:3,0:0:0:0:
246,71,40387,2,0,P|218:81|190:86,1,37.5000014305115,8|8,2:3|2:3,0:0:0:0:
127,27,40541,1,0,3:3:0:0:
127,27,40618,1,0,3:3:0:0:
127,27,40695,6,0,P|117:46|111:68,1,37.5000014305115,8|8,3:3|2:3,0:0:0:0:
57,107,40849,2,0,P|67:126|73:148,1,37.5000014305115,8|8,2:3|2:3,0:0:0:0:
164,195,41003,1,0,3:3:0:0:
164,195,41080,1,0,3:3:0:0:
164,195,41157,6,0,P|180:187|206:177,1,37.5000014305115,8|8,2:3|2:3,0:0:0:0:
255,233,41310,2,0,P|271:241|297:251,1,37.5000014305115,0|0,3:3|3:3,0:0:0:0:
390,172,41464,1,8,2:2:0:0:
390,172,41541,1,8,2:3:0:0:
390,172,41618,5,8,2:2:0:0:
398,212,41695,1,8,2:3:0:0:
406,252,41772,1,0,3:3:0:0:
414,292,41849,1,0,3:3:0:0:
421,332,41926,5,8,2:2:0:0:
275,98,42080,1,4,3:2:0:0:
500,250,42234,1,0,3:3:0:0:
251,346,42387,6,0,P|215:321|176:303,1,85.0000016212464,4|0,3:1|0:0,0:0:0:0:
52,272,42695,1,0,3:3:0:0:
52,272,42772,1,0,3:3:0:0:
52,272,42849,2,0,P|99:247|125:216,1,85.0000016212464,10|0,2:3|0:0,0:0:0:0:
131,84,43157,2,0,L|142:132,1,42.5000008106232,2|0,3:3|3:3,0:0:0:0:
143,227,43310,2,0,P|187:199|225:186,1,85.0000016212464,0|10,3:3|2:3,0:0:0:0:
349,270,43618,6,0,B|333:229|333:229|351:174,1,85.0000016212464,0|2,3:3|2:3,0:0:0:0:
451,186,43926,2,0,B|467:227|467:227|454:265,1,85.0000016212464,0|10,3:3|2:3,0:0:0:0:
299,124,44234,1,0,3:3:0:0:
299,124,44310,1,0,3:3:0:0:
299,124,44387,2,0,L|361:105,1,42.5000008106232,2|0,3:3|0:0,0:0:0:0:
249,215,44541,1,0,3:3:0:0:
312,37,44695,1,10,2:3:0:0:
151,138,44849,6,0,P|106:112|57:98,1,85.0000016212464,0|2,3:3|2:3,0:0:0:0:
0,212,45157,1,0,3:3:0:0:
0,212,45234,1,0,3:3:0:0:
0,212,45310,2,0,P|43:187|89:177,1,85.0000016212464,10|0,2:3|0:0,0:0:0:0:
147,247,45618,2,0,P|165:267|191:282,1,42.5000008106232,2|0,3:3|3:3,0:0:0:0:
89,170,45772,1,0,3:3:0:0:
37,338,45926,1,10,2:3:0:0:
205,186,46080,6,0,P|249:163|293:150,1,85.0000016212464,0|2,3:3|2:3,0:0:0:0:
190,55,46387,1,0,3:3:0:0:
306,236,46541,2,0,P|350:257|397:269,1,85.0000016212464,10|0,2:3|3:3,0:0:0:0:
412,252,46772,1,0,3:3:0:0:
412,252,46849,1,2,3:3:0:0:
312,73,47003,1,8,2:2:0:0:
375,349,47157,1,4,3:3:0:0:
484,114,47310,6,0,B|510:119|528:110|528:110|506:154|463:152|463:152|457:157|457:157|429:117|377:106,1,230.000004386902,4|0,3:3|3:3,0:0:0:0:
291,241,47772,2,0,P|356:210|385:188,1,85.0000016212464,10|0,2:3|3:3,0:0:0:0:
289,88,48080,2,0,L|276:137,1,42.5000008106232,2|0,3:3|3:3,0:0:0:0:
210,216,48234,2,0,P|172:192|117:177,1,85.0000016212464,0|10,3:3|2:3,0:0:0:0:
70,30,48541,6,0,P|115:20|138:60,1,85.0000016212464,0|2,3:3|2:3,0:0:0:0:
115,168,48849,2,0,P|70:178|47:138,1,85.0000016212464,0|10,3:3|2:3,0:0:0:0:
205,111,49157,1,0,3:3:0:0:
205,111,49234,1,0,3:3:0:0:
205,111,49310,2,0,L|220:165,1,42.5000008106232,2|0,3:3|0:0,0:0:0:0:
143,290,49464,1,0,3:3:0:0:
321,187,49618,1,8,2:2:0:0:
443,353,49772,6,0,B|429:335|429:335|350:314,1,85.0000016212464,4|0,3:3|0:0,0:0:0:0:
266,335,50080,1,0,3:3:0:0:
266,335,50157,1,0,3:3:0:0:
266,335,50234,2,0,L|284:291,1,42.5000008106232,10|0,2:3|0:0,0:0:0:0:
342,203,50387,2,0,L|330:153,1,42.5000008106232,0|0,3:3|3:3,0:0:0:0:
262,84,50541,1,2,3:3:0:0:
433,197,50695,1,0,3:3:0:0:
222,225,50849,1,10,2:3:0:0:
387,37,51003,6,0,L|410:131,1,85.0000016212464,0|2,3:3|3:3,0:0:0:0:
321,216,51310,1,0,0:0:0:0:
252,90,51464,1,10,3:3:0:0:
334,231,51618,1,0,0:0:0:0:
387,37,51772,1,8,2:2:0:0:
387,37,51849,1,8,2:3:0:0:
387,37,51926,1,0,3:3:0:0:
222,225,52080,1,8,2:2:0:0:
10,68,52234,6,0,B|108:59|108:59|134:79|134:79|245:69,1,230.000004386902,4|0,3:3|3:3,0:0:0:0:
321,216,52695,2,0,L|204:183,1,85.0000016212464,10|0,2:3|3:3,0:0:0:0:
150,150,53003,2,0,L|163:207,1,42.5000008106232,2|0,3:3|3:3,0:0:0:0:
186,291,53157,1,0,3:3:0:0:
79,203,53310,1,10,2:3:0:0:
198,371,53464,6,0,P|268:343|308:339,1,85.0000016212464,0|2,3:3|2:3,0:0:0:0:
346,384,53772,1,0,3:3:0:0:
371,275,53926,2,0,P|441:303|481:307,1,85.0000016212464,10|0,2:3|3:3,0:0:0:0:
468,286,54157,1,0,3:3:0:0:
468,286,54234,1,2,3:3:0:0:
334,202,54387,1,0,3:3:0:0:
426,372,54541,1,10,2:3:0:0:
512,180,54695,6,0,P|469:162|425:158,1,85.0000016212464,0|2,3:3|2:3,0:0:0:0:
351,91,55003,1,0,3:3:0:0:
260,238,55157,2,0,P|216:206|162:182,1,85.0000016212464,10|0,2:3|3:3,0:0:0:0:
191,100,55464,2,0,P|155:105|126:120,1,42.5000008106232,2|0,3:3|3:3,0:0:0:0:
103,178,55618,1,0,3:3:0:0:
216,18,55772,1,10,2:3:0:0:
1,159,55926,6,0,P|21:203|32:240,1,85.0000016212464,0|2,3:3|2:3,0:0:0:0:
5,324,56234,1,0,3:3:0:0:
177,215,56387,1,10,2:3:0:0:
141,327,56541,2,0,B|153:307|189:294|189:294|175:304|161:318,1,94.9999974632264,0|2,3:3|3:3,0:0:0:0:
281,377,56849,1,8,2:3:0:0:
105,256,57003,1,8,2:3:0:0:
366,131,57157,6,0,P|428:165|327:182,1,230.000004386902,4|0,3:3|3:3,0:0:0:0:
283,103,57618,2,0,P|232:69|186:48,1,85.0000016212464,12|0,2:2|3:3,0:0:0:0:
124,2,57926,2,0,P|136:28|144:61,1,42.5000008106232,2|0,3:3|3:3,0:0:0:0:
121,129,58080,1,0,3:3:0:0:
231,43,58234,1,10,2:3:0:0:
281,207,58387,6,0,P|236:177|187:161,1,85.0000016212464,0|2,3:3|2:3,0:0:0:0:
138,225,58695,1,0,3:3:0:0:
316,87,58849,1,10,2:3:0:0:
263,216,59003,1,0,3:3:0:0:
211,34,59157,2,0,L|232:89,1,42.5000008106232,2|0,3:3|3:3,0:0:0:0:
328,280,59310,1,0,3:3:0:0:
397,130,59464,1,10,2:3:0:0:
200,307,59618,6,0,P|136:277|94:264,1,85.0000016212464,0|2,3:3|2:3,0:0:0:0:
41,333,59926,1,0,3:3:0:0:
198,208,60080,2,0,P|237:192|275:173,1,85.0000016212464,10|0,2:3|3:3,0:0:0:0:
318,69,60387,2,0,P|281:93|268:105,1,42.5000008106232,2|0,3:3|3:3,0:0:0:0:
359,192,60541,1,0,3:3:0:0:
187,85,60695,1,10,2:3:0:0:
245,327,60849,6,0,L|262:234,1,85.0000016212464,0|2,3:3|2:3,0:0:0:0:
201,156,61157,1,0,3:3:0:0:
349,294,61310,2,0,P|400:263|437:256,1,85.0000016212464,10|0,2:3|3:3,0:0:0:0:
454,272,61541,1,0,3:3:0:0:
454,272,61618,1,12,2:3:0:0:
325,75,61772,2,0,L|317:117,1,42.5000008106232,2|0,2:3|0:0,0:0:0:0:
256,278,61926,2,0,L|248:236,1,42.5000008106232,2|0,2:3|0:0,0:0:0:0:
85,21,62080,6,0,B|132:55|132:55|111:152,1,150.000005722046,4|0,3:3|3:3,0:0:0:0:
107,176,62464,1,0,3:3:0:0:
107,176,62541,1,12,2:1:0:0:
15,247,62849,1,0,0:0:0:0:
15,247,63003,1,0,3:3:0:0:
51,98,63157,1,10,2:3:0:0:
192,283,63310,6,0,B|225:309|274:294|257:271|296:245|337:268,1,150.000005722046,4|0,3:3|3:3,0:0:0:0:
354,297,63695,1,0,3:3:0:0:
354,297,63772,1,8,2:2:0:0:
416,186,63926,1,0,3:3:0:0:
416,186,64003,1,0,3:3:0:0:
416,186,64080,1,8,2:2:0:0:
318,81,64234,1,8,2:3:0:0:
333,181,64387,1,8,2:3:0:0:
512,40,64541,6,0,B|444:28|444:28|433:32|433:32|362:18,1,150.000005722046,4|0,3:3|3:3,0:0:0:0:
344,6,64926,1,0,3:3:0:0:
344,6,65003,1,10,2:2:0:0:
216,67,65157,1,0,3:3:0:0:
216,67,65234,1,0,3:3:0:0:
216,67,65311,2,0,L|200:119,1,37.5000014305115,2|0,3:2|0:0,0:0:0:0:
141,184,65465,1,0,3:3:0:0:
141,184,65542,1,0,3:3:0:0:
141,184,65619,2,0,L|125:132,1,37.5000014305115,10|0,2:2|0:0,0:0:0:0:
31,44,65772,6,0,B|19:74|19:74|55:196,1,150.000005722046,0|0,3:3|3:3,0:0:0:0:
70,225,66157,1,0,3:3:0:0:
70,225,66234,1,10,2:2:0:0:
168,296,66388,1,0,3:3:0:0:
168,296,66464,1,0,3:3:0:0:
168,296,66542,2,0,L|182:252,1,37.5000014305115,2|0,3:2|0:0,0:0:0:0:
233,156,66696,2,0,L|247:200,1,37.5000014305115,8|0,2:2|0:0,0:0:0:0:
276,335,66849,2,0,L|290:291,1,37.5000014305115,4|0,3:2|0:0,0:0:0:0:
458,172,67003,6,0,B|419:155|419:155|447:276,1,150.000005722046,4|0,3:3|3:3,0:0:0:0:
454,291,67388,1,0,3:3:0:0:
454,291,67465,1,10,2:3:0:0:
327,168,67619,1,0,3:3:0:0:
327,168,67696,1,0,3:3:0:0:
327,168,67772,2,0,L|339:121,1,37.5000014305115,0|0,3:3|0:0,0:0:0:0:
277,284,67926,1,0,3:3:0:0:
277,284,68003,1,0,3:3:0:0:
277,284,68080,2,0,L|265:331,1,37.5000014305115,10|0,2:3|0:0,0:0:0:0:
251,40,68234,6,0,L|215:196,1,150.000005722046,4|0,3:3|3:3,0:0:0:0:
207,218,68619,1,0,3:3:0:0:
207,218,68696,1,8,2:3:0:0:
133,39,68849,1,2,3:3:0:0:
259,117,69003,1,0,3:3:0:0:
112,188,69157,1,0,3:3:0:0:
239,17,69311,1,10,2:3:0:0:
81,111,69464,6,0,P|34:93|2:90,1,67.4999979400635,4|0,3:3|0:0,0:0:0:0:
31,197,69772,5,2,3:2:0:0:
42,213,69849,1,0,3:3:0:0:
49,231,69926,1,8,3:3:0:0:
50,250,70003,1,0,3:3:0:0:
45,269,70080,5,0,3:3:0:0:
77,233,70157,1,0,3:3:0:0:
123,221,70234,1,2,3:2:0:0:
167,238,70310,1,0,3:3:0:0:
187,281,70387,1,0,3:3:0:0:
179,328,70464,1,0,3:3:0:0:
145,362,70541,1,8,3:3:0:0:
97,367,70618,1,0,3:3:0:0:
60,336,70695,5,0,3:3:0:0:
93,296,70772,1,0,3:3:0:0:
142,280,70849,1,2,3:2:0:0:
191,295,70926,1,0,3:3:0:0:
216,340,71003,1,2,3:2:0:0:
259,369,71080,1,0,3:3:0:0:
308,354,71157,2,0,L|319:285,1,40,8|0,3:3|3:3,0:0:0:0:
376,185,71310,2,0,L|387:254,1,40,0|0,3:3|3:3,0:0:0:0:
450,358,71464,2,0,L|455:316,1,40,10|0,3:2|3:3,0:0:0:0:
271,229,71618,5,8,3:3:0:0:
262,189,71695,1,8,3:3:0:0:
253,149,71772,1,8,3:3:0:0:
244,109,71849,1,8,3:3:0:0:
236,69,71926,5,4,3:3:0:0:
282,37,72003,1,0,3:3:0:0:
333,44,72080,1,0,3:3:0:0:
360,83,72157,1,0,3:3:0:0:
385,118,72234,1,0,3:3:0:0:
422,128,72310,1,0,3:3:0:0:
456,118,72387,1,10,3:3:0:0:
469,99,72464,1,0,3:3:0:0:
468,79,72541,5,0,3:3:0:0:
417,54,72618,1,0,3:3:0:0:
366,67,72695,1,10,3:3:0:0:
343,109,72772,1,0,3:3:0:0:
353,151,72849,1,0,3:3:0:0:
379,180,72926,1,0,3:3:0:0:
413,191,73003,1,10,3:3:0:0:
436,186,73080,1,0,3:3:0:0:
446,179,73157,5,0,3:3:0:0:
413,124,73234,1,0,3:3:0:0:
352,106,73310,1,10,3:3:0:0:
290,124,73387,1,0,3:3:0:0:
257,179,73464,1,0,3:3:0:0:
220,221,73541,1,0,3:3:0:0:
171,232,73618,1,10,3:3:0:0:
128,216,73695,1,0,3:3:0:0:
112,177,73772,1,0,3:3:0:0:
119,143,73849,1,0,3:3:0:0:
132,133,73926,1,10,3:3:0:0:
158,134,74003,1,0,3:3:0:0:
175,168,74080,1,0,3:3:0:0:
140,209,74157,1,0,3:3:0:0:
84,202,74234,1,10,3:3:0:0:
56,147,74310,1,0,3:3:0:0:
80,82,74387,6,0,P|106:68|137:63,3,50,4|0|0|0,3:3|3:3|3:3|3:3,0:0:0:0:
226,116,74695,2,0,P|252:130|283:135,3,50,2|0|8|0,3:2|3:3|3:3|3:3,0:0:0:0:
343,40,75003,5,2,3:2:0:0:
376,28,75080,1,2,3:2:0:0:
410,34,75157,2,0,P|434:48|448:77,1,50,2|0,3:2|3:3,0:0:0:0:
409,215,75310,1,2,3:2:0:0:
382,192,75387,1,0,3:3:0:0:
370,159,75464,2,0,P|370:131|388:104,1,50,8|0,3:3|3:3,0:0:0:0:
491,229,75618,5,2,3:2:0:0:
472,280,75695,1,0,3:3:0:0:
423,306,75772,1,0,3:3:0:0:
368,296,75849,1,0,3:3:0:0:
332,254,75926,1,2,3:2:0:0:
281,232,76003,1,0,3:3:0:0:
226,241,76080,2,0,L|213:295,1,50,8|0,3:3|3:3,0:0:0:0:
138,331,76234,2,0,P|159:360|181:368,3,50,2|2|2|0,3:2|3:1|3:2|3:3,0:0:0:0:
254,364,76541,2,0,P|275:351|288:330,3,50,2|0|8|0,3:2|3:3|3:3|3:3,0:0:0:0:
305,167,76849,5,4,3:3:0:0:
261,125,76926,1,0,3:3:0:0:
201,121,77003,1,0,3:3:0:0:
154,159,77080,1,0,3:3:0:0:
141,217,77157,1,2,3:2:0:0:
97,257,77234,1,0,3:3:0:0:
37,253,77310,2,0,L|55:187,1,50,8|0,3:3|3:3,0:0:0:0:
29,84,77464,5,2,3:2:0:0:
61,53,77541,1,0,3:3:0:0:
105,46,77618,1,0,3:3:0:0:
145,64,77695,1,0,3:3:0:0:
160,106,77772,1,2,3:2:0:0:
190,138,77849,1,0,3:3:0:0:
234,146,77926,2,0,L|263:93,1,50,8|0,3:3|3:3,0:0:0:0:
458,79,78080,5,2,3:2:0:0:
491,140,78157,1,0,3:3:0:0:
479,208,78234,1,0,3:3:0:0:
430,256,78310,1,0,3:3:0:0:
363,267,78387,1,0,3:3:0:0:
301,235,78464,1,0,3:3:0:0:
269,174,78541,2,0,L|258:111,1,50,10|0,3:2|3:3,0:0:0:0:
210,19,78695,1,2,3:2:0:0:
210,19,78772,1,2,3:2:0:0:
210,19,78849,2,0,L|196:78,1,50,2|0,3:2|3:3,0:0:0:0:
64,166,79003,2,0,L|50:107,3,50,2|0|8|0,3:2|3:3|3:3|3:3,0:0:0:0:
18,280,79310,5,0,3:3:0:0:
39,302,79387,1,0,3:3:0:0:
77,307,79464,1,8,2:3:0:0:
110,278,79541,1,8,2:3:0:0:
109,226,79618,1,8,2:2:0:0:
132,184,79695,1,8,2:3:0:0:
175,176,79772,1,0,3:3:0:0:
206,194,79849,1,0,3:3:0:0:
200,239,79926,5,8,2:2:0:0:
211,259,80003,1,8,2:3:0:0:
247,275,80080,1,0,3:3:0:0:
286,248,80157,1,0,3:3:0:0:
285,197,80234,1,8,2:2:0:0:
316,149,80310,1,8,2:3:0:0:
367,144,80387,2,0,L|385:199,1,50,8|8,2:3|2:3,0:0:0:0:
457,293,80541,5,0,3:3:0:0:
457,293,80618,1,0,3:3:0:0:
457,293,80695,2,0,L|468:231,1,50,12|0,2:3|0:0,0:0:0:0:
483,126,80849,1,8,2:2:0:0:
483,126,80926,1,8,2:2:0:0:
483,126,81003,1,0,3:3:0:0:
312,30,81157,5,12,2:2:0:0:
401,196,81310,1,0,3:3:0:0:
499,15,81464,1,0,3:3:0:0:
295,142,81618,2,0,L|279:240,1,100,12|0,2:3|0:0,0:0:0:0:
203,332,81926,5,4,3:3:0:0:
175,355,82002,1,0,3:3:0:0:
140,360,82079,1,0,3:3:0:0:
107,345,82156,1,0,3:3:0:0:
87,315,82233,1,10,3:3:0:0:
87,279,82310,1,0,3:3:0:0:
107,249,82387,1,0,3:3:0:0:
140,234,82464,1,0,3:3:0:0:
175,239,82541,1,2,3:3:0:0:
203,262,82618,1,0,3:3:0:0:
213,297,82695,1,0,3:3:0:0:
240,322,82772,1,0,3:3:0:0:
276,326,82849,1,10,3:3:0:0:
308,312,82926,1,0,3:3:0:0:
328,282,83003,1,0,3:3:0:0:
329,246,83080,1,0,3:3:0:0:
311,216,83157,5,2,3:3:0:0:
270,242,83233,1,0,3:3:0:0:
254,286,83310,1,0,3:3:0:0:
271,331,83387,1,0,3:3:0:0:
313,354,83464,1,10,3:3:0:0:
360,345,83541,1,0,3:3:0:0:
390,307,83618,1,0,3:3:0:0:
390,260,83695,1,0,3:3:0:0:
358,224,83772,1,2,3:3:0:0:
311,216,83849,1,0,3:3:0:0:
283,177,83926,1,0,3:3:0:0:
286,129,84003,1,0,3:3:0:0:
319,95,84080,1,10,3:3:0:0:
367,90,84157,1,0,3:3:0:0:
407,117,84233,2,0,L|393:189,1,59.9999981689454,0|0,3:3|3:3,0:0:0:0:
273,291,84388,5,2,3:3:0:0:
231,332,84464,1,0,3:3:0:0:
172,332,84541,1,0,3:3:0:0:
131,291,84618,1,0,3:3:0:0:
130,232,84695,1,10,3:3:0:0:
171,190,84772,1,0,3:3:0:0:
204,141,84848,1,0,3:3:0:0:
206,82,84925,1,0,3:3:0:0:
177,31,85002,1,2,3:3:0:0:
125,2,85079,1,0,3:3:0:0:
66,6,85156,1,0,3:3:0:0:
18,41,85233,1,0,3:3:0:0:
0,95,85310,1,10,3:3:0:0:
5,154,85387,1,0,3:3:0:0:
44,198,85464,6,0,L|106:186,1,59.9999981689454,0|0,3:3|3:3,0:0:0:0:
219,70,85618,2,0,L|280:82,1,59.9999981689454,2|2,3:1|3:2,0:0:0:0:
390,176,85772,1,2,3:1:0:0:
390,176,85849,1,2,3:2:0:0:
390,176,85926,1,8,2:2:0:0:
339,192,86002,1,8,2:2:0:0:
287,209,86079,1,8,2:2:0:0:
235,226,86156,1,8,2:2:0:0:
183,243,86233,6,0,L|152:367,1,119.999996337891,4|0,3:1|0:0,0:0:0:0:
459,104,86541,2,0,L|489:221,1,119.999996337891,4|0,3:3|0:0,0:0:0:0:
272,27,86849,5,4,3:3:0:0:
249,54,86926,1,0,3:3:0:0:
244,89,87003,1,0,3:3:0:0:
259,122,87080,1,0,3:3:0:0:
289,142,87157,1,10,3:2:0:0:
325,142,87234,1,0,3:3:0:0:
355,122,87311,1,0,3:3:0:0:
390,114,87388,1,0,3:3:0:0:
424,127,87465,1,0,3:3:0:0:
445,156,87542,1,0,3:3:0:0:
447,193,87619,1,2,3:2:0:0:
430,224,87696,1,0,3:3:0:0:
399,241,87772,1,8,3:3:0:0:
374,268,87849,1,0,3:3:0:0:
371,303,87926,1,0,3:3:0:0:
388,333,88003,1,0,3:3:0:0:
421,346,88079,5,2,3:2:0:0:
442,303,88156,1,0,3:3:0:0:
429,255,88233,1,0,3:3:0:0:
390,228,88310,1,0,3:3:0:0:
342,232,88387,1,10,3:2:0:0:
308,266,88464,1,0,3:3:0:0:
266,288,88541,1,0,3:3:0:0:
218,288,88618,1,0,3:3:0:0:
177,264,88695,1,2,3:2:0:0:
153,223,88772,1,0,3:3:0:0:
151,176,88849,1,2,3:2:0:0:
173,134,88926,1,0,3:3:0:0:
213,108,89003,1,8,3:3:0:0:
261,104,89080,1,0,3:3:0:0:
303,126,89157,2,0,L|289:190,1,59.9999981689454,0|0,3:3|3:3,0:0:0:0:
200,278,89311,6,0,L|186:214,1,59.9999981689454,2|0,3:3|3:3,0:0:0:0:
43,64,89465,1,8,2:3:0:0:
93,31,89542,1,8,2:3:0:0:
153,33,89619,1,8,2:3:0:0:
198,71,89696,1,8,2:3:0:0:
209,129,89773,1,0,3:3:0:0:
250,172,89850,1,0,3:3:0:0:
309,175,89927,2,0,P|328:140|367:113,3,59.9999981689454,2|0|0|0,3:3|3:3|3:3|3:3,0:0:0:0:
385,37,90234,2,0,P|404:72|443:99,3,59.9999981689454,2|0|0|0,3:3|3:3|3:3|3:3,0:0:0:0:
494,223,90542,6,0,P|463:257|426:300,1,59.9999981689454,10|0,2:3|0:0,0:0:0:0:
353,348,90696,1,8,2:3:0:0:
307,319,90773,1,8,2:3:0:0:
255,301,90850,1,8,2:3:0:0:
201,293,90927,1,8,2:3:0:0:
147,293,91003,2,0,P|189:315|210:335,1,59.9999981689454,8|8,2:3|2:3,0:0:0:0:
57,343,91157,5,0,3:3:0:0:
66,314,91234,1,0,3:3:0:0:
75,285,91311,1,8,2:3:0:0:
85,256,91388,1,8,2:3:0:0:
95,227,91465,2,0,L|117:169,1,59.9999981689454,8|8,2:3|2:3,0:0:0:0:
11,105,91619,2,0,L|33:163,1,59.9999981689454,8|8,2:3|2:3,0:0:0:0:
201,211,91773,5,4,3:3:0:0:
232,229,91850,1,0,3:3:0:0:
267,222,91927,1,0,3:3:0:0:
290,195,92003,1,0,3:3:0:0:
290,159,92080,1,10,3:2:0:0:
267,131,92157,1,0,3:3:0:0:
244,103,92234,1,0,3:3:0:0:
244,67,92311,1,0,3:3:0:0:
267,40,92387,1,0,3:3:0:0:
302,33,92464,1,0,3:3:0:0:
333,51,92541,1,0,3:3:0:0:
342,86,92619,1,0,3:3:0:0:
365,113,92696,1,8,3:3:0:0:
400,119,92773,1,0,3:3:0:0:
433,106,92850,1,2,3:2:0:0:
451,74,92927,1,2,3:2:0:0:
445,38,93003,5,2,3:2:0:0:
399,27,93080,1,0,3:3:0:0:
355,47,93157,1,2,3:2:0:0:
336,91,93234,1,0,3:3:0:0:
349,137,93311,1,8,3:3:0:0:
389,164,93388,1,0,3:3:0:0:
435,181,93465,1,2,3:2:0:0:
459,222,93542,1,0,3:3:0:0:
450,269,93619,1,0,3:3:0:0:
413,300,93696,1,0,3:3:0:0:
365,300,93773,1,2,3:2:0:0:
329,269,93850,1,0,3:3:0:0:
320,222,93927,1,8,3:3:0:0:
344,181,94003,1,0,3:3:0:0:
389,164,94080,2,0,L|403:233,1,59.9999981689454,2|2,3:2|3:2,0:0:0:0:
286,352,94234,5,2,3:2:0:0:
233,376,94310,1,0,3:3:0:0:
178,357,94387,1,0,3:3:0:0:
154,303,94464,1,0,3:3:0:0:
175,249,94541,1,10,3:2:0:0:
228,226,94618,1,0,3:3:0:0:
265,180,94695,1,0,3:3:0:0:
257,123,94772,1,0,3:3:0:0:
209,90,94849,1,2,3:2:0:0:
152,102,94926,1,0,3:3:0:0:
123,153,95003,1,2,3:2:0:0:
70,181,95080,1,0,3:3:0:0:
12,168,95157,2,0,L|30:101,3,59.9999981689454,8|0|0|0,3:3|3:3|3:3|3:3,0:0:0:0:
92,293,95465,5,8,3:3:0:0:
101,284,95542,2,0,P|125:265|178:254,1,59.9999981689454,8|0,2:3|3:3,0:0:0:0:
241,301,95696,1,0,3:3:0:0:
249,315,95773,2,0,P|273:334|326:345,1,59.9999981689454,8|0,2:3|0:0,0:0:0:0:
381,291,95927,5,8,2:3:0:0:
392,281,96003,1,8,2:3:0:0:
417,305,96080,2,0,P|446:325|475:356,1,59.9999981689454,2|2,3:2|3:2,0:0:0:0:
512,283,96234,2,0,P|483:303|454:334,1,59.9999981689454,8|8,2:3|2:3,0:0:0:0:
434,191,96388,5,2,3:3:0:0:
438,179,96465,1,0,3:3:0:0:
442,168,96542,1,0,3:3:0:0:
447,157,96619,1,0,3:3:0:0:
452,146,96696,5,4,3:1:0:0:
407,177,96773,1,0,3:3:0:0:
352,178,96850,1,0,3:3:0:0:
307,147,96927,1,0,3:3:0:0:
291,95,97003,1,8,3:3:0:0:
254,54,97080,1,0,3:3:0:0:
201,39,97157,1,4,3:1:0:0:
149,53,97234,1,0,3:3:0:0:
114,94,97311,1,0,3:3:0:0:
102,146,97388,1,0,3:3:0:0:
125,194,97465,1,4,3:1:0:0:
173,218,97542,1,0,3:3:0:0:
226,211,97619,2,0,L|245:142,3,59.9999981689454,8|0|0|0,3:3|3:3|3:3|3:3,0:0:0:0:
176,331,97927,5,2,3:2:0:0:
214,359,98004,1,0,3:3:0:0:
262,359,98081,1,2,3:2:0:0:
301,331,98158,1,0,3:3:0:0:
316,285,98235,1,8,3:3:0:0:
301,239,98312,1,0,3:3:0:0:
262,211,98389,1,4,3:1:0:0:
214,211,98466,1,0,3:3:0:0:
176,239,98542,1,0,3:3:0:0:
129,241,98619,1,0,3:3:0:0:
89,217,98696,1,4,3:1:0:0:
70,172,98773,1,0,3:3:0:0:
82,125,98850,1,8,3:3:0:0:
119,94,98927,1,0,3:3:0:0:
166,91,99004,1,0,3:3:0:0:
207,117,99081,1,0,3:3:0:0:
226,161,99157,6,0,P|199:214|195:228,3,59.9999981689454,2|0|2|0,3:2|3:3|3:2|3:3,0:0:0:0:
128,74,99465,2,0,P|101:21|97:6,3,59.9999981689454,8|0|4|0,3:3|3:3|3:1|3:3,0:0:0:0:
272,52,99772,1,8,3:3:0:0:
272,52,99850,1,8,3:3:0:0:
272,52,99927,2,0,P|288:86|293:120,1,59.9999981689454,0|0,3:3|3:3,0:0:0:0:
409,104,100080,5,8,2:2:0:0:
379,141,100157,1,8,2:2:0:0:
356,183,100234,1,0,3:3:0:0:
340,228,100311,1,0,3:3:0:0:
347,244,100388,5,8,3:3:0:0:
346,243,101619,6,0,P|277:260|179:334,1,189.999994926453,4|0,3:3|3:3,0:0:0:0:
274,363,102079,2,0,P|298:343|338:331,1,50,10|0,2:3|0:0,0:0:0:0:
409,318,102233,1,0,0:0:0:0:
277,183,102387,1,4,3:2:0:0:
277,183,102464,1,0,0:0:0:0:
277,183,102541,1,0,0:0:0:0:
417,122,102695,1,10,2:3:0:0:
252,27,102849,6,0,P|196:45|157:72,1,94.9999974632264,0|2,3:3|2:3,0:0:0:0:
128,147,103156,1,0,3:3:0:0:
26,10,103310,1,10,2:3:0:0:
168,76,103464,1,0,0:0:0:0:
76,241,103618,1,2,3:3:0:0:
23,100,103772,1,0,3:3:0:0:
226,204,103926,1,10,2:3:0:0:
25,315,104079,6,0,P|63:234|96:135,1,189.999994926453,0|0,3:3|3:3,0:0:0:0:
186,93,104464,1,0,3:3:0:0:
196,107,104541,2,0,P|229:120|250:159,1,47.4999987316132,10|0,2:3|0:0,0:0:0:0:
132,207,104695,2,0,P|99:220|78:259,1,47.4999987316132
204,320,104849,2,0,P|248:288|306:270,1,94.9999974632264,2|0,3:3|0:0,0:0:0:0:
365,310,105156,1,10,2:3:0:0:
315,123,105310,6,0,P|359:155|417:173,1,94.9999974632264,0|2,3:3|2:3,0:0:0:0:
465,90,105618,1,0,3:3:0:0:
421,243,105772,2,0,L|452:339,1,94.9999974632264,10|0,2:3|3:3,0:0:0:0:
462,361,106002,1,0,3:3:0:0:
462,361,106079,1,2,3:3:0:0:
269,205,106233,1,8,2:2:0:0:
504,280,106387,1,4,3:2:0:0:
256,374,106541,6,0,P|190:333|80:283,1,189.999994926453,4|0,3:1|3:3,0:0:0:0:
56,185,106926,1,0,3:3:0:0:
68,164,107002,2,0,P|87:152|136:135,1,47.4999987316132,12|0,2:2|0:0,0:0:0:0:
189,251,107156,1,0,0:0:0:0:
267,81,107310,1,2,3:3:0:0:
267,81,107387,1,0,0:0:0:0:
267,81,107464,1,0,0:0:0:0:
185,168,107618,1,10,2:3:0:0:
72,30,107772,6,0,L|192:62,1,94.9999974632264,0|2,3:3|2:3,0:0:0:0:
201,149,108079,1,0,3:3:0:0:
321,20,108233,1,10,2:3:0:0:
294,146,108387,1,0,3:3:0:0:
415,92,108541,5,2,3:3:0:0:
456,114,108618,1,0,0:0:0:0:
473,158,108695,1,8,2:3:0:0:
457,202,108772,1,8,2:3:0:0:
415,224,108849,1,8,2:3:0:0:
383,259,108926,1,8,2:3:0:0:
383,305,109002,6,0,P|293:248|199:213,1,189.999994926453,4|0,3:2|3:3,0:0:0:0:
110,155,109387,1,0,3:3:0:0:
122,168,109464,2,0,P|138:196|141:218,1,47.4999987316132,12|0,2:1|0:0,0:0:0:0:
75,272,109618,1,0,0:0:0:0:
231,96,109772,1,2,3:3:0:0:
141,211,109926,1,0,3:3:0:0:
74,23,110079,1,10,2:3:0:0:
277,176,110233,5,0,3:3:0:0:
150,107,110387,1,2,3:3:0:0:
136,104,110464,1,8,2:2:0:0:
122,101,110541,1,8,2:2:0:0:
108,98,110618,1,8,2:2:0:0:
93,95,110695,2,0,L|112:150,1,47.4999987316132,8|8,3:3|2:2,0:0:0:0:
13,213,110849,2,0,L|32:158,1,47.4999987316132,8|8,2:2|2:2,0:0:0:0:
88,297,111002,5,2,3:3:0:0:
139,321,111079,1,8,2:2:0:0:
195,313,111156,1,8,2:2:0:0:
235,272,111233,1,8,2:2:0:0:
256,219,111310,1,8,2:2:0:0:
306,192,111387,1,8,2:2:0:0:
361,206,111464,6,0,P|393:258|413:383,1,189.999994926453,4|0,3:3|3:3,0:0:0:0:
489,281,111849,1,0,3:3:0:0:
475,275,111926,2,0,P|453:258|413:246,1,47.4999987316132,12|0,2:2|0:0,0:0:0:0:
298,177,112079,1,0,0:0:0:0:
414,27,112233,1,4,3:3:0:0:
414,27,112310,1,0,0:0:0:0:
414,27,112387,1,0,0:0:0:0:
460,158,112541,1,10,2:3:0:0:
240,48,112695,6,0,P|189:27|116:23,1,94.9999974632264,0|2,3:3|2:3,0:0:0:0:
73,73,113002,1,0,3:3:0:0:
158,258,113156,1,10,2:3:0:0:
213,122,113310,1,0,0:0:0:0:
36,249,113464,1,2,3:3:0:0:
0,55,113618,1,0,3:3:0:0:
0,55,113695,1,0,3:3:0:0:
0,55,113772,1,10,2:3:0:0:
171,272,113926,6,0,P|220:238|346:186,1,189.999994926453,0|0,3:3|3:3,0:0:0:0:
372,101,114310,1,0,3:3:0:0:
386,119,114387,2,0,P|413:132|447:132,1,47.4999987316132,10|0,2:3|0:0,0:0:0:0:
481,36,114541,2,0,P|438:52|413:73,1,47.4999987316132
276,114,114695,2,0,P|252:166|242:234,1,94.9999974632264,2|0,3:3|0:0,0:0:0:0:
299,273,115002,1,10,2:3:0:0:
164,127,115156,6,0,B|122:110|122:110|70:120,1,94.9999974632264,0|2,3:3|2:3,0:0:0:0:
60,258,115464,2,0,B|102:275|102:275|150:265,1,94.9999974632264,0|10,3:3|2:3,0:0:0:0:
239,212,115772,2,0,P|260:198|304:192,1,47.4999987316132,0|0,3:3|3:3,0:0:0:0:
426,294,115926,5,12,3:3:0:0:
387,327,116002,1,0,3:3:0:0:
336,330,116079,1,12,3:3:0:0:
295,299,116156,1,0,3:3:0:0:
282,250,116233,1,12,3:3:0:0:
302,203,116310,1,0,3:3:0:0:
348,180,116387,6,0,P|374:96|275:38,1,189.999994926453,4|0,3:3|3:3,0:0:0:0:
235,103,116772,1,0,3:3:0:0:
250,116,116849,2,0,L|313:122,1,47.4999987316132,12|0,2:2|0:0,0:0:0:0:
175,39,117002,1,0,0:0:0:0:
118,192,117156,1,2,3:3:0:0:
118,192,117233,1,0,0:0:0:0:
118,192,117310,1,0,0:0:0:0:
235,103,117464,1,10,2:3:0:0:
295,262,117618,6,0,P|239:232|186:213,1,94.9999974632264,0|2,3:3|2:3,0:0:0:0:
133,174,117926,1,0,3:3:0:0:
179,328,118079,1,10,2:3:0:0:
277,190,118233,2,0,L|331:178,1,47.4999987316132,0|0,3:3|3:3,0:0:0:0:
166,348,118387,5,2,3:3:0:0:
120,360,118464,1,0,0:0:0:0:
76,340,118541,1,8,2:3:0:0:
63,294,118618,1,8,2:3:0:0:
82,250,118695,1,8,2:3:0:0:
72,203,118772,1,8,2:3:0:0:
28,182,118849,6,0,B|116:162|116:162|124:165|124:165|221:144,1,189.999994926453,4|0,3:3|3:3,0:0:0:0:
277,190,119233,1,0,3:3:0:0:
293,209,119310,2,0,L|353:221,1,47.4999987316132,10|0,2:3|0:0,0:0:0:0:
269,63,119464,2,0,L|209:75,1,47.4999987316132
222,261,119618,1,2,3:3:0:0:
346,138,119772,1,2,2:2:0:0:
139,71,119926,1,8,2:2:0:0:
361,128,120079,6,0,L|474:101,1,94.9999974632264,4|0,3:3|0:0,0:0:0:0:
497,31,120387,1,2,3:3:0:0:
451,193,120541,2,0,L|424:292,1,94.9999974632264,8|2,2:2|2:3,0:0:0:0:
420,313,120772,1,2,2:3:0:0:
420,313,120849,2,0,L|363:286,1,47.4999987316132,2|0,2:3|0:0,0:0:0:0:
290,190,121002,2,0,L|233:217,1,47.4999987316132,2|0,2:3|0:0,0:0:0:0:
136,308,121156,1,8,2:2:0:0:
136,308,121233,1,8,2:2:0:0:
136,308,121310,5,4,3:3:0:0:
115,294,121618,6,0,P|128:264|133:243,1,47.4999987316132,8|8,2:3|2:3,0:0:0:0:
179,191,121772,2,0,P|166:161|161:140,1,47.4999987316132,8|8,2:3|2:3,0:0:0:0:
104,60,121926,1,0,3:3:0:0:
104,60,122002,1,0,3:3:0:0:
104,60,122079,6,0,L|169:78,1,47.4999987316132,8|8,2:3|2:3,0:0:0:0:
222,103,122233,2,0,L|287:85,1,47.4999987316132,8|8,2:3|2:3,0:0:0:0:
337,25,122387,1,0,3:3:0:0:
337,25,122464,1,0,3:3:0:0:
337,25,122541,6,0,P|349:56|352:88,1,47.4999987316132,8|8,2:2|2:3,0:0:0:0:
422,104,122695,2,0,P|411:133|407:167,1,47.4999987316132,0|0,3:3|3:3,0:0:0:0:
295,156,122849,1,8,2:3:0:0:
313,204,122926,1,8,2:3:0:0:
331,252,123002,1,8,2:3:0:0:
350,300,123079,1,8,2:3:0:0:
369,348,123156,2,0,L|380:292,1,47.4999987316132,0|0,3:3|3:3,0:0:0:0:
242,247,123310,6,0,L|196:232,1,47.4999987316132,10|0,2:3|0:0,0:0:0:0:
120,287,123464,1,2,2:3:0:0:
118,291,123541,1,2,2:3:0:0:
116,295,123618,2,0,L|96:354,1,47.4999987316132,2|2,2:3|2:3,0:0:0:0:
11,133,123772,6,0,L|110:113,1,85.0000016212464,4|0,3:3|0:0,0:0:0:0:
180,52,124079,1,0,3:3:0:0:
180,52,124156,1,0,3:3:0:0:
180,52,124233,2,0,L|291:81,1,85.0000016212464,10|0,2:3|0:0,0:0:0:0:
296,143,124541,2,0,L|338:132,1,42.5000008106232,2|0,3:3|3:3,0:0:0:0:
408,75,124695,1,0,3:3:0:0:
349,207,124849,1,10,2:3:0:0:
495,156,125002,6,0,P|479:184|465:242,1,85.0000016212464,0|2,3:3|2:3,0:0:0:0:
390,306,125310,2,0,P|380:264|360:227,1,85.0000016212464,0|10,3:3|2:3,0:0:0:0:
224,188,125618,1,0,3:3:0:0:
224,188,125695,1,0,3:3:0:0:
224,188,125772,2,0,L|240:143,1,42.5000008106232,2|0,3:3|0:0,0:0:0:0:
333,76,125926,1,0,3:3:0:0:
157,114,126079,1,10,2:3:0:0:
288,299,126233,6,0,P|242:278|193:263,1,85.0000016212464,0|2,3:3|2:3,0:0:0:0:
66,323,126541,1,0,3:3:0:0:
66,323,126618,1,0,3:3:0:0:
66,323,126695,2,0,P|81:268|99:239,1,85.0000016212464,10|0,2:3|0:0,0:0:0:0:
56,111,127002,2,0,P|77:131|94:158,1,42.5000008106232,2|0,3:3|3:3,0:0:0:0:
110,236,127156,1,0,3:3:0:0:
187,74,127310,1,10,2:3:0:0:
241,205,127464,6,0,P|308:169|337:157,1,85.0000016212464,0|2,3:3|2:3,0:0:0:0:
395,217,127772,1,0,3:3:0:0:
430,26,127926,2,0,L|401:117,1,85.0000016212464,10|0,2:3|3:3,0:0:0:0:
396,139,128156,1,0,3:3:0:0:
396,139,128233,1,2,3:3:0:0:
508,13,128387,1,8,2:2:0:0:
320,71,128541,1,4,3:2:0:0:
466,223,128695,6,0,B|457:212|462:199|492:210|493:210|492:261|437:276|385:235|385:235|381:239|381:239|335:230|302:275,1,250,4|0,3:1|3:3,0:0:0:0:
241,369,129156,2,0,P|218:313|191:260,1,85.0000016212464,10|0,2:3|3:3,0:0:0:0:
127,206,129464,2,0,P|115:234|108:256,1,42.5000008106232,2|0,3:3|3:3,0:0:0:0:
49,341,129618,1,0,3:3:0:0:
205,212,129772,1,10,2:3:0:0:
34,108,129926,6,0,B|19:117|19:117|-9:210,1,85.0000016212464,0|2,3:3|2:3,0:0:0:0:
111,245,130233,2,0,B|96:236|96:236|76:171,1,85.0000016212464,0|10,3:3|2:3,0:0:0:0:
193,76,130541,1,0,3:3:0:0:
193,76,130618,1,0,3:3:0:0:
193,76,130695,2,0,P|216:67|258:58,1,42.5000008106232,2|0,3:3|0:0,0:0:0:0:
281,182,130849,1,0,3:3:0:0:
121,24,131002,1,8,2:3:0:0:
318,109,131156,6,0,P|386:77|422:70,1,85.0000016212464,4|0,3:3|0:0,0:0:0:0:
485,172,131464,1,0,3:3:0:0:
485,172,131541,1,0,3:3:0:0:
485,172,131618,2,0,P|454:164|437:159,1,42.5000008106232,10|0,2:3|0:0,0:0:0:0:
408,50,131772,2,0,P|384:56|366:63,1,42.5000008106232,0|0,3:3|3:3,0:0:0:0:
350,217,131926,1,2,3:3:0:0:
492,77,132079,1,0,3:3:0:0:
492,77,132156,1,0,3:3:0:0:
492,77,132233,1,10,2:3:0:0:
281,182,132387,6,0,P|243:155|179:128,1,85.0000016212464,0|2,3:3|3:3,0:0:0:0:
170,148,132618,1,8,2:2:0:0:
170,148,132695,5,8,2:2:0:0:
142,186,132772,1,8,2:2:0:0:
144,232,132849,1,8,3:3:0:0:
176,266,132926,1,8,2:2:0:0:
221,273,133002,1,8,2:2:0:0:
259,299,133079,1,8,2:2:0:0:
271,344,133156,1,8,3:3:0:0:
208,138,133310,1,4,3:2:0:0:
107,384,133464,1,4,3:1:0:0:
281,182,133618,6,0,B|271:199|271:199|463:152|463:152|430:185,1,250,4|0,3:3|3:3,0:0:0:0:
345,88,134079,2,0,L|229:51,1,85.0000016212464,10|0,2:3|3:3,0:0:0:0:
139,68,134387,2,0,P|166:84|193:112,1,42.5000008106232,2|0,3:3|0:0,0:0:0:0:
166,192,134541,1,0,3:3:0:0:
67,12,134695,1,10,2:3:0:0:
0,143,134849,6,0,L|102:157,1,85.0000016212464,0|2,3:3|2:3,0:0:0:0:
144,272,135156,2,0,L|246:258,1,85.0000016212464,0|10,3:3|2:3,0:0:0:0:
299,170,135464,1,0,3:3:0:0:
299,170,135541,1,0,3:3:0:0:
299,170,135618,2,0,L|285:220,1,42.5000008106232,2|0,3:3|0:0,0:0:0:0:
338,329,135772,1,0,3:3:0:0:
179,175,135926,1,10,2:3:0:0:
368,251,136079,6,0,P|429:221|469:212,1,85.0000016212464,0|2,3:3|2:3,0:0:0:0:
512,339,136387,1,0,3:3:0:0:
512,339,136464,1,0,3:3:0:0:
512,339,136541,2,0,P|449:318|391:316,1,85.0000016212464,10|0,2:3|0:0,0:0:0:0:
332,344,136849,2,0,P|313:319|272:293,1,42.5000008106232,2|0,3:3|3:3,0:0:0:0:
372,233,137002,1,0,3:3:0:0:
221,359,137156,1,10,2:3:0:0:
104,206,137310,6,0,B|149:194|149:194|214:224,1,85.0000016212464,0|2,3:3|2:3,0:0:0:0:
221,283,137618,1,0,3:3:0:0:
276,142,137772,1,10,2:3:0:0:
372,233,137926,2,0,B|327:221|327:221|262:251,1,85.0000016212464,0|4,3:3|3:2,0:0:0:0:
240,368,138233,1,8,2:2:0:0:
179,130,138387,1,8,2:2:0:0:
15,322,138541,6,0,B|13:313|-2:319|-7:333|9:356|22:363|83:321|77:292|77:292|79:293|79:293|127:237|194:264,1,250,4|0,3:3|3:3,0:0:0:0:
219,384,139002,2,0,P|172:367|151:325,1,85.0000016212464,12|0,2:2|3:3,0:0:0:0:
264,268,139310,2,0,L|309:242,1,42.5000008106232,2|0,3:3|0:0,0:0:0:0:
362,352,139464,1,0,0:0:0:0:
249,191,139618,1,10,2:3:0:0:
474,73,139772,6,0,P|453:115|440:173,1,85.0000016212464,0|2,3:3|2:3,0:0:0:0:
387,253,140079,2,0,P|375:212|355:174,1,85.0000016212464,0|10,3:3|2:3,0:0:0:0:
245,74,140387,1,0,3:3:0:0:
245,74,140464,1,0,0:0:0:0:
245,74,140541,2,0,L|225:132,1,42.5000008106232,2|0,3:3|3:3,0:0:0:0:
178,245,140695,1,0,3:3:0:0:
353,94,140849,1,10,2:3:0:0:
147,145,141002,6,0,P|111:118|62:97,1,85.0000016212464,0|2,3:3|2:3,0:0:0:0:
37,26,141310,1,0,3:3:0:0:
0,225,141464,2,0,P|36:198|85:177,1,85.0000016212464,10|0,2:3|3:3,0:0:0:0:
178,245,141772,2,0,P|151:228|115:218,1,42.5000008106232,2|0,3:3|3:3,0:0:0:0:
80,332,141926,1,0,3:3:0:0:
211,168,142079,1,10,2:3:0:0:
299,364,142233,6,0,P|372:321|409:307,1,85.0000016212464,0|2,3:3|2:3,0:0:0:0:
460,352,142541,1,0,3:3:0:0:
350,237,142695,2,0,L|367:189,1,42.5000008106232,10|0,2:3|0:0,0:0:0:0:
400,116,142849,1,0,3:3:0:0:
400,116,142926,1,0,3:3:0:0:
400,116,143002,1,12,2:2:0:0:
313,32,143156,2,0,L|306:80,1,42.5000008106232,2|2,2:3|2:3,0:0:0:0:
467,238,143310,2,0,L|460:190,1,42.5000008106232,2|0,2:3|0:0,0:0:0:0:
231,49,143464,6,0,P|199:114|188:208,1,150.000005722046,4|0,3:3|3:3,0:0:0:0:
207,224,143848,1,0,3:3:0:0:
207,224,143925,1,12,2:3:0:0:
289,163,144233,1,0,0:0:0:0:
289,163,144387,1,0,3:3:0:0:
118,214,144541,1,10,2:3:0:0:
317,289,144695,6,0,B|391:310|391:310|463:271,1,150.000005722046,4|0,3:3|3:3,0:0:0:0:
479,264,145079,1,0,3:3:0:0:
479,264,145156,1,12,2:3:0:0:
350,384,145310,1,0,3:3:0:0:
350,384,145387,1,0,3:3:0:0:
350,384,145464,1,8,2:2:0:0:
282,146,145618,1,8,2:3:0:0:
247,243,145771,1,8,2:3:0:0:
17,129,145925,6,0,B|86:116|86:116|89:105|89:105|165:113,1,150.000005722046,4|0,3:3|3:3,0:0:0:0:
177,131,146310,1,0,3:3:0:0:
177,131,146387,1,10,2:2:0:0:
279,40,146541,1,0,3:3:0:0:
279,40,146618,1,0,3:3:0:0:
279,40,146694,2,0,L|295:92,1,37.5000014305115,2|0,3:2|0:0,0:0:0:0:
362,197,146849,1,0,3:3:0:0:
362,197,146926,1,0,3:3:0:0:
362,197,147002,2,0,L|378:145,1,37.5000014305115,10|0,2:2|0:0,0:0:0:0:
481,44,147156,6,0,B|493:74|493:74|476:134|476:134|469:137|469:137|453:191,1,150.000005722046,0|0,3:3|3:3,0:0:0:0:
451,212,147541,1,0,3:3:0:0:
451,212,147618,1,10,2:2:0:0:
340,303,147771,1,0,3:3:0:0:
340,303,147848,1,0,3:3:0:0:
340,303,147925,2,0,L|326:259,1,37.5000014305115,2|0,3:2|0:0,0:0:0:0:
279,156,148079,2,0,L|265:200,1,37.5000014305115,8|0,2:2|0:0,0:0:0:0:
236,335,148233,2,0,L|222:291,1,37.5000014305115,4|0,3:2|0:0,0:0:0:0:
68,120,148387,6,0,B|93:155|93:155|65:276,1,150.000005722046,4|0,3:3|3:3,0:0:0:0:
58,291,148771,1,0,3:3:0:0:
58,291,148848,1,12,2:3:0:0:
181,165,149002,1,2,3:3:0:0:
181,165,149079,1,0,3:3:0:0:
181,165,149156,2,0,L|169:118,1,37.5000014305115,0|0,3:3|0:0,0:0:0:0:
204,278,149310,1,0,3:3:0:0:
204,278,149387,1,0,3:3:0:0:
204,278,149464,2,0,L|216:231,1,37.5000014305115,12|0,2:3|0:0,0:0:0:0:
261,40,149618,6,0,P|274:112|297:196,1,150.000005722046,4|0,3:3|3:3,0:0:0:0:
319,214,150002,1,0,3:3:0:0:
319,214,150079,1,12,2:3:0:0:
379,39,150233,1,0,3:3:0:0:
253,117,150387,1,0,3:3:0:0:
400,188,150541,1,0,3:3:0:0:
251,27,150694,1,12,2:3:0:0:
431,111,150848,6,0,P|478:93|517:90,1,75.0000028610231,4|0,3:3|0:0,0:0:0:0:
481,197,151156,5,2,3:2:0:0:
470,213,151233,1,0,3:3:0:0:
463,231,151310,1,8,3:3:0:0:
462,250,151387,1,0,3:3:0:0:
467,269,151464,5,0,3:3:0:0:
435,233,151541,1,0,3:3:0:0:
389,221,151618,1,2,3:2:0:0:
345,238,151694,1,0,3:3:0:0:
325,281,151771,1,0,3:3:0:0:
333,328,151848,1,0,3:3:0:0:
367,362,151925,1,8,3:3:0:0:
415,367,152002,1,0,3:3:0:0:
452,336,152079,5,0,3:3:0:0:
450,328,152156,1,0,3:3:0:0:
448,320,152233,2,0,L|443:296,1,18.7500007152558,8|0,2:2|0:0,0:0:0:0:
370,198,152387,1,8,2:2:0:0:
375,168,152464,1,8,2:2:0:0:
380,138,152541,1,8,3:3:0:0:
236,249,152695,1,8,2:2:0:0:
247,292,152772,1,8,2:2:0:0:
258,335,152849,1,8,3:3:0:0:
132,251,153002,1,8,2:3:0:0:
141,238,153079,1,8,2:3:0:0:
126,236,153156,2,0,P|112:219|92:211,1,37.5000014305115,8|8,3:3|2:2,0:0:0:0:
21,334,153310,5,4,3:3:0:0:
72,366,153387,1,0,3:3:0:0:
124,357,153464,1,0,3:3:0:0:
151,313,153541,1,0,3:3:0:0:
138,267,153618,1,0,3:3:0:0:
104,257,153695,1,0,3:3:0:0:
77,273,153772,1,10,3:3:0:0:
74,292,153849,1,0,3:3:0:0:
84,304,153926,5,0,3:3:0:0:
126,262,154002,1,0,3:3:0:0:
120,206,154079,1,10,3:3:0:0:
78,177,154156,1,0,3:3:0:0:
55,127,154233,1,0,3:3:0:0:
77,83,154310,1,0,3:3:0:0:
110,78,154387,1,10,3:3:0:0:
126,85,154464,1,0,3:3:0:0:
131,98,154541,5,0,3:3:0:0:
173,140,154618,1,0,3:3:0:0:
232,146,154695,1,10,3:3:0:0:
280,110,154772,1,0,3:3:0:0:
297,60,154849,1,0,3:3:0:0:
334,20,154926,1,0,3:3:0:0:
381,17,155002,1,10,3:3:0:0:
418,40,155079,1,0,3:3:0:0:
424,70,155156,1,0,3:3:0:0:
411,84,155233,1,0,3:3:0:0:
402,86,155310,1,10,3:3:0:0:
391,79,155387,1,0,3:3:0:0:
386,46,155464,1,0,3:3:0:0:
420,19,155541,1,0,3:3:0:0:
468,33,155618,1,10,3:3:0:0:
479,86,155695,1,0,3:3:0:0:
442,127,155772,6,0,P|415:103|387:93,3,50,4|0|0|0,3:3|3:3|3:3|3:3,0:0:0:0:
330,198,156079,2,0,P|351:185|369:168,3,50,2|2|10|0,3:2|3:2|3:2|3:3,0:0:0:0:
279,64,156387,5,2,3:2:0:0:
241,50,156464,1,2,3:2:0:0:
202,61,156541,2,0,P|179:80|170:117,1,50,2|0,3:2|3:3,0:0:0:0:
218,244,156695,1,2,3:2:0:0:
249,218,156772,1,0,3:3:0:0:
259,178,156849,2,0,P|254:148|226:122,1,50,10|0,3:2|3:3,0:0:0:0:
6,221,157002,5,2,3:2:0:0:
36,260,157079,1,0,3:3:0:0:
84,273,157156,1,0,3:3:0:0:
129,251,157233,1,0,3:3:0:0:
151,206,157310,1,2,3:2:0:0:
188,173,157387,1,0,3:3:0:0:
237,169,157464,2,0,L|252:233,1,50,8|0,3:3|3:3,0:0:0:0:
329,328,157618,2,0,P|344:297|367:279,3,50,2|2|2|0,3:2|3:2|3:2|3:3,0:0:0:0:
414,221,157926,2,0,P|430:239|439:262,3,50,2|0|8|0,3:2|3:3|3:3|3:3,0:0:0:0:
490,116,158233,5,4,3:3:0:0:
451,69,158310,1,0,3:3:0:0:
393,52,158387,1,0,3:3:0:0:
336,72,158464,1,0,3:3:0:0:
309,125,158541,1,2,3:2:0:0:
260,160,158618,1,0,3:3:0:0:
199,160,158695,2,0,L|178:108,1,50,8|0,3:3|3:3,0:0:0:0:
40,23,158849,5,2,3:2:0:0:
82,7,158926,1,0,3:3:0:0:
125,15,159002,1,0,3:3:0:0:
152,50,159079,1,0,3:3:0:0:
151,95,159156,1,2,3:2:0:0:
121,129,159233,1,0,3:3:0:0:
76,135,159310,2,0,L|94:200,1,50,8|0,3:3|3:3,0:0:0:0:
28,282,159464,5,2,3:2:0:0:
78,330,159541,1,2,3:2:0:0:
148,329,159618,1,2,3:2:0:0:
196,278,159695,1,0,3:3:0:0:
195,207,159772,1,2,3:2:0:0:
232,147,159849,1,0,3:3:0:0:
299,129,159926,2,0,L|325:201,1,50,8|0,3:3|3:3,0:0:0:0:
370,304,160079,1,0,3:3:0:0:
370,304,160156,1,0,3:3:0:0:
370,304,160233,2,0,L|387:243,1,50,2|0,3:2|3:3,0:0:0:0:
456,157,160387,2,0,L|482:229,3,50,2|0|8|0,3:2|3:3|3:3|3:3,0:0:0:0:
460,346,160695,5,0,3:3:0:0:
436,371,160772,1,0,3:3:0:0:
397,368,160849,1,4,3:1:0:0:
366,336,160926,1,8,2:3:0:0:
361,288,161002,1,8,2:3:0:0:
330,259,161079,1,8,2:3:0:0:
290,262,161156,1,8,2:3:0:0:
267,285,161233,1,8,2:3:0:0:
277,312,161310,5,4,3:1:0:0:
267,333,161387,1,8,2:3:0:0:
220,347,161464,1,8,2:3:0:0:
174,321,161541,1,8,2:3:0:0:
164,274,161618,1,8,2:3:0:0:
182,230,161695,1,8,2:3:0:0:
173,180,161772,1,6,3:1:0:0:
126,145,161849,1,8,2:3:0:0:
59,156,161926,6,0,L|52:216,1,50,8|8,2:3|2:3,0:0:0:0:
22,341,162079,1,8,2:2:0:0:
73,322,162156,1,8,2:3:0:0:
124,303,162233,1,8,2:3:0:0:
175,284,162310,1,8,2:3:0:0:
226,263,162387,6,0,L|242:196,1,50,0|0,3:3|3:3,0:0:0:0:
341,60,162541,1,8,2:2:0:0:
298,25,162618,1,8,2:3:0:0:
242,27,162695,1,8,2:3:0:0:
203,66,162772,1,8,2:3:0:0:
204,121,162849,2,0,L|264:132,1,50,0|0,3:3|3:3,0:0:0:0:
352,207,163002,6,0,P|404:188|429:183,1,67.4999979400635,12|0,2:3|0:0,0:0:0:0:
360,316,163310,5,4,3:3:0:0:
330,337,163386,1,0,3:3:0:0:
294,337,163463,1,0,3:3:0:0:
265,316,163540,1,0,3:3:0:0:
254,281,163617,1,10,3:3:0:0:
265,247,163694,1,0,3:3:0:0:
259,213,163771,1,0,3:3:0:0:
236,184,163848,1,0,3:3:0:0:
203,169,163925,1,2,3:3:0:0:
167,170,164002,1,0,3:3:0:0:
137,189,164079,1,0,3:3:0:0:
118,219,164156,1,0,3:3:0:0:
115,255,164233,1,10,3:3:0:0:
130,288,164310,1,0,3:3:0:0:
157,311,164386,1,0,3:3:0:0:
193,317,164463,1,0,3:3:0:0:
228,307,164540,5,2,3:3:0:0:
214,262,164617,1,0,3:3:0:0:
175,233,164694,1,0,3:3:0:0:
127,233,164771,1,0,3:3:0:0:
88,262,164848,1,10,3:3:0:0:
73,307,164925,1,0,3:3:0:0:
88,353,165002,1,0,3:3:0:0:
127,381,165079,1,0,3:3:0:0:
175,381,165156,1,2,3:3:0:0:
214,353,165233,1,0,3:3:0:0:
228,307,165310,1,0,3:3:0:0:
256,269,165386,1,0,3:3:0:0:
302,255,165463,1,10,3:3:0:0:
348,267,165540,1,0,3:3:0:0:
375,306,165617,2,0,L|359:369,1,59.9999981689454,0|0,3:3|3:3,0:0:0:0:
474,235,165771,5,2,3:3:0:0:
507,186,165847,1,0,3:3:0:0:
511,127,165924,1,0,3:3:0:0:
482,75,166001,1,0,3:3:0:0:
431,46,166078,1,10,3:3:0:0:
371,48,166155,1,0,3:3:0:0:
322,82,166232,1,0,3:3:0:0:
298,136,166309,1,0,3:3:0:0:
281,192,166386,1,2,3:3:0:0:
236,231,166463,1,0,3:3:0:0:
178,241,166540,1,0,3:3:0:0:
123,218,166617,1,0,3:3:0:0:
88,171,166694,1,10,3:3:0:0:
83,112,166771,1,0,3:3:0:0:
110,59,166848,6,0,L|170:52,1,59.9999981689454,0|0,3:3|3:3,0:0:0:0:
236,231,167002,2,0,L|176:223,1,59.9999981689454,2|2,3:1|3:2,0:0:0:0:
310,73,167156,1,2,3:1:0:0:
310,73,167233,1,2,3:2:0:0:
310,73,167310,1,8,2:2:0:0:
323,124,167386,1,8,2:2:0:0:
337,176,167463,1,8,2:2:0:0:
351,228,167540,1,8,2:2:0:0:
365,280,167617,6,0,L|208:240,1,119.999996337891,4|0,3:1|0:0,0:0:0:0:
198,50,167925,2,0,L|82:80,1,119.999996337891,4|0,3:3|0:0,0:0:0:0:
405,142,168233,5,4,3:3:0:0:
375,163,168310,1,0,3:3:0:0:
339,163,168386,1,0,3:3:0:0:
310,142,168463,1,0,3:3:0:0:
299,107,168540,1,10,3:2:0:0:
310,73,168617,1,0,3:3:0:0:
339,52,168694,1,0,3:3:0:0:
375,52,168771,1,0,3:3:0:0:
405,73,168848,1,0,3:3:0:0:
416,107,168925,1,0,3:3:0:0:
405,142,169002,1,2,3:2:0:0:
375,163,169079,1,0,3:3:0:0:
354,192,169156,1,8,3:3:0:0:
351,227,169233,1,0,3:3:0:0:
367,258,169310,1,0,3:3:0:0:
398,274,169386,1,0,3:3:0:0:
433,269,169464,5,2,3:2:0:0:
427,223,169541,1,0,3:3:0:0:
393,188,169618,1,0,3:3:0:0:
346,179,169695,1,0,3:3:0:0:
303,201,169772,1,10,3:2:0:0:
280,242,169849,1,0,3:3:0:0:
247,278,169926,1,0,3:3:0:0:
198,282,170003,1,0,3:3:0:0:
159,255,170080,1,2,3:2:0:0:
146,209,170157,1,0,3:3:0:0:
165,165,170234,1,2,3:2:0:0:
208,144,170311,1,0,3:3:0:0:
255,155,170387,1,8,3:3:0:0:
284,194,170464,1,0,3:3:0:0:
280,242,170541,2,0,L|211:254,1,59.9999981689454,0|0,3:3|3:3,0:0:0:0:
80,82,170695,6,0,L|143:92,1,59.9999981689454,4|0,3:1|0:0,0:0:0:0:
255,155,170849,1,8,2:3:0:0:
300,139,170926,1,8,2:3:0:0:
345,124,171003,2,0,L|405:104,1,59.9999981689454,8|8,2:3|2:3,0:0:0:0:
468,316,171157,1,0,3:3:0:0:
421,304,171234,1,0,3:3:0:0:
394,263,171311,2,0,P|389:227|412:196,1,59.9999981689454,2|0,3:3|0:0,0:0:0:0:
494,160,171464,1,0,3:3:0:0:
338,363,171618,6,0,L|326:297,1,59.9999981689454,8|8,3:3|2:3,0:0:0:0:
255,155,171772,2,0,L|243:221,1,59.9999981689454,8|8,2:3|2:3,0:0:0:0:
189,341,171926,5,8,2:3:0:0:
142,353,172003,1,8,2:3:0:0:
95,340,172080,1,8,2:3:0:0:
70,298,172157,1,8,2:3:0:0:
75,250,172234,1,8,2:3:0:0:
57,205,172311,1,8,2:3:0:0:
11,191,172387,5,8,2:3:0:0:
16,238,172464,1,8,2:3:0:0:
53,267,172541,1,0,3:3:0:0:
101,266,172618,1,0,3:3:0:0:
133,230,172695,1,8,2:3:0:0:
134,181,172772,1,8,2:3:0:0:
102,144,172849,2,0,P|85:112|101:68,1,59.9999981689454,8|8,2:3|2:3,0:0:0:0:
188,33,173003,1,8,2:3:0:0:
188,33,173080,1,8,2:3:0:0:
188,33,173157,5,4,3:3:0:0:
215,9,173234,1,0,3:3:0:0:
250,4,173310,1,0,3:3:0:0:
283,19,173387,1,0,3:3:0:0:
303,49,173464,1,10,3:2:0:0:
303,85,173541,1,0,3:3:0:0:
283,115,173618,1,0,3:3:0:0:
250,130,173695,1,0,3:3:0:0:
224,157,173772,1,0,3:3:0:0:
217,191,173849,1,0,3:3:0:0:
233,223,173926,1,0,3:3:0:0:
264,241,174003,1,0,3:3:0:0:
300,235,174080,1,8,3:3:0:0:
326,210,174157,1,0,3:3:0:0:
332,175,174234,1,2,3:2:0:0:
317,142,174311,1,2,3:2:0:0:
286,126,174387,5,2,3:2:0:0:
260,166,174464,1,0,3:3:0:0:
260,213,174541,1,2,3:2:0:0:
289,251,174618,1,0,3:3:0:0:
334,265,174695,1,8,3:3:0:0:
380,250,174772,1,0,3:3:0:0:
408,211,174849,1,2,3:2:0:0:
406,162,174926,1,0,3:3:0:0:
377,124,175003,1,0,3:3:0:0:
332,110,175080,1,0,3:3:0:0:
286,126,175157,1,2,3:2:0:0:
260,166,175234,1,0,3:3:0:0:
214,181,175311,1,8,3:3:0:0:
169,164,175387,1,0,3:3:0:0:
147,120,175464,2,0,L|172:50,1,59.9999981689454,2|2,3:2|3:2,0:0:0:0:
48,266,175618,5,2,3:2:0:0:
67,321,175696,1,0,3:3:0:0:
116,354,175773,1,0,3:3:0:0:
175,353,175849,1,0,3:3:0:0:
222,316,175926,1,10,3:2:0:0:
238,260,176003,1,0,3:3:0:0:
218,204,176079,1,0,3:3:0:0:
217,144,176156,1,0,3:3:0:0:
246,93,176233,1,2,3:2:0:0:
297,62,176310,1,0,3:3:0:0:
357,61,176387,1,2,3:2:0:0:
409,90,176464,1,0,3:3:0:0:
440,140,176541,1,8,3:3:0:0:
443,199,176618,1,0,3:3:0:0:
415,252,176695,1,0,3:3:0:0:
366,284,176772,1,0,3:3:0:0:
307,288,176849,6,0,L|326:227,3,59.9999981689454,10|0|0|0,3:3|3:3|3:3|3:3,0:0:0:0:
230,137,177157,2,0,L|248:196,1,59.9999981689454,10|0,3:3|3:3,0:0:0:0:
176,287,177311,1,0,3:3:0:0:
66,167,177464,5,2,3:3:0:0:
94,177,177567,5,2,3:3:0:0:
123,167,177669,5,0,3:3:0:0:
150,177,177772,6,0,B|167:204|144:225|144:225|151:197|151:179,2,79.9999975585938,2|2|0,3:3|3:3|3:3,0:0:0:0:
86,322,178080,5,4,3:1:0:0:
125,359,178157,1,0,3:3:0:0:
178,368,178234,1,0,3:3:0:0:
226,344,178311,1,0,3:3:0:0:
249,296,178387,1,8,3:3:0:0:
243,242,178464,1,0,3:3:0:0:
206,202,178541,1,4,3:1:0:0:
183,152,178618,1,0,3:3:0:0:
182,97,178695,1,0,3:3:0:0:
212,52,178772,1,0,3:3:0:0:
262,32,178849,1,4,3:1:0:0:
314,42,178926,1,0,3:3:0:0:
347,84,179003,2,0,L|327:153,3,59.9999981689454,8|0|0|0,3:3|3:3|3:3|3:3,0:0:0:0:
449,220,179311,5,2,3:2:0:0:
431,271,179387,1,0,3:3:0:0:
384,298,179464,1,2,3:2:0:0:
331,288,179541,1,0,3:3:0:0:
296,247,179618,1,8,3:3:0:0:
296,193,179695,1,0,3:3:0:0:
331,151,179772,1,4,3:1:0:0:
354,103,179849,1,0,3:3:0:0:
339,50,179926,1,0,3:3:0:0:
296,19,180003,1,0,3:3:0:0:
242,23,180080,1,4,3:1:0:0:
204,61,180157,1,0,3:3:0:0:
199,116,180234,1,8,3:3:0:0:
174,164,180311,1,0,3:3:0:0:
123,179,180387,1,0,3:3:0:0:
71,162,180464,1,0,3:3:0:0:
50,112,180541,6,0,L|75:51,3,59.9999981689454,2|0|2|0,3:2|3:3|3:2|3:3,0:0:0:0:
190,166,180849,2,0,L|215:227,3,59.9999981689454,8|0|4|0,3:3|3:3|3:1|3:3,0:0:0:0:
63,308,181157,1,8,3:3:0:0:
63,308,181234,1,8,3:3:0:0:
63,308,181311,2,0,P|98:288|132:284,1,59.9999981689454,0|0,3:3|3:3,0:0:0:0:
222,346,181464,5,8,2:2:0:0:
266,365,181541,1,8,2:2:0:0:
313,360,181618,1,0,3:3:0:0:
349,328,181695,1,0,3:3:0:0:
353,310,181772,5,8,3:3:0:0:
353,310,183002,6,0,B|334:220|334:220|341:210|341:210|323:119,1,189.999994926453,4|0,3:3|3:3,0:0:0:0:
249,51,183386,1,0,3:3:0:0:
241,69,183463,2,0,P|214:76|170:108,1,50,12|0,2:3|0:0,0:0:0:0:
158,196,183617,1,0,0:0:0:0:
74,55,183771,1,4,3:2:0:0:
74,55,183848,1,0,0:0:0:0:
74,55,183925,1,0,0:0:0:0:
235,154,184078,1,10,2:3:0:0:
90,305,184232,6,0,P|77:240|55:188,1,94.9999974632264,0|2,3:3|2:3,0:0:0:0:
2,163,184540,1,0,3:3:0:0:
168,210,184694,1,10,2:3:0:0:
17,271,184848,1,0,0:0:0:0:
135,122,185002,1,2,3:3:0:0:
191,332,185155,1,0,3:3:0:0:
191,332,185232,1,0,3:3:0:0:
191,332,185309,1,10,2:3:0:0:
285,193,185463,6,0,L|473:244,1,189.999994926453,0|0,3:3|3:3,0:0:0:0:
463,326,185848,1,0,3:3:0:0:
445,339,185925,2,0,L|358:316,1,47.4999987316132,10|0,2:3|0:0,0:0:0:0:
363,232,186078,1,0,0:0:0:0:
282,376,186232,2,0,P|226:343|164:318,1,94.9999974632264,2|0,3:3|0:0,0:0:0:0:
113,369,186540,1,10,2:3:0:0:
26,175,186694,6,0,B|77:188|77:188|20:208,1,94.9999974632264,0|2,3:3|2:3,0:0:0:0:
206,220,187002,2,0,B|155:233|155:233|212:253,1,94.9999974632264,0|10,3:3|2:3,0:0:0:0:
290,178,187309,1,0,3:3:0:0:
290,178,187386,1,0,3:3:0:0:
290,178,187463,2,0,L|299:238,1,47.4999987316132,8|0,2:3|0:0,0:0:0:0:
302,327,187617,1,2,3:3:0:0:
173,146,187771,1,4,3:2:0:0:
436,27,187925,6,0,P|391:122|370:225,1,189.999994926453,4|0,3:3|3:3,0:0:0:0:
489,278,188309,1,0,3:3:0:0:
481,262,188386,2,0,P|471:236|442:199,1,47.4999987316132,12|0,2:2|0:0,0:0:0:0:
326,97,188540,1,0,0:0:0:0:
502,154,188694,1,2,3:3:0:0:
502,154,188771,1,0,0:0:0:0:
502,154,188848,1,0,0:0:0:0:
326,97,189002,1,10,2:3:0:0:
252,298,189155,6,0,B|271:277|271:277|367:267,1,94.9999974632264,0|2,3:3|2:3,0:0:0:0:
416,329,189463,1,0,3:3:0:0:
287,198,189617,2,0,L|172:168,1,94.9999974632264,10|0,2:3|3:3,0:0:0:0:
167,162,189848,1,0,3:3:0:0:
153,157,189925,5,2,3:3:0:0:
118,182,190002,1,0,0:0:0:0:
112,223,190078,1,8,2:3:0:0:
130,261,190155,1,8,2:3:0:0:
170,275,190232,1,8,2:3:0:0:
204,299,190309,1,8,2:3:0:0:
211,341,190386,6,0,P|151:301|16:248,1,189.999994926453,4|0,3:3|3:3,0:0:0:0:
10,381,190771,1,0,0:0:0:0:
24,363,190848,2,0,P|51:345|87:331,1,47.4999987316132,10|0,2:3|0:0,0:0:0:0:
118,182,191002,2,0,P|141:197|181:204,1,47.4999987316132
195,356,191155,1,2,3:3:0:0:
259,143,191309,1,0,3:3:0:0:
182,366,191463,1,10,2:3:0:0:
430,263,191617,5,0,3:3:0:0:
421,274,191694,1,0,3:3:0:0:
403,281,191771,1,2,3:3:0:0:
376,275,191848,1,8,2:2:0:0:
358,253,191925,1,8,2:2:0:0:
359,223,192002,1,8,2:2:0:0:
383,198,192078,1,8,3:3:0:0:
389,159,192155,1,8,2:2:0:0:
363,128,192232,1,8,2:2:0:0:
324,122,192309,1,8,2:2:0:0:
290,144,192386,1,2,3:3:0:0:
282,189,192463,1,8,2:2:0:0:
251,227,192540,1,8,2:2:0:0:
196,237,192617,1,8,2:2:0:0:
149,202,192694,1,8,2:2:0:0:
146,140,192771,1,8,2:2:0:0:
198,94,192848,6,0,P|162:171|118:309,1,209.999993591309,4|0,3:3|3:3,0:0:0:0:
225,369,193232,1,0,3:3:0:0:
242,350,193309,2,0,P|235:310|209:273,1,52.4999983978272,12|0,2:3|0:0,0:0:0:0:
73,209,193463,1,0,0:0:0:0:
311,280,193617,1,4,3:2:0:0:
311,280,193694,1,0,0:0:0:0:
311,280,193771,1,0,0:0:0:0:
96,372,193925,1,10,2:3:0:0:
203,180,194078,6,0,L|172:66,1,104.999996795654,0|2,3:3|2:3,0:0:0:0:
92,61,194386,1,0,3:3:0:0:
291,128,194540,1,10,2:3:0:0:
115,144,194694,1,0,0:0:0:0:
275,10,194848,1,2,3:3:0:0:
273,248,195002,1,0,3:3:0:0:
175,78,195155,1,10,2:3:0:0:
453,96,195309,6,0,P|420:152|383:310,1,209.999993591309,0|0,3:3|3:3,0:0:0:0:
335,173,195694,1,0,3:3:0:0:
322,146,195771,2,0,P|301:126|254:104,1,52.4999983978272,10|0,2:3|0:0,0:0:0:0:
209,201,195925,1,0,0:0:0:0:
86,88,196078,2,0,B|135:102|135:102|140:99|140:99|201:118,1,104.999996795654,2|0,3:3|0:0,0:0:0:0:
218,193,196386,1,10,2:3:0:0:
103,342,196540,6,0,P|119:271|136:223,1,104.999996795654,0|2,3:3|2:3,0:0:0:0:
268,308,196848,1,0,3:3:0:0:
237,328,196925,1,0,3:3:0:0:
200,325,197002,1,10,3:3:0:0:
174,299,197078,1,0,3:3:0:0:
164,263,197155,1,0,3:3:0:0:
141,234,197232,1,0,3:3:0:0:
105,223,197309,2,0,P|91:256|86:280,1,52.4999983978272,12|0,3:3|3:3,0:0:0:0:
265,55,197463,2,0,P|256:23|248:0,1,52.4999983978272,12|0,3:3|3:3,0:0:0:0:
369,278,197617,2,0,P|357:310|348:354,1,52.4999983978272,8|0,3:3|3:3,0:0:0:0:
504,24,197771,6,0,B|461:64|461:64|502:227,1,209.999993591309,4|0,3:3|3:3,0:0:0:0:
371,197,198155,1,0,3:3:0:0:
381,172,198232,2,0,L|404:111,1,52.4999983978272,12|0,2:3|0:0,0:0:0:0:
331,15,198386,1,0,0:0:0:0:
512,129,198540,1,2,3:3:0:0:
512,129,198617,1,0,0:0:0:0:
512,129,198694,1,0,0:0:0:0:
349,5,198848,1,10,2:3:0:0:
275,236,199002,6,0,P|205:189|176:176,1,104.999996795654,0|2,3:3|2:3,0:0:0:0:
107,215,199309,1,0,3:3:0:0:
53,63,199463,2,0,L|178:40,1,104.999996795654,10|0,2:3|3:3,0:0:0:0:
191,35,199694,1,0,3:3:0:0:
208,31,199771,2,0,L|196:94,1,52.4999983978272,2|0,3:3|0:0,0:0:0:0:
0,172,199925,2,0,L|60:150,1,52.4999983978272,0|0,3:3|0:0,0:0:0:0:
226,281,200078,2,0,L|177:239,1,52.4999983978272,10|0,2:3|0:0,0:0:0:0:
138,127,200232,6,0,P|111:190|81:346,1,209.999993591309,0|0,3:3|3:3,0:0:0:0:
176,383,200617,1,0,0:0:0:0:
182,363,200694,2,0,P|156:319|128:303,1,52.4999983978272,10|0,2:3|0:0,0:0:0:0:
18,248,200848,2,0,P|56:233|87:211,1,52.4999983978272
215,166,201002,1,2,3:3:0:0:
82,327,201155,1,2,2:2:0:0:
138,127,201309,1,8,2:2:0:0:
273,319,201463,6,0,P|330:275|383:258,1,104.999996795654,4|0,3:2|0:0,0:0:0:0:
350,143,201771,1,2,3:3:0:0:
334,145,201848,1,0,0:0:0:0:
318,147,201925,2,0,L|186:171,1,104.999996795654,8|2,2:2|2:3,0:0:0:0:
104,192,202155,1,2,2:3:0:0:
104,192,202232,2,0,L|87:250,1,52.4999983978272,2|0,2:3|0:0,0:0:0:0:
288,370,202386,2,0,L|271:312,1,52.4999983978272,2|0,3:1|0:0,0:0:0:0:
214,165,202540,1,8,2:2:0:0:
224,124,202617,1,8,2:2:0:0:
234,83,202694,5,4,3:3:0:0:
234,83,204386,5,0,3:3:0:0:
324,148,204540,2,0,L|284:139,1,26.2499991989136,8|0,2:2|0:0,0:0:0:0:
141,37,204694,2,0,L|166:157,1,112.499996566773,4|0,3:3|0:0,0:0:0:0:
80,291,205155,5,4,3:3:0:0:
80,291,207617,6,0,B|139:282|139:282|155:269|155:269|211:260,1,134.999995880127,4|2,3:3|2:3,0:0:0:0:
229,246,208232,1,0,3:3:0:0:
192,347,208386,1,8,2:2:0:0:
291,302,208540,2,0,L|353:286,1,44.999998626709,0|0,3:3|0:0,0:0:0:0:
394,345,208848,5,2,3:3:0:0:
456,190,209309,5,8,2:2:0:0:
436,259,209463,1,2,3:3:0:0:
380,122,209617,1,8,2:2:0:0:
471,175,209771,2,0,L|502:167,3,22.4999993133545,2|2|2|2,3:3|2:3|2:3|2:3,0:0:0:0:
317,205,210078,5,4,3:3:0:0:
278,76,210232,1,0,3:3:0:0:
209,176,210386,6,0,L|116:152,1,75.0000028610231,8|0,3:3|0:0,0:0:0:0:
91,98,210694,1,0,3:3:0:0:
120,231,210848,1,8,2:3:0:0:
120,231,210925,1,8,2:3:0:0:
120,231,211002,1,0,3:3:0:0:
100,84,211155,1,0,3:3:0:0:
16,154,211309,6,0,L|25:188,1,18.7500007152558,8|0,2:3|0:0,0:0:0:0:
113,70,211463,1,8,2:3:0:0:
201,185,211617,1,0,3:3:0:0:
136,157,211771,1,0,3:3:0:0:
260,101,211925,6,0,L|282:95,1,18.7500007152558,8|0,3:3|0:0,0:0:0:0:
214,174,212078,1,0,3:3:0:0:
369,275,212232,1,10,2:3:0:0:
323,200,212386,1,0,3:3:0:0:
243,345,212540,5,8,2:2:0:0:
228,348,212617,1,8,2:3:0:0:
213,351,212694,1,8,2:3:0:0:
198,355,212771,1,8,2:3:0:0:
183,359,212848,1,0,3:3:0:0:
168,363,212925,1,0,3:3:0:0:
136,338,213002,5,8,2:2:0:0:
121,335,213079,1,8,2:3:0:0:
106,332,213156,1,8,2:3:0:0:
91,328,213233,1,8,2:3:0:0:
76,324,213310,1,0,3:3:0:0:
61,320,213387,1,0,3:3:0:0:
30,335,213463,6,0,L|39:375,3,37.5000014305115,8|8|8|8,2:3|2:3|2:3|2:3,0:0:0:0:
21,215,213771,5,4,3:2:0:0:
67,201,213848,1,8,2:3:0:0:
114,188,213925,1,8,2:3:0:0:
161,175,214002,1,8,2:3:0:0:
196,148,214078,5,4,3:2:0:0:
242,162,214155,1,8,2:2:0:0:
289,175,214232,1,8,2:2:0:0:
336,188,214309,1,8,2:2:0:0:
378,168,214386,6,0,L|356:116,1,37.5000014305115,4|0,3:2|3:3,0:0:0:0:
300,41,214540,1,10,3:3:0:0:
300,41,214617,1,0,3:3:0:0:
300,41,214694,2,0,L|287:91,1,37.5000014305115,0|0,3:3|3:3,0:0:0:0:
379,55,214848,2,0,L|392:5,1,37.5000014305115,10|0,3:3|3:3,0:0:0:0:
495,202,215002,6,0,P|474:173|436:153,1,59.9999981689454,4|0,3:3|3:3,0:0:0:0:
366,262,215155,2,0,P|387:291|425:311,1,59.9999981689454,10|0,3:2|3:3,0:0:0:0:
226,169,215309,2,0,L|285:184,1,59.9999981689454,2|0,3:2|3:3,0:0:0:0:
280,165,215463,2,0,L|221:150,1,59.9999981689454,10|0,3:2|3:3,0:0:0:0:
136,330,215617,6,0,B|166:317|166:317|183:287,1,59.9999981689454,2|0,3:2|3:3,0:0:0:0:
110,217,215771,2,0,B|80:230|80:230|63:260,1,59.9999981689454,10|0,3:2|3:3,0:0:0:0:
285,184,215925,2,0,L|220:168,1,59.9999981689454,2|0,3:2|3:3,0:0:0:0:
221,150,216079,2,0,L|280:165,1,59.9999981689454,10|0,3:2|3:3,0:0:0:0:
322,317,216232,5,2,3:2:0:0:
391,347,216309,1,8,2:2:0:0:
453,325,216386,1,2,3:2:0:0:
461,265,216463,1,8,2:2:0:0:
431,222,216540,1,2,3:2:0:0:
391,220,216617,1,8,2:2:0:0:
367,242,216694,1,2,3:2:0:0:
366,262,216771,1,8,2:2:0:0:
371,272,216848,5,2,3:2:0:0:
381,276,216925,1,8,2:2:0:0:
393,271,217002,1,2,3:2:0:0:
404,253,217078,1,8,2:2:0:0:
391,220,217155,1,2,3:2:0:0:
351,206,217232,1,8,2:2:0:0:
321,162,217309,1,2,3:2:0:0:
328,99,217386,1,8,2:2:0:0:
386,58,217463,6,0,P|416:57|440:78,1,59.9999981689454,4|0,3:3|3:3,0:0:0:0:
402,203,217617,2,0,P|372:204|348:183,1,59.9999981689454,8|0,3:3|3:3,0:0:0:0:
209,59,217771,2,0,L|276:41,1,59.9999981689454,2|0,3:2|3:3,0:0:0:0:
280,25,217925,2,0,L|213:43,1,59.9999981689454,10|0,3:2|3:3,0:0:0:0:
88,215,218078,6,0,B|55:204|55:204|34:169,1,59.9999981689454,2|0,3:1|3:3,0:0:0:0:
93,97,218232,2,0,B|126:108|126:108|147:143,1,59.9999981689454,8|0,3:3|3:3,0:0:0:0:
281,256,218386,2,0,L|223:271,1,59.9999981689454,2|0,3:2|3:3,0:0:0:0:
207,259,218540,2,0,L|264:243,1,59.9999981689454,8|0,3:3|3:3,0:0:0:0:
409,130,218694,5,2,3:3:0:0:
401,117,218771,1,2,3:3:0:0:
381,104,218848,1,8,3:3:0:0:
349,97,218925,1,0,3:3:0:0:
317,115,219002,1,8,3:3:0:0:
299,154,219078,1,0,3:3:0:0:
319,193,219155,1,0,3:3:0:0:
362,207,219232,1,0,3:3:0:0:
398,246,219309,5,2,3:3:0:0:
405,267,219386,1,2,3:3:0:0:
397,292,219463,1,8,3:3:0:0:
369,311,219540,1,8,3:3:0:0:
331,305,219617,1,8,3:3:0:0:
306,269,219694,1,8,3:3:0:0:
263,241,219771,1,2,3:3:0:0:
205,243,219848,1,2,3:3:0:0:
148,283,219925,6,0,P|131:239|107:211,1,59.9999981689454,4|0,3:3|3:3,0:0:0:0:
61,139,220078,2,0,P|45:164|36:193,1,59.9999981689454,10|0,3:3|3:3,0:0:0:0:
178,357,220232,2,0,L|115:378,1,59.9999981689454,2|0,3:3|3:3,0:0:0:0:
95,366,220386,2,0,L|158:345,1,59.9999981689454,10|0,3:3|3:3,0:0:0:0:
316,191,220540,6,0,P|338:222|342:264,1,59.9999981689454,2|0,3:3|3:3,0:0:0:0:
398,341,220694,2,0,P|406:312|424:289,1,59.9999981689454,10|0,3:3|3:3,0:0:0:0:
477,125,220848,2,0,L|410:104,1,59.9999981689454,2|0,3:3|3:3,0:0:0:0:
407,85,221002,2,0,L|474:106,1,59.9999981689454,10|0,3:3|3:3,0:0:0:0:
268,247,221155,5,2,3:3:0:0:
200,269,221232,1,0,3:3:0:0:
144,239,221309,1,10,3:3:0:0:
127,188,221386,1,0,3:3:0:0:
141,145,221463,1,10,3:3:0:0:
133,110,221540,1,0,3:3:0:0:
112,100,221617,1,10,3:3:0:0:
93,107,221694,1,0,3:3:0:0:
88,118,221771,5,10,3:3:0:0:
96,132,221848,1,0,3:3:0:0:
123,139,221925,1,10,3:3:0:0:
145,119,222002,1,0,3:3:0:0:
146,82,222078,1,10,3:3:0:0:
171,38,222155,1,0,3:3:0:0:
227,21,222232,1,10,3:3:0:0:
282,49,222309,1,0,3:3:0:0:
301,116,222386,6,0,P|269:146|256:169,1,59.9999981689454,4|0,3:3|3:3,0:0:0:0:
179,228,222540,2,0,P|211:258|224:281,1,59.9999981689454,8|0,3:3|3:3,0:0:0:0:
406,231,222694,2,0,L|329:203,1,59.9999981689454,2|2,3:2|3:2,0:0:0:0:
339,188,222848,2,0,L|416:216,1,59.9999981689454,8|0,3:3|3:3,0:0:0:0:
278,348,223002,6,0,P|255:362|210:368,1,59.9999981689454,2|0,3:1|3:3,0:0:0:0:
147,297,223155,2,0,P|123:284|95:248,1,59.9999981689454,10|0,3:2|3:3,0:0:0:0:
255,131,223309,2,0,L|240:196,1,59.9999981689454,2|0,3:2|3:3,0:0:0:0:
256,209,223463,2,0,L|271:144,1,59.9999981689454,8|0,3:3|3:3,0:0:0:0:
142,46,223617,5,2,3:2:0:0:
126,38,223694,1,2,3:2:0:0:
97,38,223771,1,2,3:2:0:0:
72,59,223848,1,2,3:2:0:0:
70,94,223925,1,8,3:3:0:0:
103,121,224002,1,2,3:2:0:0:
129,158,224078,1,2,3:2:0:0:
118,210,224155,1,2,3:2:0:0:
70,231,224232,5,2,3:2:0:0:
54,226,224309,1,2,3:2:0:0:
47,209,224386,1,2,3:2:0:0:
59,188,224463,1,2,3:2:0:0:
90,177,224540,1,8,3:3:0:0:
122,197,224617,1,2,3:2:0:0:
144,238,224694,1,2,3:2:0:0:
196,256,224771,1,2,3:2:0:0:
255,208,224848,6,0,P|276:228|303:240,1,59.9999981689454,4|0,3:3|3:3,0:0:0:0:
223,103,225002,2,0,P|196:115|174:136,1,59.9999981689454,8|0,3:3|3:3,0:0:0:0:
370,61,225155,2,0,L|346:141,1,59.9999981689454,0|0,3:3|3:3,0:0:0:0:
366,140,225309,2,0,L|383:82,1,59.9999981689454,10|0,3:2|3:3,0:0:0:0:
504,43,225463,6,0,P|477:69|464:118,1,59.9999981689454,0|0,3:3|3:3,0:0:0:0:
370,155,225617,2,0,P|393:175|407:202,1,59.9999981689454,8|0,3:3|3:3,0:0:0:0:
491,342,225771,2,0,L|424:321,1,59.9999981689454,2|0,3:2|3:3,0:0:0:0:
419,311,225925,2,0,L|476:328,1,59.9999981689454,8|0,3:3|3:3,0:0:0:0:
272,367,226078,5,2,3:2:0:0:
202,343,226155,1,8,2:2:0:0:
185,277,226232,1,2,3:2:0:0:
210,217,226309,1,8,2:2:0:0:
261,194,226386,1,2,3:2:0:0:
308,204,226463,1,8,2:2:0:0:
326,242,226540,1,2,3:2:0:0:
315,272,226617,1,8,2:2:0:0:
294,280,226694,5,2,3:2:0:0:
272,275,226771,1,8,2:2:0:0:
256,246,226848,1,2,3:2:0:0:
271,211,226925,1,8,2:2:0:0:
313,199,227002,1,2,3:2:0:0:
348,159,227078,1,8,2:2:0:0:
346,100,227155,1,2,3:2:0:0:
294,63,227232,1,8,2:2:0:0:
229,83,227309,6,0,P|225:107|195:141,1,59.9999981689454,4|0,3:3|3:3,0:0:0:0:
162,264,227463,2,0,P|143:240|137:211,1,59.9999981689454,8|0,3:3|3:3,0:0:0:0:
79,85,227617,2,0,L|155:100,1,59.9999981689454,2|0,3:3|3:3,0:0:0:0:
151,83,227771,2,0,L|92:71,1,59.9999981689454,10|0,3:3|3:3,0:0:0:0:
0,194,227925,6,0,P|23:175|51:165,1,59.9999981689454,0|0,3:3|3:3,0:0:0:0:
137,211,228078,2,0,P|160:229|188:239,1,59.9999981689454,8|0,3:3|3:3,0:0:0:0:
294,63,228232,2,0,L|270:128,1,59.9999981689454,2|0,3:3|3:3,0:0:0:0:
285,135,228386,2,0,L|305:78,1,59.9999981689454,8|0,3:3|3:3,0:0:0:0:
343,268,228540,5,2,3:3:0:0:
358,278,228617,1,0,3:3:0:0:
380,281,228694,1,8,3:3:0:0:
406,272,228771,1,0,3:3:0:0:
423,241,228848,1,12,3:1:0:0:
411,207,228925,1,0,3:3:0:0:
372,190,229002,1,0,3:3:0:0:
345,147,229078,1,0,3:3:0:0:
356,95,229155,5,4,3:1:0:0:
375,83,229232,1,8,3:3:0:0:
411,89,229309,1,8,3:3:0:0:
429,126,229386,1,8,3:3:0:0:
403,166,229463,1,8,2:2:0:0:
360,165,229540,1,8,2:2:0:0:
322,128,229617,1,0,3:3:0:0:
318,75,229694,1,0,3:3:0:0:
360,21,229771,5,12,2:1:0:0:
360,21,231002,5,8,3:3:0:0:
324,67,231078,1,8,2:2:0:0:
280,80,231155,1,8,2:2:0:0:
238,66,231232,1,8,2:2:0:0:
211,29,231309,1,8,3:3:0:0:
172,12,231386,1,8,2:2:0:0:
133,25,231463,1,8,2:2:0:0:
116,63,231540,1,8,2:2:0:0:
129,88,231617,5,8,2:2:0:0:
148,93,231694,1,8,2:2:0:0:
162,86,231771,1,8,2:2:0:0:
164,66,231848,1,8,2:2:0:0:
140,44,231925,1,8,2:2:0:0:
98,44,232002,1,8,2:2:0:0:
62,76,232078,1,0,3:3:0:0:
62,130,232155,1,0,3:3:0:0:
108,165,232232,5,12,2:1:0:0:
108,165,233258,5,8,2:2:0:0:
111,178,233309,5,8,2:3:0:0:
114,190,233360,5,8,2:3:0:0:
117,202,233412,5,8,2:3:0:0:
120,214,233463,5,8,3:3:0:0:
209,251,234386,6,0,L|205:265,1,15,2|0,2:2|0:0,0:0:0:0:
142,349,234694,5,4,3:3:0:0:
186,370,234771,1,0,3:3:0:0:
232,354,234848,1,10,3:3:0:0:
257,311,234925,1,0,3:3:0:0:
249,262,235002,1,2,3:3:0:0:
203,242,235079,1,0,3:3:0:0:
185,195,235156,1,10,3:3:0:0:
211,153,235232,1,0,3:3:0:0:
259,142,235309,1,2,3:3:0:0:
301,166,235386,1,0,3:3:0:0:
313,213,235463,1,10,3:3:0:0:
354,240,235540,1,0,3:3:0:0:
402,227,235617,1,2,3:3:0:0:
422,181,235694,1,0,3:3:0:0:
404,134,235771,1,10,3:3:0:0:
355,122,235848,1,0,3:3:0:0:
314,149,235925,5,2,3:3:0:0:
335,188,236002,1,0,3:3:0:0:
379,196,236079,1,10,3:3:0:0:
418,174,236156,1,0,3:3:0:0:
425,130,236232,1,2,3:3:0:0:
394,96,236309,1,0,3:3:0:0:
395,50,236386,1,10,3:3:0:0:
433,27,236463,1,0,3:3:0:0:
475,41,236540,1,2,3:3:0:0:
489,83,236617,1,0,3:3:0:0:
464,120,236694,1,10,3:3:0:0:
419,125,236771,1,0,3:3:0:0:
384,96,236848,1,2,3:3:0:0:
378,51,236925,1,0,3:3:0:0:
345,19,237002,1,10,3:3:0:0:
299,17,237079,1,0,3:3:0:0:
262,43,237156,5,2,3:3:0:0:
228,7,237232,1,0,3:3:0:0:
178,9,237309,1,10,3:3:0:0:
148,48,237386,1,0,3:3:0:0:
156,96,237463,1,2,3:3:0:0:
194,126,237540,1,0,3:3:0:0:
243,123,237617,1,10,3:3:0:0:
281,92,237694,1,0,3:3:0:0:
329,83,237771,1,2,3:3:0:0:
371,108,237848,1,0,3:3:0:0:
381,156,237925,1,10,3:3:0:0:
358,200,238002,1,0,3:3:0:0:
310,212,238079,1,6,3:3:0:0:
280,252,238156,1,0,3:3:0:0:
288,300,238232,1,8,3:3:0:0:
331,324,238309,1,0,3:3:0:0:
378,310,238386,6,0,L|360:250,1,44.999998626709,4|0,3:3|3:3,0:0:0:0:
241,354,238540,1,8,2:3:0:0:
197,343,238617,1,8,2:3:0:0:
153,330,238694,2,0,L|106:312,2,44.999998626709,8|8|8,3:3|2:3|2:3,0:0:0:0:
45,277,238925,1,8,2:3:0:0:
32,290,239002,2,0,L|42:338,1,44.999998626709,8|8,3:3|2:3,0:0:0:0:
120,357,239155,2,0,L|110:309,1,44.999998626709,8|8,2:3|2:3,0:0:0:0:
118,218,239309,1,8,3:3:0:0:
135,176,239386,1,8,2:3:0:0:
152,134,239463,1,8,2:3:0:0:
169,92,239540,1,8,2:3:0:0:
186,50,239617,5,4,3:3:0:0:
254,75,239694,1,0,3:3:0:0:
280,143,239771,1,8,3:3:0:0:
250,210,239848,1,0,3:3:0:0:
182,238,239925,1,0,3:3:0:0:
112,214,240002,1,0,3:3:0:0:
43,239,240078,1,10,3:3:0:0:
25,310,240155,1,0,3:3:0:0:
61,373,240232,1,0,3:3:0:0:
133,382,240309,1,0,3:3:0:0:
190,335,240386,1,8,3:3:0:0:
201,262,240463,1,0,3:3:0:0:
250,207,240540,1,2,3:3:0:0:
323,198,240617,1,0,3:3:0:0:
384,238,240694,1,8,3:3:0:0:
398,310,240771,1,0,3:3:0:0:
363,377,240848,5,2,3:3:0:0:
282,352,240924,1,0,3:3:0:0:
226,290,241001,1,10,3:3:0:0:
212,208,241078,1,0,3:3:0:0:
242,130,241155,1,10,3:3:0:0:
308,79,241232,1,0,3:3:0:0:
390,71,241309,1,10,3:3:0:0:
466,106,241386,1,0,3:3:0:0:
511,174,241463,2,0,L|492:239,3,52.4999983978272,2|2|2|2,3:3|3:3|3:3|3:3,0:0:0:0:
503,309,241771,1,4,3:3:0:0:
503,309,242079,5,4,3:3:0:0:
437,327,242156,1,0,0:0:0:0:
371,345,242232,1,0,0:0:0:0:
305,363,242309,1,0,0:0:0:0:
239,381,242386,5,0,3:3:0:0:
243,371,242463,1,0,0:0:0:0:
247,361,242540,1,0,0:0:0:0:
251,351,242617,1,0,0:0:0:0:
255,341,242694,5,0,3:3:0:0:
214,351,242771,1,0,0:0:0:0:
173,362,242848,1,0,0:0:0:0:
132,373,242925,1,0,0:0:0:0:
91,384,243002,1,0,3:3:0:0:
82,358,243309,5,4,3:3:0:0:
103,293,243386,1,0,0:0:0:0:
124,228,243463,1,0,0:0:0:0:
146,163,243540,1,0,0:0:0:0:
168,98,243617,5,0,3:3:0:0:
158,103,243694,1,0,0:0:0:0:
148,108,243771,1,0,0:0:0:0:
139,113,243848,1,0,0:0:0:0:
130,118,243925,5,0,3:3:0:0:
172,116,244002,1,0,0:0:0:0:
213,114,244078,1,0,0:0:0:0:
255,112,244155,1,0,0:0:0:0:
297,110,244232,1,0,3:3:0:0:
315,97,244540,5,4,3:3:0:0:
283,157,244617,1,0,0:0:0:0:
251,217,244694,1,0,0:0:0:0:
222,278,244771,1,0,0:0:0:0:
193,340,244848,5,0,3:3:0:0:
203,337,244925,1,0,0:0:0:0:
213,334,245002,1,0,0:0:0:0:
222,331,245078,1,0,0:0:0:0:
232,328,245155,5,0,3:3:0:0:
192,314,245232,1,0,0:0:0:0:
152,299,245309,1,0,0:0:0:0:
112,285,245386,1,0,0:0:0:0:
72,271,245463,2,0,L|85:335,1,52.4999983978272,0|0,3:3|3:3,0:0:0:0:
169,176,245617,2,0,L|182:112,1,52.4999983978272,0|0,3:3|3:3,0:0:0:0:
41,26,245771,6,0,L|69:136,1,104.999996795654,12|0,2:3|3:3,0:0:0:0:
8,220,246078,1,8,2:3:0:0:
206,38,246232,1,8,2:3:0:0:
145,187,246386,1,0,3:3:0:0:
112,15,246540,5,8,3:3:0:0:
285,158,246694,1,8,3:3:0:0:
82,113,246848,6,0,L|42:122,2,34.9999989318848,0|0|0,3:3|3:3|3:3,3:3:0:0:
165,309,247002,5,12,2:3:0:0:
225,294,247078,1,0,0:0:0:0:
286,279,247155,1,0,0:0:0:0:
347,264,247232,1,0,0:0:0:0:
408,251,247309,5,0,3:3:0:0:
398,246,247386,1,0,0:0:0:0:
388,241,247463,1,0,0:0:0:0:
378,236,247540,1,0,0:0:0:0:
368,231,247617,5,0,3:3:0:0:
380,259,247694,1,0,0:0:0:0:
392,287,247771,1,0,0:0:0:0:
404,315,247848,1,0,0:0:0:0:
416,343,247925,2,0,L|434:286,1,52.4999983978272,0|0,3:3|3:3,0:0:0:0:
501,230,248078,2,0,L|483:173,1,52.4999983978272,0|0,3:3|3:3,0:0:0:0:
413,90,248232,5,12,2:3:0:0:
351,77,248309,1,0,0:0:0:0:
289,65,248386,1,0,0:0:0:0:
227,53,248463,1,0,0:0:0:0:
164,41,248540,5,0,3:3:0:0:
172,34,248617,1,0,0:0:0:0:
180,28,248694,1,0,0:0:0:0:
188,22,248771,1,0,0:0:0:0:
196,16,248848,5,0,3:3:0:0:
182,44,248925,1,0,0:0:0:0:
168,72,249002,1,0,0:0:0:0:
154,100,249078,1,0,0:0:0:0:
141,128,249155,2,0,L|121:73,1,52.4999983978272,0|0,3:3|3:3,0:0:0:0:
56,2,249309,2,0,L|36:57,1,52.4999983978272,0|0,3:3|3:3,0:0:0:0:
0,260,249463,6,0,L|115:219,1,104.999996795654,12|0,2:3|3:3,0:0:0:0:
201,307,249771,1,8,2:3:0:0:
181,224,249925,1,0,3:3:0:0:
115,367,250078,1,8,2:3:0:0:
262,168,250232,1,8,2:2:0:0:
133,361,250386,1,8,2:3:0:0:
280,270,250540,5,0,3:3:0:0:
286,267,250591,5,0,3:3:0:0:
292,264,250643,5,0,3:3:0:0:
299,260,250694,6,0,L|173:225,1,104.999996795654,12|0,2:3|3:3,0:0:0:0:
224,71,251002,1,8,3:3:0:0:
251,158,251155,1,8,3:3:0:0:
369,20,251309,5,8,3:3:0:0:
138,164,251463,1,8,3:3:0:0:
383,25,251617,1,8,3:3:0:0:
120,164,251771,1,8,3:3:0:0:
346,302,251925,6,0,L|360:185,1,104.999996795654,4|0,3:3|3:3,0:0:0:0:
454,95,252232,2,0,L|468:212,1,104.999996795654,2|0,3:3|3:3,0:0:0:0:
503,284,252540,1,10,3:3:0:0:
358,197,252694,1,0,3:3:0:0:
494,276,252848,1,2,3:3:0:0:
379,384,253002,1,8,3:3:0:0:
237,279,253155,6,0,B|243:227|243:227|249:221|249:221|255:168,1,104.999996795654,2|8,3:3|3:3,0:0:0:0:
341,95,253463,2,0,B|347:147|347:147|353:153|353:153|359:206,1,104.999996795654,2|0,3:3|3:3,0:0:0:0:
220,96,253771,1,10,3:3:0:0:
357,196,253925,1,0,3:3:0:0:
173,324,254078,1,2,3:3:0:0:
253,177,254232,1,8,3:3:0:0:
253,177,254309,1,0,3:3:0:0:
253,177,254386,6,0,B|203:173|203:173|194:166|194:166|138:161,1,104.999996795654,4|0,3:3|3:3,0:0:0:0:
60,318,254694,2,0,B|110:314|110:314|119:307|119:307|175:302,1,104.999996795654,2|8,3:3|3:3,0:0:0:0:
87,222,255002,1,8,3:3:0:0:
135,384,255155,1,0,3:3:0:0:
253,177,255309,1,2,3:3:0:0:
175,300,255463,1,8,3:3:0:0:
41,132,255617,6,0,P|94:111|154:122,1,104.999996795654,2|0,3:3|3:3,0:0:0:0:
196,230,255925,2,0,P|249:251|309:240,1,104.999996795654,2|0,3:3|3:3,0:0:0:0:
376,45,256232,6,0,P|310:69|284:113,1,104.999996795654,10|8,3:3|2:3,0:0:0:0:
293,118,256463,1,8,2:3:0:0:
293,118,256540,2,0,L|310:169,1,52.4999983978272,8|8,3:3|2:3,0:0:0:0:
371,235,256694,2,0,L|388:183,1,52.4999983978272,8|8,2:3|2:3,0:0:0:0:
492,53,256848,6,0,B|440:48|440:48|436:43|436:43|365:35,1,104.999996795654,4|0,3:3|3:3,0:0:0:0:
309,167,257155,2,0,B|257:172|257:172|253:177|253:177|182:185,1,104.999996795654,2|0,3:3|3:3,0:0:0:0:
85,26,257463,1,10,3:3:0:0:
211,101,257617,1,0,3:3:0:0:
90,223,257771,1,2,3:3:0:0:
157,45,257925,1,8,3:3:0:0:
231,270,258078,6,0,L|345:251,1,104.999996795654,2|8,3:3|3:3,0:0:0:0:
137,142,258386,2,0,L|23:123,1,104.999996795654,2|0,3:3|3:3,0:0:0:0:
131,353,258694,1,10,3:3:0:0:
260,172,258848,1,0,3:3:0:0:
90,223,259002,1,2,3:3:0:0:
321,239,259155,1,2,2:3:0:0:
321,239,259232,1,2,2:3:0:0:
321,239,259309,6,0,P|353:220|393:209,1,69.9999978637696,2|0,3:3|3:3,0:0:0:0:
450,312,259514,5,0,3:3:0:0:
433,334,259617,6,0,P|406:306|359:288,1,69.9999978637696,10|0,3:3|3:3,0:0:0:0:
265,322,259822,5,0,3:3:0:0:
254,342,259925,5,2,3:2:0:0:
213,360,260027,5,0,3:3:0:0:
166,343,260130,5,2,3:3:0:0:
165,269,260232,6,0,B|198:272|197:272|197:272|231:310,2,69.9999978637696,10|0|0,3:3|3:3|3:3,0:0:0:0:
34,353,260540,5,8,2:2:0:0:
49,308,260617,1,8,2:3:0:0:
65,263,260694,1,8,2:3:0:0:
81,218,260771,1,8,2:3:0:0:
97,173,260848,2,0,L|118:118,1,52.4999983978272,2|0,3:2|0:0,0:0:0:0:
289,74,261002,5,10,3:2:0:0:
312,114,261078,1,8,2:3:0:0:
307,161,261155,1,8,2:3:0:0:
276,197,261232,1,8,2:3:0:0:
229,206,261309,2,0,L|169:178,1,52.4999983978272,8|8,2:3|2:3,0:0:0:0:
206,28,261463,5,8,3:3:0:0:
261,276,261617,1,8,3:3:0:0:
494,105,261771,6,0,L|374:70,1,104.999996795654,4|0,3:3|3:3,0:0:0:0:
293,205,262078,2,0,L|413:170,1,104.999996795654,2|2,3:2|3:2,0:0:0:0:
268,113,262386,1,8,3:3:0:0:
203,277,262540,1,2,3:2:0:0:
82,148,262694,1,2,3:2:0:0:
173,358,262848,1,2,3:2:0:0:
250,129,263002,6,0,P|203:109|121:94,1,104.999996795654,2|2,3:2|3:2,0:0:0:0:
24,279,263309,2,0,P|75:267|123:246,1,104.999996795654,2|2,3:2|3:2,0:0:0:0:
31,104,263617,1,10,3:2:0:0:
118,326,263771,1,2,3:2:0:0:
31,104,263925,1,2,3:2:0:0:
118,326,264079,1,2,3:2:0:0:
267,136,264232,6,0,B|319:123|319:123|379:148,1,104.999996795654,2|2,3:2|3:2,0:0:0:0:
348,344,264540,2,0,B|296:357|296:357|236:332,1,104.999996795654,2|2,3:2|3:2,0:0:0:0:
467,171,264848,1,10,3:2:0:0:
301,270,265002,1,2,3:2:0:0:
202,105,265155,1,2,3:2:0:0:
367,8,265309,1,2,3:2:0:0:
287,247,265463,6,0,L|157:207,1,104.999996795654,12|8,2:2|2:3,0:0:0:0:
147,200,265694,1,8,2:3:0:0:
136,202,265771,1,8,2:3:0:0:
145,242,265848,1,8,2:3:0:0:
154,282,265925,1,8,2:2:0:0:
163,322,266002,1,8,2:3:0:0:
173,362,266078,2,0,L|241:376,1,52.4999983978272,8|0,3:3|3:3,0:0:0:0:
287,247,266232,2,0,L|219:261,1,52.4999983978272,10|8,3:2|2:3,0:0:0:0:
366,375,266386,5,8,2:3:0:0:
376,323,266463,1,8,2:3:0:0:
387,271,266540,1,8,2:3:0:0:
398,219,266617,1,8,2:3:0:0:
409,167,266694,5,4,3:1:0:0:
447,149,266771,1,0,3:3:0:0:
488,160,266848,1,0,3:3:0:0:
512,194,266925,1,0,3:3:0:0:
508,236,267002,1,2,3:2:0:0:
479,266,267078,1,0,3:3:0:0:
437,270,267155,1,8,3:3:0:0:
403,246,267232,1,0,3:3:0:0:
392,205,267309,1,4,3:1:0:0:
409,167,267386,1,0,3:3:0:0:
426,129,267463,1,8,3:3:0:0:
409,90,267540,1,0,3:3:0:0:
371,74,267617,1,2,3:2:0:0:
332,90,267694,1,2,3:2:0:0:
316,129,267771,1,2,3:2:0:0:
332,167,267848,1,2,3:2:0:0:
371,183,267925,5,4,3:1:0:0:
396,131,268002,1,0,3:3:0:0:
381,75,268078,1,0,3:3:0:0:
333,42,268155,1,0,3:3:0:0:
276,47,268232,1,2,3:2:0:0:
235,87,268309,1,0,3:3:0:0:
230,145,268386,1,8,3:3:0:0:
263,192,268463,1,0,3:3:0:0:
290,243,268540,1,4,3:1:0:0:
280,299,268617,1,0,3:3:0:0:
239,340,268694,1,8,3:3:0:0:
181,349,268771,1,0,3:3:0:0:
130,324,268848,1,2,3:2:0:0:
104,272,268925,1,2,3:2:0:0:
113,215,269002,1,2,3:2:0:0:
154,174,269079,1,2,3:2:0:0:
212,162,269156,5,4,3:1:0:0:
247,241,269232,1,0,3:3:0:0:
214,322,269309,1,0,3:3:0:0:
138,345,269386,1,0,3:3:0:0:
61,315,269463,1,2,3:2:0:0:
28,241,269540,1,0,3:3:0:0:
56,165,269617,1,8,3:3:0:0:
133,131,269694,1,0,3:3:0:0:
212,162,269771,1,4,3:1:0:0:
244,235,269848,1,0,3:3:0:0:
315,273,269925,1,8,3:3:0:0:
395,254,270002,1,0,3:3:0:0:
447,191,270078,1,2,3:2:0:0:
444,109,270155,1,2,3:2:0:0:
389,49,270232,1,2,3:2:0:0:
308,35,270309,1,2,3:2:0:0:
236,79,270386,5,4,3:3:0:0:
256,192,270463,12,0,275002,0:0:0:0:
70,148,275155,5,0,3:3:0:0:
67,164,275232,1,0,3:3:0:0:
64,180,275309,5,12,2:2:0:0:
2,324,275463,1,8,2:3:0:0:
42,311,275540,1,8,2:3:0:0:
82,298,275617,1,8,3:3:0:0:
122,286,275694,1,8,2:3:0:0:
162,274,275771,5,12,2:2:0:0:
124,372,275925,1,0,3:3:0:0:
222,205,276078,1,8,2:2:0:0:
255,308,276232,1,4,3:1:0:0:
323,248,276386,1,0,3:3:0:0:
323,248,276463,1,0,3:3:0:0:
323,248,276540,5,8,2:2:0:0:
384,326,276694,2,0,P|400:286|413:267,1,52.4999983978272,8|8,2:3|2:3,0:0:0:0:
462,230,276848,2,0,P|446:190|433:171,1,52.4999983978272,8|8,2:3|2:3,0:0:0:0:
356,90,277002,1,8,2:2:0:0:
356,90,277078,1,8,2:3:0:0:
356,90,277155,2,0,L|298:111,1,52.4999983978272,0|0,3:3|3:3,0:0:0:0:
242,162,277309,1,8,2:2:0:0:
201,150,277386,1,8,2:3:0:0:
160,138,277463,1,8,2:3:0:0:
119,126,277540,1,8,2:3:0:0:
80,115,277617,5,4,3:3:0:0:
54,138,277693,1,0,0:0:0:0:
51,177,277770,1,0,0:0:0:0:
81,209,277847,1,0,0:0:0:0:
131,211,277924,1,0,3:3:0:0:
169,167,278001,1,0,0:0:0:0:
167,105,278078,1,10,2:3:0:0:
199,52,278155,1,0,0:0:0:0:
262,31,278232,1,0,3:3:0:0:
330,56,278309,1,0,0:0:0:0:
351,128,278386,1,2,3:3:0:0:
313,192,278463,1,0,3:3:0:0:
238,204,278540,1,0,3:3:0:0:
189,261,278617,1,0,0:0:0:0:
202,333,278693,1,10,2:3:0:0:
263,365,278770,1,0,0:0:0:0:
318,348,278847,1,0,3:3:0:0:
336,299,278924,1,0,0:0:0:0:
315,253,279001,1,2,2:3:0:0:
271,240,279078,1,0,0:0:0:0:
228,259,279155,1,0,3:3:0:0:
219,298,279232,1,0,0:0:0:0:
242,330,279309,1,10,2:3:0:0:
274,338,279386,1,0,0:0:0:0:
299,324,279463,1,0,3:3:0:0:
306,298,279540,1,0,3:3:0:0:
300,280,279617,1,2,3:3:0:0:
285,270,279693,1,0,0:0:0:0:
270,269,279770,1,0,3:3:0:0:
262,272,279847,1,0,0:0:0:0:
259,277,279924,1,10,2:3:0:0:
261,280,280001,1,0,0:0:0:0:
264,283,280078,5,0,3:3:0:0:
281,295,280155,1,0,0:0:0:0:
306,292,280232,1,2,2:3:0:0:
322,267,280309,1,0,0:0:0:0:
311,232,280386,1,0,3:3:0:0:
274,217,280463,1,0,0:0:0:0:
232,233,280540,1,10,2:3:0:0:
213,267,280617,1,0,0:0:0:0:
186,281,280693,1,0,3:3:0:0:
164,275,280770,1,0,0:0:0:0:
158,264,280847,1,2,3:3:0:0:
163,235,280924,1,0,3:3:0:0:
200,220,281001,1,0,3:3:0:0:
232,233,281078,1,0,0:0:0:0:
240,266,281155,1,10,2:3:0:0:
228,294,281232,1,0,0:0:0:0:
211,301,281309,1,0,3:3:0:0:
198,300,281386,1,0,0:0:0:0:
191,292,281463,5,2,2:3:0:0:
200,220,281540,1,0,0:0:0:0:
260,185,281617,1,0,3:3:0:0:
327,201,281693,1,0,0:0:0:0:
361,262,281770,1,10,2:3:0:0:
347,319,281847,1,0,0:0:0:0:
316,338,281924,1,0,3:3:0:0:
293,337,282001,1,0,3:3:0:0:
285,328,282078,5,8,2:2:0:0:
283,257,282155,1,0,0:0:0:0:
332,207,282232,1,4,3:2:0:0:
401,211,282309,1,0,0:0:0:0:
462,176,282386,1,0,3:3:0:0:
485,103,282463,1,0,0:0:0:0:
446,30,282540,6,0,L|274:78,1,150,4|0,3:3|0:0,0:0:0:0:
239,167,282847,1,0,3:3:0:0:
338,0,283001,1,10,2:3:0:0:
232,186,283155,1,0,3:3:0:0:
131,16,283309,1,2,3:3:0:0:
131,16,283386,1,0,3:3:0:0:
131,16,283463,1,0,3:3:0:0:
171,228,283617,1,10,2:3:0:0:
17,112,283770,5,0,3:3:0:0:
289,182,283924,1,2,2:3:0:0:
72,264,284078,1,0,3:3:0:0:
270,76,284232,1,10,2:3:0:0:
9,193,284386,1,0,3:3:0:0:
9,193,284463,1,0,3:3:0:0:
9,193,284540,1,2,3:3:0:0:
270,320,284693,1,0,3:3:0:0:
69,67,284847,1,10,2:3:0:0:
310,227,285001,5,0,3:3:0:0:
296,245,285078,1,0,0:0:0:0:
270,254,285155,1,2,2:3:0:0:
238,239,285232,1,0,0:0:0:0:
227,197,285309,1,0,3:3:0:0:
249,159,285386,1,0,0:0:0:0:
253,109,285463,1,10,2:3:0:0:
218,67,285540,1,0,0:0:0:0:
162,68,285617,1,0,3:3:0:0:
125,111,285693,1,0,0:0:0:0:
137,169,285770,1,2,3:3:0:0:
191,193,285847,1,0,3:3:0:0:
247,164,285924,1,0,3:3:0:0:
287,106,286001,1,0,3:3:0:0:
356,84,286078,2,0,P|389:95|411:125,1,50,8|0,2:2|0:0,0:0:0:0:
447,186,286232,6,0,P|403:273|378:376,1,200,2|0,3:3|3:3,0:0:0:0:
401,384,286617,1,0,3:3:0:0:
401,384,286693,1,2,3:3:0:0:
495,272,286847,1,0,3:3:0:0:
310,290,287001,2,0,P|284:271|246:254,1,50,12|0,2:3|0:0,0:0:0:0:
176,221,287155,1,2,2:3:0:0:
168,227,287232,1,2,2:3:0:0:
159,232,287309,1,2,2:3:0:0:
149,236,287386,1,2,2:3:0:0:
141,236,287463,6,0,P|85:166|1:108,1,189.999994926453,4|0,3:3|3:3,0:0:0:0:
147,123,287924,2,0,P|176:96|224:71,1,94.9999974632264,10|0,2:3|3:3,0:0:0:0:
310,169,288232,2,0,P|281:161|263:141,1,47.4999987316132,2|0,3:3|3:3,0:0:0:0:
240,72,288386,1,0,3:3:0:0:
176,221,288540,1,10,2:3:0:0:
324,53,288693,6,0,P|363:77|437:85,1,94.9999974632264,0|2,3:3|2:3,0:0:0:0:
493,171,289001,2,0,P|446:180|406:204,1,94.9999974632264,0|10,3:3|2:3,0:0:0:0:
341,294,289309,1,0,3:3:0:0:
332,288,289386,1,0,3:3:0:0:
323,283,289463,1,2,3:3:0:0:
314,279,289540,1,0,3:3:0:0:
304,276,289617,2,0,P|263:305|192:316,1,94.9999974632264,0|10,3:3|2:3,0:0:0:0:
150,121,289924,6,0,P|183:115|211:251,1,189.999994926453,0|0,3:3|3:3,0:0:0:0:
141,216,290386,1,10,2:3:0:0:
259,67,290540,1,0,3:3:0:0:
126,200,290693,1,2,3:3:0:0:
118,194,290770,1,0,3:3:0:0:
109,190,290847,1,0,3:3:0:0:
99,188,290924,1,0,3:3:0:0:
89,188,291001,1,10,2:3:0:0:
2,323,291155,6,0,P|45:290|111:275,1,94.9999974632264,0|2,3:3|2:3,0:0:0:0:
165,341,291463,1,0,3:3:0:0:
236,215,291617,5,10,2:3:0:0:
262,195,291693,1,0,3:3:0:0:
295,190,291770,1,0,3:3:0:0:
326,200,291847,1,0,3:3:0:0:
347,225,291924,1,8,3:3:0:0:
367,238,292001,1,0,3:3:0:0:
388,235,292078,2,0,L|403:179,1,47.4999987316132,2|2,3:2|3:2,0:0:0:0:
460,68,292232,2,0,L|475:124,1,47.4999987316132,2|2,3:2|3:2,0:0:0:0:
294,93,292386,6,0,P|246:62|184:33,1,97.4999955368044,4|0,3:3|0:0,0:0:0:0:
134,111,292693,5,0,3:3:0:0:
151,125,292770,1,0,0:0:0:0:
160,147,292847,1,10,2:3:0:0:
157,188,292924,1,0,0:0:0:0:
121,224,293001,1,0,3:3:0:0:
70,237,293078,1,0,0:0:0:0:
35,278,293155,1,2,3:3:0:0:
32,328,293232,1,0,3:3:0:0:
62,361,293309,1,0,3:3:0:0:
105,365,293386,1,0,0:0:0:0:
133,347,293463,1,10,2:3:0:0:
133,326,293540,1,0,0:0:0:0:
126,318,293617,1,0,3:3:0:0:
108,318,293693,1,0,0:0:0:0:
95,336,293770,1,2,2:3:0:0:
105,365,293847,1,0,0:0:0:0:
142,376,293924,1,0,3:3:0:0:
182,355,294001,1,0,0:0:0:0:
194,304,294078,1,10,2:3:0:0:
231,261,294155,1,0,0:0:0:0:
291,258,294232,1,0,3:3:0:0:
337,308,294309,1,0,3:3:0:0:
319,368,294386,1,2,3:3:0:0:
275,383,294463,1,0,3:3:0:0:
237,362,294540,1,0,3:3:0:0:
235,333,294617,1,0,3:3:0:0:
252,314,294693,1,10,2:3:0:0:
266,316,294770,1,0,0:0:0:0:
271,324,294847,5,0,3:3:0:0:
216,375,294924,1,0,0:0:0:0:
142,362,295001,1,2,2:3:0:0:
105,304,295078,1,0,0:0:0:0:
118,241,295155,1,0,3:3:0:0:
161,213,295232,1,0,0:0:0:0:
207,222,295309,1,10,2:3:0:0:
219,255,295386,1,0,0:0:0:0:
211,271,295463,1,0,3:3:0:0:
190,282,295540,1,0,0:0:0:0:
162,275,295617,1,4,3:1:0:0:
146,243,295693,1,0,0:0:0:0:
165,206,295770,1,4,2:1:0:0:
218,192,295847,1,0,0:0:0:0:
261,146,295924,1,4,2:1:0:0:
262,74,296001,1,0,0:0:0:0:
207,23,296078,6,0,L|140:36,1,50,4|0,3:3|0:0,0:0:0:0:
92,128,296232,2,0,L|159:141,1,50,0|0,3:3|0:0,0:0:0:0:
275,63,296386,5,8,2:3:0:0:
308,40,296463,1,8,2:3:0:0:
356,41,296540,1,8,2:2:0:0:
389,70,296617,1,8,2:3:0:0:
394,108,296693,1,0,3:3:0:0:
378,135,296770,1,0,3:3:0:0:
365,141,296847,1,8,2:2:0:0:
342,134,296924,1,8,2:3:0:0:
329,98,297001,6,0,L|344:66,1,25,0|0,3:3|0:0,0:0:0:0:
363,54,297078,6,0,L|398:50,1,25,0|0,3:3|0:0,0:0:0:0:
431,72,297155,6,0,L|458:96,1,25,8|0,2:2|0:0,0:0:0:0:
462,141,297232,6,0,L|442:181,1,25,8|0,2:2|0:0,0:0:0:0:
393,220,297309,6,0,P|353:198|295:185,1,100,4|0,3:3|0:0,0:0:0:0:
230,314,297617,1,0,3:3:0:0:
279,314,297693,1,0,3:3:0:0:
319,284,297770,1,12,2:3:0:0:
255,239,298078,1,0,0:0:0:0:
345,358,298232,1,0,3:3:0:0:
237,228,298386,1,12,2:3:0:0:
147,316,298540,6,0,P|101:292|40:267,1,100,4|0,3:3|0:0,0:0:0:0:
128,202,298847,1,0,3:3:0:0:
170,175,298924,1,0,3:3:0:0:
195,132,299001,1,12,2:3:0:0:
101,116,299155,1,0,3:3:0:0:
237,228,299309,1,10,2:3:0:0:
166,0,299463,1,8,2:3:0:0:
243,217,299617,1,8,2:3:0:0:
471,134,299770,6,0,P|405:146|351:185,1,134.999995880127,4|0,3:3|0:0,0:0:0:0:
437,226,300078,2,0,L|456:273,1,44.999998626709,0|0,3:3|3:3,0:0:0:0:
403,361,300232,2,0,P|353:335|296:320,1,89.9999972534181,10|0,3:2|3:3,0:0:0:0:
286,345,300463,1,0,3:3:0:0:
286,345,300540,1,2,3:2:0:0:
183,266,300693,1,0,3:3:0:0:
183,266,300770,1,0,3:3:0:0:
183,266,300847,2,0,P|133:292|76:307,1,89.9999972534181,10|0,3:2|3:3,0:0:0:0:
0,319,301155,6,0,L|38:214,1,89.9999972534181,2|0,3:2|3:3,0:0:0:0:
43,202,301386,1,0,3:3:0:0:
43,202,301463,1,10,3:2:0:0:
125,135,301617,1,0,3:3:0:0:
125,135,301693,1,0,3:3:0:0:
125,135,301770,1,2,3:2:0:0:
226,159,301924,1,2,2:2:0:0:
251,150,302001,1,2,2:2:0:0:
250,141,302078,1,8,3:2:0:0:
277,256,302232,5,4,3:3:0:0:
330,278,302309,1,0,0:0:0:0:
383,263,302386,1,0,0:0:0:0:
407,215,302463,1,0,0:0:0:0:
392,167,302540,1,0,3:3:0:0:
393,121,302617,1,0,3:3:0:0:
428,87,302693,1,12,2:3:0:0:
471,90,302770,1,0,0:0:0:0:
493,122,302847,1,0,3:3:0:0:
480,147,302924,1,0,3:3:0:0:
464,152,303001,6,0,P|446:128|414:114,1,44.999998626709,0|0,3:3|0:0,0:0:0:0:
318,166,303155,1,0,3:3:0:0:
306,186,303232,1,0,3:3:0:0:
280,202,303309,1,12,2:3:0:0:
243,204,303386,1,0,0:0:0:0:
200,180,303463,5,0,3:3:0:0:
191,160,303540,1,0,0:0:0:0:
199,144,303617,1,0,0:0:0:0:
222,135,303693,1,0,0:0:0:0:
247,147,303770,1,0,3:3:0:0:
249,176,303847,1,0,0:0:0:0:
223,200,303924,1,12,2:3:0:0:
178,203,304001,1,0,0:0:0:0:
144,171,304078,1,0,3:3:0:0:
143,122,304155,1,0,0:0:0:0:
172,84,304232,1,0,3:3:0:0:
223,73,304309,1,0,0:0:0:0:
276,92,304386,1,0,3:3:0:0:
303,147,304463,1,0,0:0:0:0:
350,190,304540,1,12,2:3:0:0:
420,188,304617,1,0,0:0:0:0:
464,127,304693,6,0,L|437:27,1,89.9999972534181,4|0,3:3|0:0,0:0:0:0:
359,0,305001,1,2,3:2:0:0:
359,0,305078,1,0,3:3:0:0:
359,0,305155,2,0,L|338:58,1,50,8|0,3:3|3:3,0:0:0:0:
287,150,305309,2,0,L|266:92,1,50,0|0,3:3|3:3,0:0:0:0:
182,21,305463,1,2,3:2:0:0:
129,1,305539,1,0,3:3:0:0:
76,20,305616,1,0,3:3:0:0:
48,69,305693,1,0,3:3:0:0:
58,124,305770,1,8,3:3:0:0:
101,160,305847,1,0,3:3:0:0:
158,159,305924,6,0,P|191:180|215:212,1,50,0|0,3:3|3:3,0:0:0:0:
141,304,306078,2,0,L|148:275,1,25,8|0,3:3|0:0,0:0:0:0:
290,197,306232,1,8,2:2:0:0:
299,246,306309,1,8,2:2:0:0:
308,295,306386,1,8,3:3:0:0:
204,371,306540,1,8,2:2:0:0:
213,322,306617,1,8,2:2:0:0:
222,273,306694,1,8,3:3:0:0:
402,251,306847,1,8,2:3:0:0:
402,251,306924,1,8,2:3:0:0:
402,251,307001,2,0,L|412:193,1,50,0|0,3:3|3:3,0:0:0:0:
468,80,307155,5,4,3:3:0:0:
453,67,307232,1,0,3:3:0:0:
431,60,307309,1,0,3:3:0:0:
399,68,307386,1,0,3:3:0:0:
378,96,307463,1,2,3:2:0:0:
347,115,307540,1,0,3:3:0:0:
305,108,307617,2,0,P|289:78|248:65,1,50,8|0,3:3|3:3,0:0:0:0:
127,30,307770,5,0,3:3:0:0:
156,18,307847,1,0,3:3:0:0:
188,22,307924,1,2,3:2:0:0:
218,48,308001,1,0,3:3:0:0:
219,93,308078,1,2,3:2:0:0:
186,127,308155,1,0,3:3:0:0:
134,127,308232,2,0,P|106:111|73:102,1,50,8|0,3:3|3:3,0:0:0:0:
10,249,308386,5,2,3:2:0:0:
46,275,308463,1,0,3:3:0:0:
89,276,308540,1,0,3:3:0:0:
129,245,308617,1,0,3:3:0:0:
142,194,308693,1,2,3:2:0:0:
182,157,308770,1,2,3:2:0:0:
239,156,308847,2,0,P|253:185|293:206,1,50,8|0,3:3|3:3,0:0:0:0:
336,341,309001,5,0,3:3:0:0:
381,348,309078,1,0,3:3:0:0:
427,326,309155,1,2,3:2:0:0:
446,273,309232,1,0,3:3:0:0:
430,217,309309,1,2,3:2:0:0:
371,193,309386,1,0,3:3:0:0:
303,216,309463,2,0,P|284:244|280:267,1,50,8|0,3:3|3:3,0:0:0:0:
201,358,309617,5,4,3:3:0:0:
127,370,309693,1,0,3:3:0:0:
61,333,309770,1,0,3:3:0:0:
43,259,309847,1,0,3:3:0:0:
74,190,309924,2,0,L|152:159,1,50,10|0,3:3|3:3,0:0:0:0:
232,235,310078,5,10,3:3:0:0:
286,248,310155,1,0,3:3:0:0:
339,261,310232,1,0,3:3:0:0:
392,274,310309,1,0,3:3:0:0:
445,287,310386,2,0,L|426:211,1,50,10|0,3:3|3:3,0:0:0:0:
351,44,310540,2,0,L|332:120,1,50,10|0,3:3|3:3,0:0:0:0:
512,222,310693,2,0,L|493:146,1,50,10|0,3:3|3:3,0:0:0:0:
303,167,310847,5,2,3:3:0:0:
230,133,310924,1,0,3:3:0:0:
157,99,311001,1,0,3:3:0:0:
84,65,311078,1,0,3:3:0:0:
10,33,311155,2,0,L|19:92,1,50,10|0,3:3|3:3,0:0:0:0:
5,268,311309,5,10,3:3:0:0:
59,242,311386,1,0,3:3:0:0:
113,216,311463,1,10,3:3:0:0:
167,191,311540,1,0,3:3:0:0:
222,167,311617,2,0,L|200:228,1,50,10|0,3:3|3:3,0:0:0:0:
143,371,311770,2,0,L|121:310,1,50,10|0,3:3|3:3,0:0:0:0:
331,125,311924,2,0,L|309:186,1,50,10|0,3:3|3:3,0:0:0:0:
146,31,312078,5,4,3:3:0:0:
119,24,312155,1,0,3:3:0:0:
81,33,312232,1,0,3:3:0:0:
57,71,312309,1,0,3:3:0:0:
72,117,312386,1,2,3:2:0:0:
120,137,312463,1,0,3:3:0:0:
173,118,312540,1,8,3:3:0:0:
206,67,312617,1,0,3:3:0:0:
265,42,312693,1,2,3:2:0:0:
318,59,312770,1,2,3:2:0:0:
344,98,312847,1,2,3:2:0:0:
331,142,312924,1,0,3:3:0:0:
303,157,313001,1,2,3:2:0:0:
275,151,313078,1,0,3:3:0:0:
267,132,313155,1,8,3:3:0:0:
273,119,313232,1,0,3:3:0:0:
279,117,313309,5,2,3:2:0:0:
348,118,313386,1,0,3:3:0:0:
385,167,313463,1,0,3:3:0:0:
379,220,313540,1,0,3:3:0:0:
339,251,313617,1,2,3:2:0:0:
292,245,313693,1,0,3:3:0:0:
271,209,313770,1,8,3:3:0:0:
279,184,313847,1,0,3:3:0:0:
298,176,313924,1,2,3:2:0:0:
325,185,314001,1,2,3:2:0:0:
342,224,314078,1,2,3:2:0:0:
310,264,314155,1,0,3:3:0:0:
255,273,314232,1,2,3:2:0:0:
211,233,314309,1,0,3:3:0:0:
157,201,314386,1,8,3:3:0:0:
92,207,314463,1,0,3:3:0:0:
53,265,314540,6,0,L|68:338,1,50,0|0,3:3|3:3,0:0:0:0:
201,76,314693,2,0,L|216:3,1,50,2|2,3:3|3:3,0:0:0:0:
72,274,314847,2,0,L|87:347,1,50,10|0,3:3|3:3,0:0:0:0:
286,124,315001,5,10,3:3:0:0:
352,103,315078,1,0,3:3:0:0:
419,84,315155,2,0,L|400:141,1,50,10|0,3:3|3:3,0:0:0:0:
479,248,315309,1,10,3:3:0:0:
432,300,315386,1,0,3:3:0:0:
362,309,315463,2,0,P|338:296|316:260,1,50,10|0,3:3|3:3,0:0:0:0:
269,108,315617,1,10,3:3:0:0:
204,83,315693,1,0,3:3:0:0:
138,57,315770,2,0,L|150:117,1,50,10|0,3:3|3:3,0:0:0:0:
227,262,315924,6,0,L|102:218,1,100,8|8,3:3|3:3,0:0:0:0:
90,215,316155,1,8,3:3:0:0:
90,215,316232,1,8,3:3:0:0:
124,354,316386,6,0,L|136:304,1,50,8|8,3:3|3:3,0:0:0:0:
216,173,316540,1,8,3:3:0:0:
253,139,316617,1,8,3:3:0:0:
302,133,316693,1,8,2:2:0:0:
345,158,316770,1,8,2:2:0:0:
353,207,316847,1,8,3:3:0:0:
384,245,316924,1,8,2:2:0:0:
432,255,317001,2,0,L|443:198,1,50,8|8,2:2|2:2,0:0:0:0:
502,83,317155,5,4,3:3:0:0:
449,69,317231,1,0,3:3:0:0:
395,55,317308,1,0,3:3:0:0:
341,41,317385,1,0,3:3:0:0:
287,27,317462,2,0,L|301:82,1,55.0000016784668,10|0,3:3|3:3,0:0:0:0:
203,208,317616,2,0,L|217:153,1,55.0000016784668,0|0,3:3|3:3,0:0:0:0:
108,46,317770,2,0,L|170:33,1,55.0000016784668,2|0,3:3|3:3,0:0:0:0:
174,19,317924,2,0,L|120:30,1,55.0000016784668,0|0,3:3|3:3,0:0:0:0:
15,11,318078,2,0,L|38:70,1,55.0000016784668,10|0,3:3|3:3,0:0:0:0:
7,215,318231,5,0,3:3:0:0:
47,243,318308,1,0,3:3:0:0:
96,247,318385,1,2,3:3:0:0:
140,225,318462,1,0,3:3:0:0:
159,179,318539,1,0,3:3:0:0:
197,147,318616,1,0,3:3:0:0:
246,140,318693,2,0,L|260:211,3,55.0000016784668,10|0|0|0,3:3|3:3|3:3|3:3,0:0:0:0:
362,279,319001,2,0,L|376:208,3,55.0000016784668,2|0|0|0,3:3|3:3|3:3|3:3,0:0:0:0:
258,125,319308,2,0,L|272:196,3,55.0000016784668,10|0|0|0,3:3|3:3|3:3|3:3,0:0:0:0:
207,328,319616,5,2,3:3:0:0:
155,348,319693,1,0,3:3:0:0:
102,331,319770,1,0,3:3:0:0:
82,279,319847,1,0,3:3:0:0:
98,226,319924,1,10,3:3:0:0:
147,201,320001,1,0,3:3:0:0:
201,209,320078,5,0,3:3:0:0:
203,219,320155,1,0,3:3:0:0:
205,229,320231,2,0,L|226:167,1,55.0000016784668,2|0,3:3|3:3,0:0:0:0:
134,76,320385,2,0,L|155:138,1,55.0000016784668,0|0,3:3|3:3,0:0:0:0:
221,221,320539,2,0,L|242:159,1,55.0000016784668,10|0,3:3|3:3,0:0:0:0:
150,68,320693,2,0,L|171:130,1,55.0000016784668,0|0,3:3|3:3,0:0:0:0:
325,258,320847,5,8,2:3:0:0:
379,255,320924,1,8,2:3:0:0:
419,217,321001,1,8,2:2:0:0:
420,161,321078,1,8,2:2:0:0:
384,118,321155,1,8,2:2:0:0:
368,66,321231,1,8,2:2:0:0:
393,17,321308,2,0,L|466:47,1,55.0000016784668,8|8,2:3|2:3,0:0:0:0:
341,185,321462,5,8,3:3:0:0:
303,175,321539,1,8,2:2:0:0:
265,165,321616,1,8,2:2:0:0:
227,155,321693,1,8,2:2:0:0:
189,145,321770,2,0,L|212:214,1,55.0000016784668,4|0,3:3|0:0,0:0:0:0:
236,305,321924,2,0,L|259:236,1,55.0000016784668
256,80,322078,5,4,3:3:0:0:
235,71,322155,1,0,3:3:0:0:
213,74,322231,1,0,3:3:0:0:
191,77,322308,1,0,3:3:0:0:
172,64,322385,2,0,L|106:46,1,55.0000016784668,10|0,3:2|3:3,0:0:0:0:
55,123,322539,2,0,L|121:141,1,55.0000016784668,0|0,3:3|3:3,0:0:0:0:
128,243,322693,5,0,3:3:0:0:
162,225,322770,1,0,3:3:0:0:
200,227,322847,1,2,3:2:0:0:
237,233,322924,1,0,3:3:0:0:
268,211,323001,2,0,L|287:150,1,55.0000016784668,8|0,3:3|3:3,0:0:0:0:
380,127,323155,2,0,L|361:188,1,55.0000016784668,0|0,3:3|3:3,0:0:0:0:
475,278,323308,5,2,3:2:0:0:
422,260,323385,1,0,3:3:0:0:
372,284,323462,1,0,3:3:0:0:
322,308,323539,1,0,3:3:0:0:
270,289,323616,2,0,L|255:232,1,55.0000016784668,10|0,3:2|3:3,0:0:0:0:
199,147,323770,2,0,L|184:204,1,55.0000016784668,0|0,3:3|3:3,0:0:0:0:
50,332,323924,5,0,3:3:0:0:
81,323,324001,1,0,3:3:0:0:
105,300,324078,1,2,3:2:0:0:
115,269,324155,1,0,3:3:0:0:
110,237,324232,1,8,3:3:0:0:
90,211,324309,1,0,3:3:0:0:
60,198,324386,2,0,L|46:253,1,55.0000016784668,0|0,3:3|3:3,0:0:0:0:
27,96,324540,5,2,3:2:0:0:
86,55,324617,1,0,3:3:0:0:
145,58,324694,1,0,3:3:0:0:
183,92,324771,1,0,3:3:0:0:
193,139,324848,1,10,3:2:0:0:
214,187,324925,1,0,3:3:0:0:
270,212,325002,1,0,3:3:0:0:
336,189,325079,1,0,3:3:0:0:
358,118,325156,6,0,L|341:59,1,55.0000016784668,2|0,3:2|3:3,0:0:0:0:
269,1,325309,2,0,L|252:60,1,55.0000016784668,2|0,3:2|3:3,0:0:0:0:
431,117,325463,1,8,3:3:0:0:
441,153,325540,1,0,3:3:0:0:
451,190,325617,1,0,3:3:0:0:
461,227,325694,1,0,3:3:0:0:
487,254,325771,5,4,3:1:0:0:
460,248,325848,1,8,2:3:0:0:
433,242,325925,1,8,2:3:0:0:
406,235,326002,1,8,2:3:0:0:
379,229,326079,1,8,2:3:0:0:
353,223,326156,1,0,3:3:0:0:
325,194,326232,5,4,3:1:0:0:
285,202,326309,1,8,2:3:0:0:
247,213,326386,1,8,2:3:0:0:
209,223,326463,1,8,2:3:0:0:
171,233,326540,1,8,2:3:0:0:
131,243,326617,1,0,3:3:0:0:
99,217,326694,6,0,L|111:282,1,55.0000016784668,4|8,3:1|2:3,0:0:0:0:
209,351,326848,2,0,L|221:286,1,55.0000016784668,8|8,2:3|2:3,0:0:0:0:
290,101,327002,6,0,L|160:71,1,110.000003356934,4|0,3:3|3:3,0:0:0:0:
67,28,327232,1,0,3:3:0:0:
84,36,327309,1,10,3:2:0:0:
99,105,327386,1,0,3:3:0:0:
114,174,327463,1,0,3:3:0:0:
129,243,327540,1,0,3:3:0:0:
145,312,327617,6,0,L|24:278,1,110.000003356934,0|2,3:3|3:2,0:0:0:0:
12,158,327848,1,0,3:3:0:0:
25,145,327925,1,8,3:3:0:0:
94,160,328002,1,0,3:3:0:0:
163,175,328079,1,2,3:2:0:0:
232,190,328156,1,2,3:2:0:0:
301,204,328232,6,0,L|277:265,1,55.0000016784668,2|0,3:2|3:3,0:0:0:0:
178,384,328386,2,0,L|154:323,1,55.0000016784668,2|0,3:2|3:3,0:0:0:0:
109,85,328540,2,0,L|181:105,1,55.0000016784668,8|0,3:3|3:3,0:0:0:0:
232,316,328694,2,0,L|284:330,1,55.0000016784668,2|0,3:2|3:3,0:0:0:0:
426,82,328848,6,0,L|367:62,1,55.0000016784668,0|0,3:3|3:3,0:0:0:0:
231,0,329002,2,0,L|211:59,1,55.0000016784668,2|0,3:2|3:3,0:0:0:0:
149,195,329156,2,0,L|208:214,1,55.0000016784668,0|0,3:3|3:3,0:0:0:0:
344,277,329309,2,0,L|364:218,1,55.0000016784668,2|2,3:2|3:2,0:0:0:0:
284,117,329463,5,2,3:2:0:0:
287,133,329540,1,0,3:3:0:0:
290,149,329617,1,0,3:3:0:0:
293,165,329694,1,0,3:3:0:0:
296,180,329771,2,0,L|231:154,1,55.0000016784668,10|0,3:2|3:3,0:0:0:0:
195,291,329925,2,0,L|246:270,1,55.0000016784668,0|0,3:3|3:3,0:0:0:0:
123,127,330079,2,0,L|134:191,1,55.0000016784668,2|0,3:2|3:3,0:0:0:0:
149,195,330232,2,0,L|139:140,1,55.0000016784668,2|0,3:2|3:3,0:0:0:0:
7,271,330386,6,0,L|209:320,1,165.000005035401,8|0,3:3|3:3,0:0:0:0:
212,384,330694,5,10,3:2:0:0:
235,372,330771,1,8,2:3:0:0:
259,365,330848,1,2,3:2:0:0:
282,356,330925,1,2,3:2:0:0:
300,330,331002,5,8,2:3:0:0:
315,336,331079,1,8,2:3:0:0:
330,341,331156,1,0,3:3:0:0:
345,346,331233,1,0,3:3:0:0:
372,373,331309,5,8,2:2:0:0:
357,331,331386,1,8,2:2:0:0:
342,289,331463,1,8,2:2:0:0:
328,247,331540,1,8,2:2:0:0:
340,193,331617,6,0,L|324:261,1,55.0000016784668,2|2,3:2|3:2,0:0:0:0:
235,372,331771,2,0,L|219:304,1,55.0000016784668,2|2,3:1|3:2,0:0:0:0:
176,102,331925,5,4,3:3:0:0:
123,74,332002,1,0,3:3:0:0:
77,88,332079,1,2,3:2:0:0:
53,126,332156,1,2,3:2:0:0:
67,165,332232,1,0,3:3:0:0:
97,175,332309,1,0,3:3:0:0:
110,162,332386,2,0,P|148:139|174:140,1,55.0000016784668,4|0,3:1|3:3,0:0:0:0:
249,226,332540,5,0,3:3:0:0:
271,248,332617,1,0,3:3:0:0:
308,253,332694,1,4,3:1:0:0:
346,229,332771,1,0,3:3:0:0:
352,185,332848,1,8,3:3:0:0:
332,137,332925,1,0,3:3:0:0:
347,84,333002,1,0,3:3:0:0:
403,58,333079,1,0,3:3:0:0:
465,88,333156,5,2,3:2:0:0:
435,126,333232,1,0,3:3:0:0:
385,131,333309,1,2,3:2:0:0:
344,102,333386,1,0,3:3:0:0:
318,59,333463,1,8,3:3:0:0:
282,34,333540,1,0,3:3:0:0:
241,35,333617,1,4,3:1:0:0:
213,53,333694,1,0,3:3:0:0:
203,72,333771,6,0,L|223:137,1,55.0000016784668,0|0,3:3|3:3,0:0:0:0:
276,264,333925,2,0,L|296:199,1,55.0000016784668,4|0,3:1|3:3,0:0:0:0:
185,69,334079,2,0,L|205:134,1,55.0000016784668,8|0,3:3|3:3,0:0:0:0:
258,261,334233,2,0,L|278:196,1,55.0000016784668,0|0,3:3|3:3,0:0:0:0:
112,28,334386,6,0,P|88:89|82:147,1,110.000003356934,4|8,3:3|3:3,0:0:0:0:
29,202,334617,1,8,3:3:0:0:
47,214,334694,2,0,P|69:245|90:284,1,55.0000016784668,8|0,3:3|3:3,0:0:0:0:
125,328,334848,2,0,P|139:304|155:282,1,55.0000016784668,8|8,2:3|2:3,0:0:0:0:
163,174,335002,6,0,L|216:162,1,55.0000016784668,8|8,2:3|2:3,0:0:0:0:
173,158,335156,2,0,L|226:146,1,55.0000016784668,8|8,2:3|2:3,0:0:0:0:
290,240,335309,1,8,2:3:0:0:
316,247,335386,1,8,2:3:0:0:
342,255,335463,1,8,2:3:0:0:
368,263,335540,1,8,2:3:0:0:
394,271,335617,5,8,3:3:0:0:
394,271,336848,5,4,3:3:0:0:
366,294,336925,1,0,3:3:0:0:
331,299,337002,1,0,3:3:0:0:
298,284,337079,1,0,3:3:0:0:
278,254,337156,1,10,3:3:0:0:
278,218,337232,1,0,3:3:0:0:
298,188,337309,1,0,3:3:0:0:
331,173,337386,1,0,3:3:0:0:
366,178,337463,1,2,3:3:0:0:
394,201,337540,1,0,3:3:0:0:
429,206,337617,1,0,3:3:0:0:
462,191,337694,1,0,3:3:0:0:
482,161,337771,1,10,3:3:0:0:
482,125,337847,1,0,3:3:0:0:
462,95,337924,1,0,3:3:0:0:
429,80,338001,1,0,3:3:0:0:
394,85,338078,5,2,3:3:0:0:
378,132,338156,1,0,3:3:0:0:
392,176,338232,1,0,3:3:0:0:
433,200,338309,1,0,3:3:0:0:
481,192,338386,1,10,3:3:0:0:
512,156,338463,1,0,3:3:0:0:
512,109,338540,1,0,3:3:0:0:
483,70,338617,1,0,3:3:0:0:
437,61,338694,1,2,3:3:0:0:
394,85,338771,1,0,3:3:0:0:
378,132,338848,1,0,3:3:0:0:
392,176,338925,1,0,3:3:0:0:
374,221,339002,1,10,3:3:0:0:
329,239,339079,1,0,3:3:0:0:
285,221,339156,2,0,L|268:159,1,59.9999981689454,0|0,3:3|3:3,0:0:0:0:
197,45,339309,5,2,3:3:0:0:
146,16,339385,1,0,3:3:0:0:
87,24,339462,1,0,3:3:0:0:
46,66,339539,1,0,3:3:0:0:
38,124,339616,1,10,3:3:0:0:
66,176,339693,1,0,3:3:0:0:
120,200,339770,1,0,3:3:0:0:
178,187,339847,1,0,3:3:0:0:
228,155,339924,1,2,3:3:0:0:
287,154,340001,1,0,3:3:0:0:
338,183,340078,1,0,3:3:0:0:
367,235,340155,1,0,3:3:0:0:
366,294,340232,1,10,3:3:0:0:
334,344,340309,1,0,3:3:0:0:
280,370,340386,6,0,L|263:303,1,59.9999981689454,0|0,3:3|3:3,0:0:0:0:
189,176,340540,2,0,L|171:243,1,59.9999981689454,2|2,3:2|3:1,0:0:0:0:
106,343,340694,1,2,3:2:0:0:
106,343,340771,1,2,3:1:0:0:
106,343,340848,1,8,2:2:0:0:
158,329,340925,1,8,2:2:0:0:
210,316,341002,1,8,3:3:0:0:
262,303,341079,1,8,2:2:0:0:
314,290,341156,6,0,L|260:127,1,119.999996337891,4|0,3:3|0:0,0:0:0:0:
61,121,341463,2,0,L|115:-42,1,119.999996337891,4|0,3:1|0:0,0:0:0:0:
30,290,341771,5,4,3:3:0:0:
55,315,341848,1,0,3:3:0:0:
90,324,341925,1,0,3:3:0:0:
125,315,342002,1,0,3:3:0:0:
150,289,342079,1,10,3:2:0:0:
159,255,342156,1,0,3:3:0:0:
150,220,342232,1,0,3:3:0:0:
125,194,342309,1,0,3:3:0:0:
91,183,342386,1,2,3:2:0:0:
67,156,342463,1,2,3:2:0:0:
61,121,342540,1,2,3:2:0:0:
77,88,342617,1,0,3:3:0:0:
107,68,342694,1,8,3:3:0:0:
143,68,342771,1,0,3:3:0:0:
173,87,342848,1,0,3:3:0:0:
188,121,342925,1,0,3:3:0:0:
183,156,343002,5,2,3:2:0:0:
135,164,343079,1,0,3:3:0:0:
92,143,343156,1,0,3:3:0:0:
70,101,343232,1,0,3:3:0:0:
77,54,343309,1,10,3:2:0:0:
110,19,343386,1,0,3:3:0:0:
157,11,343463,1,0,3:3:0:0:
200,32,343540,1,0,3:3:0:0:
223,74,343617,1,2,3:2:0:0:
216,122,343694,1,0,3:3:0:0:
183,156,343771,1,2,3:2:0:0:
174,203,343848,1,0,3:3:0:0:
198,243,343925,1,8,3:3:0:0:
244,257,344002,1,0,3:3:0:0:
289,239,344079,2,0,L|303:162,1,59.9999981689454,0|0,3:3|3:3,0:0:0:0:
366,65,344232,5,8,3:3:0:0:
410,82,344309,1,8,2:3:0:0:
436,122,344386,1,8,3:3:0:0:
427,169,344463,1,8,2:3:0:0:
389,199,344540,1,0,3:3:0:0:
374,244,344617,1,0,3:3:0:0:
392,288,344694,5,8,2:2:0:0:
432,263,344770,1,8,2:3:0:0:
450,219,344847,1,8,3:3:0:0:
439,173,344924,1,8,2:3:0:0:
404,142,345001,1,0,3:3:0:0:
357,138,345078,1,0,3:3:0:0:
316,162,345156,2,0,L|298:226,3,59.9999981689454,8|8|8|8,2:3|2:3|2:3|2:3,0:0:0:0:
362,362,345463,5,2,3:3:0:0:
315,384,345540,1,8,2:2:0:0:
264,376,345617,2,0,P|232:353|213:301,1,59.9999981689454,8|8,2:2|2:2,0:0:0:0:
170,196,345771,1,8,3:3:0:0:
124,174,345848,1,0,3:3:0:0:
72,181,345925,2,0,P|40:203|21:255,1,59.9999981689454,8|8,2:2|2:2,0:0:0:0:
109,310,346079,2,0,L|118:230,3,59.9999981689454,8|8|8|8,3:3|2:2|2:2|2:2,0:0:0:0:
13,76,346386,1,8,3:3:0:0:
67,65,346463,1,8,2:2:0:0:
120,55,346540,1,8,2:2:0:0:
174,45,346617,1,8,2:2:0:0:
219,66,346694,5,4,3:3:0:0:
236,99,346771,1,0,3:3:0:0:
230,134,346848,1,0,3:3:0:0:
204,160,346925,1,0,3:3:0:0:
169,165,347002,1,10,3:2:0:0:
137,149,347079,1,0,3:3:0:0:
120,117,347156,1,0,3:3:0:0:
126,81,347232,1,0,3:3:0:0:
152,56,347309,1,0,3:3:0:0:
187,50,347386,1,0,3:3:0:0:
219,66,347463,1,2,3:2:0:0:
236,99,347540,1,0,3:3:0:0:
230,134,347617,1,8,3:3:0:0:
244,168,347694,1,2,3:2:0:0:
277,181,347771,1,2,3:2:0:0:
310,168,347848,1,2,3:2:0:0:
324,134,347925,5,2,3:2:0:0:
282,111,348002,1,0,3:3:0:0:
234,114,348079,1,2,3:2:0:0:
195,143,348156,1,0,3:3:0:0:
178,188,348232,1,10,3:2:0:0:
189,235,348309,1,0,3:3:0:0:
223,269,348386,1,2,3:2:0:0:
269,279,348463,1,0,3:3:0:0:
314,262,348540,1,0,3:3:0:0:
343,224,348617,1,0,3:3:0:0:
377,191,348694,1,2,3:2:0:0:
423,181,348771,1,0,3:3:0:0:
467,202,348848,1,8,3:3:0:0:
489,245,348925,1,2,3:2:0:0:
483,292,349002,2,0,L|418:310,1,59.9999981689454,2|2,3:2|3:2,0:0:0:0:
327,370,349156,5,2,3:2:0:0:
268,365,349232,1,0,3:3:0:0:
225,325,349309,1,0,3:3:0:0:
216,267,349386,1,0,3:3:0:0:
245,216,349463,1,10,3:2:0:0:
299,194,349540,1,0,3:3:0:0:
333,146,349616,1,0,3:3:0:0:
323,88,349693,1,0,3:3:0:0:
276,54,349770,1,2,3:2:0:0:
218,63,349847,1,0,3:3:0:0:
183,110,349924,1,2,3:2:0:0:
130,130,350002,1,0,3:3:0:0:
76,111,350079,2,0,L|63:33,3,59.9999981689454,8|0|0|0,3:3|3:3|3:3|3:3,0:0:0:0:
10,207,350386,5,8,2:2:0:0:
43,219,350463,1,8,2:3:0:0:
76,232,350540,1,0,3:3:0:0:
109,245,350617,1,0,3:3:0:0:
142,257,350694,2,0,L|131:191,1,59.9999981689454,8|8,2:3|2:3,0:0:0:0:
220,132,350848,2,0,L|209:198,3,59.9999981689454,8|8|0|0,2:3|2:3|3:3|3:3,0:0:0:0:
225,312,351156,1,8,2:3:0:0:
272,288,351232,1,8,2:3:0:0:
320,264,351309,2,0,L|305:331,1,59.9999981689454,0|0,3:3|3:3,0:0:0:0:
407,376,351463,2,0,L|392:309,1,59.9999981689454,0|0,3:3|3:3,0:0:0:0:
504,202,351617,5,4,3:1:0:0:
470,159,351693,1,0,3:3:0:0:
422,136,351770,1,0,3:3:0:0:
369,137,351847,1,0,3:3:0:0:
321,161,351924,1,8,3:3:0:0:
288,203,352001,1,0,3:3:0:0:
278,256,352078,1,4,3:1:0:0:
253,303,352155,1,0,3:3:0:0:
207,329,352232,1,0,3:3:0:0:
154,327,352309,1,0,3:3:0:0:
110,296,352386,1,4,3:1:0:0:
90,247,352463,1,0,3:3:0:0:
100,194,352540,2,0,L|169:167,3,59.9999981689454,8|0|0|0,3:3|3:3|3:3|3:3,0:0:0:0:
61,57,352848,5,2,3:2:0:0:
94,16,352925,1,0,3:3:0:0:
144,5,353002,1,2,3:2:0:0:
193,26,353079,1,0,3:3:0:0:
215,76,353156,1,8,3:3:0:0:
199,128,353232,1,0,3:3:0:0:
153,158,353309,1,4,3:1:0:0:
107,188,353386,1,0,3:3:0:0:
91,240,353462,1,0,3:3:0:0:
113,290,353539,1,0,3:3:0:0:
162,311,353616,1,4,3:1:0:0:
212,300,353693,1,0,3:3:0:0:
245,259,353770,1,8,3:3:0:0:
289,226,353848,1,0,3:3:0:0:
343,227,353925,1,0,3:3:0:0:
390,252,354002,1,0,3:3:0:0:
412,301,354079,6,0,L|398:378,1,59.9999981689454,2|0,3:2|3:3,0:0:0:0:
509,211,354232,2,0,L|495:134,1,59.9999981689454,2|0,3:2|3:3,0:0:0:0:
350,153,354386,2,0,L|418:169,1,59.9999981689454,8|0,3:3|3:3,0:0:0:0:
312,62,354540,1,4,3:1:0:0:
295,68,354617,1,0,3:3:0:0:
278,74,354694,1,0,3:3:0:0:
261,80,354771,1,0,3:3:0:0:
243,86,354848,2,0,L|227:154,1,59.9999981689454,8|8,2:3|2:3,0:0:0:0:
165,216,355002,2,0,L|150:144,1,59.9999981689454,8|8,2:2|2:3,0:0:0:0:
49,68,355156,1,0,3:3:0:0:
49,68,355232,1,0,3:3:0:0:
49,68,355309,6,0,L|116:87,1,59.9999981689454,12|0,2:3|0:0,0:0:0:0:
57,179,355463,2,0,L|0:162,1,59.9999981689454,8|8,2:3|2:3,0:0:0:0:
0,299,355617,5,8,3:3:0:0:
45,284,355694,1,8,2:3:0:0:
90,269,355771,1,8,2:3:0:0:
135,254,355848,1,8,2:3:0:0:
180,239,355925,2,0,L|155:316,3,59.9999981689454,8|8|8|8,3:3|2:3|2:3|2:3,0:0:0:0:
287,360,356232,2,0,L|262:283,3,59.9999981689454,8|8|8|8,3:3|2:3|2:3|2:3,0:0:0:0:
268,130,356540,5,4,3:3:0:0:
348,97,356617,1,0,3:3:0:0:
428,130,356694,1,0,3:3:0:0:
461,209,356771,1,0,3:3:0:0:
428,289,356848,1,10,3:2:0:0:
348,323,356925,1,0,3:3:0:0:
268,289,357002,1,0,3:3:0:0:
235,209,357079,1,0,3:3:0:0:
268,130,357156,1,2,3:2:0:0:
236,51,357232,1,2,3:2:0:0:
156,18,357309,1,2,3:2:0:0:
76,51,357386,1,0,3:3:0:0:
42,130,357463,1,8,3:3:0:0:
76,210,357540,1,2,3:2:0:0:
156,243,357617,1,2,3:2:0:0:
236,210,357694,1,2,3:2:0:0:
268,130,357771,5,2,3:2:0:0:
196,100,357848,1,0,3:3:0:0:
123,130,357925,1,2,3:2:0:0:
95,202,358002,1,0,3:3:0:0:
123,274,358079,1,10,3:2:0:0:
195,304,358156,1,0,3:3:0:0:
268,274,358232,1,2,3:2:0:0:
298,202,358309,1,0,3:3:0:0:
268,130,358386,1,2,3:2:0:0:
301,63,358463,1,2,3:2:0:0:
374,45,358540,1,2,3:2:0:0:
435,93,358617,1,2,3:2:0:0:
435,171,358694,1,8,3:3:0:0:
374,219,358771,1,2,3:2:0:0:
298,202,358848,1,2,3:2:0:0:
267,130,358925,1,2,3:2:0:0:
301,63,359002,5,2,3:2:0:0:
387,92,359079,1,0,3:3:0:0:
432,172,359156,1,2,3:2:0:0:
417,261,359232,1,0,3:3:0:0:
346,322,359309,1,8,3:3:0:0:
255,322,359386,1,0,3:3:0:0:
184,262,359463,1,2,3:2:0:0:
168,172,359540,1,0,3:3:0:0:
214,92,359617,1,0,3:3:0:0:
301,63,359694,1,0,3:3:0:0:
387,92,359771,1,2,3:2:0:0:
432,172,359848,1,0,3:3:0:0:
417,261,359925,1,8,3:3:0:0:
346,322,360002,1,0,3:3:0:0:
255,322,360079,1,0,3:3:0:0:
184,262,360156,1,0,3:3:0:0:
168,172,360232,6,0,L|229:162,1,59.9999981689454,8|8,2:3|2:3,0:0:0:0:
363,257,360386,2,0,L|230:235,1,119.999996337891,8|8,2:3|2:2,0:0:0:0:
62,196,360617,1,8,2:2:0:0:
62,196,360694,2,0,L|78:132,1,59.9999981689454,8|8,3:3|2:3,0:0:0:0:
180,28,360848,6,0,L|195:96,1,59.9999981689454,8|8,2:2|2:2,0:0:0:0:
133,238,361002,2,0,L|148:170,1,59.9999981689454,8|8,2:2|2:2,0:0:0:0:
283,139,361156,1,2,3:2:0:0:
316,127,361232,1,2,3:2:0:0:
350,115,361309,1,2,3:2:0:0:
384,104,361386,1,2,3:2:0:0:
426,123,361463,5,4,3:3:0:0:
413,166,361539,1,0,3:3:0:0:
384,197,361616,1,0,3:3:0:0:
341,211,361693,1,0,3:3:0:0:
298,204,361770,1,12,3:2:0:0:
262,179,361847,1,0,3:3:0:0:
243,140,361924,1,0,3:3:0:0:
244,96,362002,1,0,3:3:0:0:
222,55,362078,1,2,3:2:0:0:
186,33,362155,1,0,3:3:0:0:
141,28,362232,1,2,3:2:0:0:
100,44,362309,1,0,3:3:0:0:
72,79,362386,1,8,3:3:0:0:
63,121,362463,1,0,3:3:0:0:
76,165,362540,1,2,3:2:0:0:
108,196,362617,1,0,3:3:0:0:
150,209,362694,5,2,3:2:0:0:
165,156,362771,1,0,3:3:0:0:
141,102,362848,1,0,3:3:0:0:
90,77,362925,1,0,3:3:0:0:
35,91,363002,1,10,3:2:0:0:
0,136,363079,1,0,3:3:0:0:
4,194,363156,1,0,3:3:0:0:
45,235,363232,1,0,3:3:0:0:
101,241,363309,1,2,3:2:0:0:
150,209,363386,1,0,3:3:0:0:
205,192,363463,1,2,3:2:0:0:
255,217,363540,1,0,3:3:0:0:
274,270,363617,1,8,3:3:0:0:
248,322,363694,1,0,3:3:0:0:
194,339,363771,1,0,3:3:0:0:
142,314,363848,1,0,3:3:0:0:
124,261,363925,5,4,3:1:0:0:
169,249,364002,1,8,2:2:0:0:
216,238,364079,1,8,2:2:0:0:
263,228,364156,1,8,2:2:0:0:
310,217,364232,2,0,L|370:200,1,59.9999981689454,8|8,2:2|2:2,0:0:0:0:
488,357,364386,2,0,L|355:320,1,119.999996337891,4|0,3:2|0:0,0:0:0:0:
305,337,364617,1,8,2:2:0:0:
288,357,364694,2,0,L|220:380,1,59.9999981689454,8|8,2:2|2:2,0:0:0:0:
157,289,364848,5,8,3:3:0:0:
127,283,364925,1,8,2:3:0:0:
97,277,365002,1,8,2:3:0:0:
67,271,365079,1,8,2:3:0:0:
37,265,365156,5,8,3:3:0:0:
59,332,365232,1,8,2:2:0:0:
128,351,365309,1,8,2:2:0:0:
192,318,365386,1,8,2:2:0:0:
212,249,365463,1,8,2:2:0:0:
257,193,365540,1,8,2:2:0:0:
329,192,365617,2,0,L|359:263,1,59.9999981689454,8|8,3:3|2:2,0:0:0:0:
430,384,365771,5,8,2:2:0:0:
436,351,365848,1,8,2:2:0:0:
443,319,365925,1,8,2:2:0:0:
450,287,366002,1,8,2:2:0:0:
481,274,366079,5,8,3:3:0:0:
478,258,366156,1,8,2:2:0:0:
474,242,366232,1,8,2:2:0:0:
471,226,366309,1,8,2:2:0:0:
495,200,366386,5,4,3:3:0:0:
464,170,366462,1,0,3:3:0:0:
423,158,366539,1,0,3:3:0:0:
382,164,366616,1,0,3:3:0:0:
347,188,366693,1,10,3:2:0:0:
327,225,366770,1,0,3:3:0:0:
324,266,366847,1,0,3:3:0:0:
328,308,366924,1,0,3:3:0:0:
311,346,367001,1,2,3:2:0:0:
280,373,367078,1,2,3:2:0:0:
239,383,367155,1,2,3:2:0:0:
198,374,367232,1,0,3:3:0:0:
166,348,367309,1,8,3:3:0:0:
149,310,367386,1,0,3:3:0:0:
150,269,367463,1,2,3:2:0:0:
170,232,367540,1,2,3:2:0:0:
206,210,367617,5,2,3:2:0:0:
231,259,367694,1,0,3:3:0:0:
222,312,367771,1,2,3:2:0:0:
184,350,367848,1,0,3:3:0:0:
131,358,367925,1,8,3:3:0:0:
82,334,368002,1,0,3:3:0:0:
58,286,368079,1,2,3:2:0:0:
66,233,368156,1,0,3:3:0:0:
105,194,368232,1,0,3:3:0:0:
158,185,368309,1,0,3:3:0:0:
206,210,368386,1,2,3:2:0:0:
231,259,368463,1,0,3:3:0:0:
281,279,368540,1,8,3:3:0:0:
332,262,368617,1,0,3:3:0:0:
359,215,368694,2,0,L|341:132,1,59.9999981689454,2|2,3:2|3:2,0:0:0:0:
284,52,368848,5,2,3:2:0:0:
217,24,368925,1,0,3:3:0:0:
153,52,369002,1,2,3:2:0:0:
126,115,369079,1,2,3:2:0:0:
153,179,369156,1,10,3:2:0:0:
217,206,369232,1,0,3:3:0:0:
284,179,369309,1,0,3:3:0:0:
311,115,369386,1,0,3:3:0:0:
375,89,369462,1,2,3:2:0:0:
440,116,369539,1,2,3:2:0:0:
465,179,369616,1,2,3:2:0:0:
440,244,369693,1,0,3:3:0:0:
375,272,369771,2,0,L|353:195,3,59.9999981689454,8|2|2|2,3:3|3:2|3:2|3:2,0:0:0:0:
311,115,370079,5,8,2:2:0:0:
287,109,370156,1,8,2:3:0:0:
263,104,370232,1,0,3:3:0:0:
239,98,370309,1,0,3:3:0:0:
215,92,370386,1,8,2:3:0:0:
191,87,370463,1,8,2:3:0:0:
167,82,370540,2,0,L|186:151,1,59.9999981689454,0|0,3:3|3:3,0:0:0:0:
64,169,370694,5,4,3:1:0:0:
46,190,370797,5,0,3:0:0:0:
53,234,370899,5,0,3:0:0:0:
123,247,371002,6,0,B|140:224|170:226|170:226|149:232|136:245,2,79.9999975585938,4|0|0,3:1|3:0|3:0,3:0:0:0:
127,348,371309,5,4,3:3:0:0:
182,376,371385,1,0,3:3:0:0:
245,370,371462,1,0,3:3:0:0:
295,330,371539,1,0,3:3:0:0:
314,269,371616,1,8,3:3:0:0:
297,208,371693,1,0,3:3:0:0:
264,154,371770,1,4,3:1:0:0:
264,91,371847,1,0,3:3:0:0:
299,39,371924,1,0,3:3:0:0:
357,13,372001,1,0,3:3:0:0:
419,24,372078,1,4,3:1:0:0:
466,67,372155,1,0,3:3:0:0:
482,128,372232,2,0,L|460:203,3,59.9999981689454,8|0|0|0,3:3|3:3|3:3|3:3,0:0:0:0:
386,338,372540,5,2,3:2:0:0:
323,373,372617,1,0,3:3:0:0:
252,360,372694,1,2,3:2:0:0:
206,304,372771,1,0,3:3:0:0:
206,234,372848,1,8,3:3:0:0:
252,179,372925,1,0,3:3:0:0:
257,109,373002,1,4,3:1:0:0:
214,48,373079,1,0,3:3:0:0:
144,32,373156,1,0,3:3:0:0:
81,62,373232,1,0,3:3:0:0:
52,127,373309,1,4,3:1:0:0:
70,196,373386,1,0,3:3:0:0:
130,238,373463,1,8,3:3:0:0:
202,231,373540,1,0,3:3:0:0:
252,179,373617,1,0,3:3:0:0:
314,145,373694,1,0,3:3:0:0:
386,163,373771,6,0,L|397:238,1,59.9999981689454,2|0,3:2|3:3,0:0:0:0:
305,326,373925,2,0,L|314:255,1,59.9999981689454,2|0,3:2|3:3,0:0:0:0:
468,103,374079,2,0,L|393:87,1,59.9999981689454,8|0,3:3|3:3,0:0:0:0:
326,152,374232,2,0,L|261:168,1,59.9999981689454,4|0,3:1|3:3,0:0:0:0:
194,44,374386,1,8,2:2:0:0:
194,44,374463,1,8,2:2:0:0:
194,44,374540,2,0,P|171:73|162:106,1,59.9999981689454,0|0,3:3|3:3,0:0:0:0:
59,104,374694,5,8,2:2:0:0:
99,148,374771,1,8,2:2:0:0:
123,202,374848,1,0,3:3:0:0:
133,261,374925,1,0,3:3:0:0:
120,283,375002,5,8,3:3:0:0:
120,283,375925,5,0,0:0:0:0:
133,276,376002,1,0,0:0:0:0:
161,246,376078,5,0,0:0:0:0:
175,250,376155,1,0,0:0:0:0:
216,248,376232,5,0,0:0:0:0:
223,261,376309,1,0,0:0:0:0:
253,289,376386,5,0,0:0:0:0:
249,303,376463,1,0,0:0:0:0:
181,361,376540,5,12,2:3:0:0:
