osu file format v14

[General]
AudioFilename: audio.mp3
AudioLeadIn: 0
PreviewTime: 118402
Countdown: 0
SampleSet: Soft
StackLeniency: 0.4
Mode: 0
LetterboxInBreaks: 0
WidescreenStoryboard: 0

[Editor]
Bookmarks: 15939,27063,38187,49311,61826,72950,84074,95198,106322,118836,129960,143865,154989,166113,174456,185580,196704,207828,216866
DistanceSpacing: 1.3
BeatDivisor: 3
GridSize: 32
TimelineZoom: 1.6

[Metadata]
Title:MOON PRIDE
TitleUnicode:MOON PRIDE
Artist:Asano Ruri x Inui Toko x Shirakami Fubuki x Higuchi Kaede x Houshou Marine
ArtistUnicode:朝ノ瑠璃×戌亥とこ×白上フブキ×樋口楓×宝鐘マリン
Creator:-Aqua
Version:Moonlight
Source:美少女戦士セーラームーンCrystal
Tags:Virtual YouTuber VTuber ホロライブ hololive にじさんじ Nijisanji idol Full Version Anime Pop Rock Japanese ももいろクローバーZ Momoiro Clover Z Sailor Moon Crystal Single Opening Theme OP Cover Song Collab newton- J-pop Jpop J-rock Jrock Shiny Makeup Make-up Make up bongo
BeatmapID:2593548
BeatmapSetID:1247813

[Difficulty]
HPDrainRate:6
CircleSize:4
OverallDifficulty:8.7
ApproachRate:9.2
SliderMultiplier:1.6
SliderTickRate:1

[Events]
//Background and Video events
0,0,"bg.jpg",0,0
Video,0,"video.mp4"
//Break Periods
//Storyboard Layer 0 (Background)
//Storyboard Layer 1 (Fail)
//Storyboard Layer 2 (Pass)
//Storyboard Layer 3 (Foreground)
//Storyboard Layer 4 (Overlay)
//Storyboard Sound Samples

[TimingPoints]
2035,347.624565469293,4,2,1,50,1,0
2035,-111.111111111111,4,2,1,50,0,0
7596,-111.111111111111,4,2,1,60,0,0
10377,-100,4,2,1,50,0,0
15418,-100,4,2,1,60,0,0
15939,-100,4,2,1,70,0,0
25673,-125,4,2,1,60,0,0
27063,-125,4,2,1,50,0,0
38187,-125,4,2,1,55,0,0
43749,-100,4,2,1,55,0,0
45053,-100,4,2,1,5,0,0
45140,-100,4,2,1,55,0,0
46530,-100,4,2,1,70,0,0
49311,-86.9565217391304,4,2,1,60,0,0
49572,-86.9565217391304,4,2,1,5,0,0
49659,-86.9565217391304,4,2,1,60,0,0
56351,-86.9565217391304,4,2,1,5,0,0
56438,-86.9565217391304,4,2,1,60,0,0
58437,-86.9565217391304,4,2,1,5,0,0
58523,-86.9565217391304,4,2,1,60,0,0
59045,-74.0740740740741,4,2,1,70,0,0
59740,-86.9565217391304,4,2,1,70,0,0
60435,-86.9565217391304,4,2,1,60,0,0
61826,-83.3333333333333,4,2,1,85,0,1
61913,-83.3333333333333,4,2,1,85,0,0
62087,-83.3333333333333,4,2,1,5,0,0
62174,-83.3333333333333,4,2,1,85,0,0
64868,-83.3333333333333,4,2,1,5,0,0
64955,-83.3333333333333,4,2,1,85,0,0
67649,-83.3333333333333,4,2,1,5,0,0
67736,-83.3333333333333,4,2,1,85,0,0
70951,-83.3333333333333,4,2,1,5,0,0
71038,-83.3333333333333,4,2,1,85,0,0
71125,-83.3333333333333,4,2,1,5,0,0
71212,-83.3333333333333,4,2,1,85,0,0
71646,-83.3333333333333,4,2,1,5,0,0
71733,-83.3333333333333,4,2,1,85,0,0
72950,-95.2380952380952,4,2,1,70,0,0
73211,-95.2380952380952,4,2,1,5,0,0
73298,-95.2380952380952,4,2,1,70,0,0
77904,-95.2380952380952,4,2,1,5,0,0
77990,-95.2380952380952,4,2,1,70,0,0
78077,-95.2380952380952,4,2,1,5,0,0
78164,-95.2380952380952,4,2,1,70,0,0
78186,-95.2380952380952,4,2,0,70,0,0
78425,-95.2380952380952,4,2,1,5,0,0
78512,-95.2380952380952,4,2,1,70,0,0
79468,-95.2380952380952,4,2,1,5,0,0
79555,-95.2380952380952,4,2,1,70,0,0
84074,-125,4,2,1,50,0,0
93807,-100,4,2,1,60,0,0
95198,-90.9090909090909,4,2,1,60,0,0
100673,-90.9090909090909,4,2,1,5,0,0
100760,-105.263157894737,4,2,1,60,0,0
103541,-90.9090909090909,4,2,1,70,0,0
106322,-100,4,2,1,60,0,0
106583,-100,4,2,1,5,0,0
106669,-100,4,2,1,60,0,0
107104,-100,4,2,1,5,0,0
107191,-100,4,2,1,60,0,0
116055,-100,4,2,1,70,0,0
117446,-100,4,2,1,60,0,0
118836,-83.3333333333333,4,2,1,85,0,1
118923,-83.3333333333333,4,2,1,85,0,0
119619,-83.3333333333333,4,2,1,5,0,0
119705,-83.3333333333333,4,2,1,85,0,0
121878,-83.3333333333333,4,2,1,5,0,0
121965,-83.3333333333333,4,2,1,85,0,0
125181,-83.3333333333333,4,2,1,5,0,0
125267,-83.3333333333333,4,2,1,85,0,0
127092,-83.3333333333333,4,2,1,5,0,0
127179,-83.3333333333333,4,2,1,85,0,0
127440,-83.3333333333333,4,2,1,5,0,0
127527,-83.3333333333333,4,2,1,85,0,0
129960,-83.3333333333333,4,2,1,70,0,0
132741,-83.3333333333333,4,2,1,90,0,1
142475,-50,4,2,1,90,0,0
143257,-50,4,2,1,5,0,0
143344,-50,4,2,1,90,0,0
143431,-50,4,2,1,5,0,0
143518,-50,4,2,1,90,0,0
143778,-50,4,2,1,90,0,0
143865,-66.6666666666667,4,2,1,90,0,1
149340,-66.6666666666667,4,2,1,90,0,0
149427,-66.6666666666667,4,2,1,90,0,1
149775,-55.5555555555556,4,2,1,90,0,1
150470,-111.111111111111,4,2,1,90,0,1
150818,-55.5555555555556,4,2,1,90,0,1
151165,-111.111111111111,4,2,1,90,0,1
151513,-55.5555555555556,4,2,1,90,0,1
154642,-90.9090909090909,4,2,1,90,0,1
154902,-90.9090909090909,4,2,1,5,0,1
154989,-100,4,2,1,60,0,0
165331,-100,4,2,1,5,0,0
165418,-100,4,2,1,60,0,0
172979,-100,4,2,1,5,0,0
173066,-100,4,2,1,60,0,0
174456,-100,4,2,1,50,0,0
178454,-83.3333333333333,4,2,1,50,0,0
178715,-83.3333333333333,4,2,1,5,0,0
178802,-83.3333333333333,4,2,1,50,0,0
180018,-83.3333333333333,4,2,1,70,0,1
180105,-83.3333333333333,4,2,1,70,0,0
181496,-83.3333333333333,4,2,1,5,0,0
181583,-83.3333333333333,4,2,1,70,0,0
182712,-83.3333333333333,4,2,1,5,0,0
182799,-83.3333333333333,4,2,1,70,0,0
185580,-74.0740740740741,4,2,1,85,0,1
185667,-74.0740740740741,4,2,1,85,0,0
187058,-74.0740740740741,4,2,1,5,0,0
187145,-74.0740740740741,4,2,1,85,0,0
188622,-74.0740740740741,4,2,1,5,0,0
188709,-74.0740740740741,4,2,1,85,0,0
188796,-74.0740740740741,4,2,1,5,0,0
188883,-74.0740740740741,4,2,1,85,0,0
189839,-74.0740740740741,4,2,1,5,0,0
189926,-74.0740740740741,4,2,1,85,0,0
192620,-74.0740740740741,4,2,1,5,0,0
192707,-74.0740740740741,4,2,1,85,0,0
193836,-74.0740740740741,4,2,1,5,0,0
193923,-74.0740740740741,4,2,1,85,0,0
194184,-74.0740740740741,4,2,1,5,0,0
194271,-74.0740740740741,4,2,1,85,0,0
195401,-74.0740740740741,4,2,1,5,0,0
195488,-74.0740740740741,4,2,1,85,0,0
196704,-74.0740740740741,4,2,1,90,0,0
199485,-74.0740740740741,4,2,1,60,0,0
200876,-100,4,2,1,60,0,0
202266,-100,4,2,1,70,0,0
207828,-86.9565217391304,4,2,1,70,0,0
216171,-133.333333333333,4,2,1,60,0,0

[Colours]
Combo1 : 255,255,168
Combo2 : 168,168,255
Combo3 : 255,168,168
Combo4 : 168,255,168

[HitObjects]
64,128,2035,6,0,B|147:140|123:182|214:193,1,143.999995605469,2|0,0:0|0:0,0:0:0:0:
238,341,2556,2,0,B|321:329|297:287|388:276,1,143.999995605469,0|0,0:0|0:0,0:0:0:0:
512,60,3251,6,0,P|441:45|371:30,1,143.999995605469,2|0,0:0|0:0,0:0:0:0:
272,121,3773,1,0,0:0:0:0:
334,198,4120,1,0,0:0:0:0:
321,224,4468,1,0,0:0:0:0:
88,105,4815,6,0,P|102:61|195:73,1,143.999995605469,2|0,0:0|0:0,0:0:0:0:
311,243,5337,2,0,P|245:257|211:199,1,143.999995605469,0|0,0:0|0:0,0:0:0:0:
30,384,6032,6,0,P|72:365|166:338,1,143.999995605469,2|0,0:0|0:0,0:0:0:0:
239,192,6554,2,0,B|313:208|279:248|380:274,2,143.999995605469,0|0|0,0:0|0:0|0:0,0:0:0:0:
64,64,7596,5,6,1:2:0:0:
64,64,7944,1,0,1:0:0:0:
64,64,8292,1,0,1:0:0:0:
64,64,8639,1,0,1:0:0:0:
385,247,8987,5,6,1:2:0:0:
385,247,9335,1,0,1:0:0:0:
247,156,9682,1,2,1:2:0:0:
341,365,10030,1,2,1:2:0:0:
512,224,10377,6,0,B|419:231|455:279|349:287,1,160,6|0,1:2|0:0,0:0:0:0:
298,249,10899,1,0,0:0:0:0:
237,302,11073,1,2,0:0:0:0:
99,156,11594,5,0,0:0:0:0:
28,123,11768,2,0,P|89:111|196:89,1,160,2|0,0:0|0:0,0:0:0:0:
184,91,12289,1,0,0:0:0:0:
406,0,12463,6,0,P|396:58|373:172,1,160,2|0,0:0|0:0,0:0:0:0:
323,208,12985,1,0,0:0:0:0:
94,330,13158,6,0,B|150:314|150:314|171:279|171:279|254:257,1,160,2|0,0:0|0:0,0:0:0:0:
229,263,13680,1,0,0:0:0:0:
411,374,13854,6,0,P|356:358|321:350,1,80,2|0,0:0|0:0,0:0:0:0:
497,193,14201,1,0,0:0:0:0:
497,193,14375,2,0,P|442:209|407:217,1,80,0|2,0:0|0:0,0:0:0:0:
215,37,14897,5,2,0:0:0:0:
441,95,15244,1,2,0:0:0:0:
357,170,15418,1,0,1:0:0:0:
357,170,15505,1,0,1:0:0:0:
357,170,15592,1,8,0:0:0:0:
87,80,15939,5,6,1:2:0:0:
164,39,16113,1,2,0:0:0:0:
174,52,16200,1,2,0:0:0:0:
183,64,16287,2,0,P|192:102|184:146,1,80,8|2,0:0|0:0,0:0:0:0:
101,168,16635,5,2,0:0:0:0:
251,259,16809,1,2,1:2:0:0:
261,246,16896,1,2,0:0:0:0:
270,234,16983,2,0,P|279:196|271:152,1,80,10|2,0:0|0:0,0:0:0:0:
185,141,17330,5,2,1:2:0:0:
345,59,17504,1,2,0:0:0:0:
355,72,17591,1,2,0:0:0:0:
364,84,17678,2,0,P|373:122|365:166,1,80,10|2,0:0|0:0,0:0:0:0:
270,234,18025,5,2,0:0:0:0:
453,178,18199,2,0,L|456:217,1,40,2|2,1:2|0:0,0:0:0:0:
376,326,18373,2,0,P|367:288|375:244,1,80,10|0,0:0|0:0,0:0:0:0:
460,84,18720,5,2,1:2:0:0:
366,161,18894,1,2,0:0:0:0:
351,45,19068,1,10,0:0:0:0:
373,248,19242,1,2,0:0:0:0:
186,165,19416,1,2,0:0:0:0:
186,165,19503,1,2,0:0:0:0:
186,165,19590,1,2,1:2:0:0:
258,36,19763,2,0,P|258:75|257:115,1,80,10|2,0:0|0:0,0:0:0:0:
98,251,20111,6,0,P|96:171|98:91,2,160,6|8|2,1:2|0:0|0:0,0:0:0:0:
9,181,20980,1,2,1:2:0:0:
76,337,21154,1,10,0:0:0:0:
232,270,21328,1,2,0:0:0:0:
423,318,21501,5,6,1:2:0:0:
346,359,21675,1,2,0:0:0:0:
336,346,21762,1,2,0:0:0:0:
327,334,21849,2,0,P|318:296|326:252,1,80,10|2,0:0|0:0,0:0:0:0:
136,254,22196,5,2,0:0:0:0:
213,295,22370,1,2,1:2:0:0:
223,282,22457,1,2,0:0:0:0:
232,270,22544,2,0,P|241:232|233:188,1,80,10|2,0:0|0:0,0:0:0:0:
406,129,22892,5,2,1:2:0:0:
329,170,23066,1,2,0:0:0:0:
319,157,23153,1,2,0:0:0:0:
310,145,23240,2,0,P|301:107|309:63,1,80,10|2,0:0|0:0,0:0:0:0:
377,10,23587,5,2,0:0:0:0:
178,106,23761,2,0,L|217:109,1,40,2|2,1:2|0:0,0:0:0:0:
389,138,23935,2,0,L|309:144,1,80,10|0,0:0|0:0,0:0:0:0:
92,98,24282,5,2,1:2:0:0:
193,194,24456,1,2,0:0:0:0:
207,22,24630,5,10,0:0:0:0:
94,194,24804,1,2,0:0:0:0:
301,273,24978,5,10,0:0:0:0:
261,276,25065,1,10,0:0:0:0:
221,279,25152,1,10,0:0:0:0:
181,283,25239,1,10,0:0:0:0:
207,307,25325,5,2,1:2:0:0:
217,307,25412,1,0,1:0:0:0:
227,308,25499,1,2,1:2:0:0:
237,309,25586,1,0,1:2:0:0:
305,358,25673,5,10,1:2:0:0:
375,317,25847,5,2,0:0:0:0:
395,238,26021,5,2,0:0:0:0:
354,168,26194,5,2,0:0:0:0:
275,148,26368,5,2,0:0:0:0:
275,148,26542,1,2,0:0:0:0:
199,251,26716,2,0,P|201:219|198:187,1,64,8|2,0:0|0:0,0:0:0:0:
28,72,27063,6,0,B|97:81|68:121|153:133,1,128,6|0,1:2|0:0,0:0:0:0:
199,204,27585,2,0,B|268:195|239:155|324:143,1,128,0|0,1:2|1:0,0:0:0:0:
369,51,28106,2,0,P|384:90|393:117,1,64,0|0,0:0|0:0,0:0:0:0:
496,246,28454,6,0,P|480:311|467:381,1,128,2|0,1:2|0:0,0:0:0:0:
324,224,29149,2,0,P|342:266|348:291,1,64,2|0,0:0|1:0,0:0:0:0:
284,331,29497,1,10,0:0:0:0:
284,331,29671,1,2,0:0:0:0:
34,355,29844,6,0,B|83:340|83:340|96:313|96:313|155:291,1,128,2|0,1:2|0:0,0:0:0:0:
222,234,30366,2,0,B|173:219|173:219|160:192|160:192|101:170,1,128,0|0,1:2|1:0,0:0:0:0:
70,109,30887,1,2,0:0:0:0:
70,109,31061,1,0,0:0:0:0:
244,194,31235,6,0,P|298:178|385:162,1,128,2|0,1:2|0:0,0:0:0:0:
368,164,31756,1,2,0:0:0:0:
451,32,31930,2,0,P|404:15|366:-5,1,64,2|0,0:0|1:0,0:0:0:0:
317,218,32278,5,8,0:0:0:0:
383,274,32452,1,0,0:0:0:0:
491,369,32625,6,0,B|424:351|462:311|367:286,1,128,6|0,1:2|0:0,0:0:0:0:
299,135,33147,2,0,B|232:153|270:193|175:218,1,128,2|0,1:2|1:0,0:0:0:0:
141,278,33668,2,0,P|162:320|169:353,1,64,0|0,0:0|0:0,0:0:0:0:
0,164,34016,6,0,P|57:150|102:205,1,128,2|0,1:2|0:0,0:0:0:0:
104,200,34537,1,0,0:0:0:0:
205,45,34711,2,0,P|254:66|280:72,1,64,2|0,0:0|1:0,0:0:0:0:
310,182,35059,2,0,P|359:161|385:155,1,64,10|0,0:0|0:0,0:0:0:0:
462,0,35406,6,0,B|495:39|495:39|479:127,1,128,2|0,1:2|0:0,0:0:0:0:
390,255,35928,2,0,B|357:216|357:216|373:128,1,128,0|0,1:2|1:0,0:0:0:0:
370,140,36449,1,0,0:0:0:0:
190,33,36623,5,0,0:0:0:0:
101,98,36797,2,0,P|158:82|245:55,1,128,2|2,1:2|0:0,0:0:0:0:
273,125,37492,1,2,0:0:0:0:
155,281,37666,5,0,1:0:0:0:
192,350,37840,2,0,P|224:355|278:373,1,64,8|0,0:0|0:0,0:0:0:0:
398,324,38187,6,0,P|336:317|307:263,1,128,6|0,1:2|0:0,0:0:0:0:
389,106,38709,2,0,P|391:169|387:233,1,128,2|0,1:2|1:0,0:0:0:0:
246,204,39230,2,0,P|245:172|245:140,1,64,8|0,0:0|0:0,0:0:0:0:
202,32,39578,6,0,P|172:86|111:92,1,128,2|0,1:2|0:0,0:0:0:0:
38,47,40099,1,0,1:0:0:0:
9,271,40447,1,0,1:0:0:0:
72,217,40621,1,8,0:0:0:0:
142,260,40795,1,0,0:3:0:0:
84,359,40968,6,0,L|211:370,1,128,2|0,1:2|0:0,0:0:0:0:
310,325,41490,2,0,L|182:336,1,128,0|0,1:0|1:0,0:0:0:0:
243,244,42011,2,0,P|243:212|243:180,1,64,8|0,0:0|0:0,0:0:0:0:
336,72,42359,6,0,P|333:135|335:202,1,128,0|0,1:0|0:0,0:0:0:0:
434,316,42880,2,0,P|436:252|435:186,1,128,2|2,1:2|1:2,0:0:0:0:
432,165,43315,1,2,1:2:0:0:
429,142,43402,2,0,B|416:173|416:173|427:201,1,64,10|0,0:0|0:0,0:0:0:0:
345,348,43749,6,0,P|288:294|210:296,1,160,2|8,1:2|0:0,0:0:0:0:
123,328,44271,2,0,L|130:249,1,80,8|0,0:0|0:0,0:0:0:0:
302,267,44618,1,0,1:0:0:0:
302,267,44792,2,0,L|291:147,1,120,8|0,0:0|0:0,0:0:0:0:
287,103,45140,5,2,1:2:0:0:
214,208,45314,1,0,1:0:0:0:
378,146,45488,2,0,P|387:108|379:64,1,80,8|8,0:0|0:0,0:0:0:0:
454,234,45835,2,0,B|409:226|367:247|385:251|351:275|301:266,1,160,0|8,0:0|0:0,0:0:0:0:
432,326,46357,1,0,0:0:0:0:
215,250,46530,5,6,1:2:0:0:
158,316,46704,1,2,0:0:0:0:
244,332,46878,1,8,0:0:0:0:
58,152,47052,5,2,1:2:0:0:
129,234,47226,1,2,0:0:0:0:
21,254,47400,1,0,1:0:0:0:
251,33,47573,5,10,0:0:0:0:
165,132,47747,1,2,0:0:0:0:
294,156,47921,1,2,0:0:0:0:
414,41,48095,5,2,1:2:0:0:
397,49,48182,1,0,1:0:0:0:
379,56,48269,2,0,P|377:135|381:215,1,160,10|8,0:0|0:0,0:0:0:0:
456,364,48790,1,0,1:0:0:0:
467,182,48964,1,8,0:0:0:0:
304,263,49137,1,8,0:0:0:0:
287,260,49224,1,8,0:0:0:0:
272,258,49311,6,0,B|194:263|233:304|120:321,1,138.000002632141,6|0,1:2|0:0,0:0:0:0:
123,353,49659,1,8,0:0:0:0:
44,150,49833,6,0,B|154:162|98:227|214:239,1,184.000003509522,2|2,0:0|1:2,0:0:0:0:
386,52,50354,2,0,P|331:36|289:21,1,92.0000017547608,10|0,0:0|0:0,0:0:0:0:
201,132,50702,6,0,P|221:188|240:259,1,92.0000017547608,0|2,1:0|0:0,0:0:0:0:
230,219,51050,1,10,0:0:0:0:
437,335,51223,6,0,P|483:323|453:191,1,184.000003509522,0|2,1:2|1:2,0:0:0:0:
416,235,51745,1,10,0:0:0:0:
296,106,51919,5,2,0:0:0:0:
352,44,52092,2,0,P|335:117|304:234,1,184.000003509522,2|8,1:2|0:0,0:0:0:0:
140,331,52614,2,0,P|123:258|92:141,1,184.000003509522,2|0,0:2|1:0,0:0:0:0:
22,120,53135,5,10,0:0:0:0:
147,215,53309,1,0,0:0:0:0:
2,335,53483,6,0,P|54:313|94:302,1,92.0000017547608,2|0,1:2|0:0,0:0:0:0:
221,190,53831,2,0,P|273:212|313:223,1,92.0000017547608,10|0,0:2|0:0,0:0:0:0:
307,221,54178,1,2,1:2:0:0:
156,78,54352,5,0,1:0:0:0:
270,325,54526,1,10,0:0:0:0:
384,177,54700,1,2,0:0:0:0:
324,121,54873,6,0,P|350:199|389:306,1,184.000003509522,6|8,1:2|0:0,0:0:0:0:
502,65,55395,2,0,B|417:98|474:151|369:193,1,184.000003509522,2|0,0:0|1:0,0:0:0:0:
139,0,55916,5,8,0:0:0:0:
80,63,56090,2,0,B|161:79|112:122|209:141,1,138.000002632141,6|0,1:2|0:0,0:0:0:0:
202,174,56438,1,0,1:0:0:0:
369,360,56612,6,0,P|303:336|263:329,1,92.0000017547608,10|0,0:0|3:0,0:0:0:0:
262,343,56872,1,0,3:0:0:0:
262,343,56959,1,2,3:2:0:0:
143,225,57133,5,0,1:0:0:0:
252,157,57307,2,0,P|186:181|146:188,1,92.0000017547608,10|0,0:0|3:0,0:0:0:0:
434,8,57654,6,0,P|422:82|404:205,1,184.000003509522,2|8,1:2|0:0,0:0:0:0:
498,364,58176,2,0,B|448:318|448:318|342:351,1,138.000002632141,2|0,0:0|0:0,0:0:0:0:
363,360,58523,5,0,1:0:0:0:
283,234,58697,5,10,0:0:0:0:
210,311,58871,5,0,0:0:0:0:
94,101,59045,6,0,P|151:87|222:62,1,108.000000411987,10|0,0:0|0:0,0:0:0:0:
298,266,59393,2,0,P|355:280|426:305,1,108.000000411987,10|0,0:0|0:0,0:0:0:0:
470,224,59740,5,8,0:0:0:0:
465,201,59826,1,8,0:0:0:0:
460,178,59913,1,8,0:0:0:0:
455,156,60000,1,8,0:0:0:0:
428,129,60089,5,8,0:0:0:0:
431,118,60175,1,8,0:0:0:0:
433,107,60262,1,0,1:0:0:0:
303,0,60435,6,0,P|297:41|289:80,1,46.0000008773804,0|0,1:0|3:0,0:0:0:0:
232,98,60609,5,0,3:0:0:0:
209,117,60695,1,0,3:0:0:0:
179,126,60782,1,0,3:0:0:0:
149,123,60869,1,0,3:0:0:0:
123,107,60956,1,0,3:0:0:0:
106,82,61043,1,0,3:0:0:0:
108,53,61131,5,0,3:0:0:0:
153,51,61217,1,0,3:0:0:0:
191,75,61304,1,0,3:0:0:0:
209,117,61391,1,0,3:0:0:0:
196,168,61478,5,2,3:2:0:0:
216,217,61565,1,2,3:2:0:0:
263,246,61652,1,2,3:2:0:0:
317,244,61738,1,2,3:2:0:0:
369,188,61826,6,0,P|360:259|358:331,1,143.999995605469,6|0,1:2|0:0,0:0:0:0:
422,384,62174,1,8,0:0:0:0:
273,348,62347,2,0,L|177:356,1,95.9999970703126,2|0,0:0|0:0,0:0:0:0:
96,348,62695,2,0,L|191:339,1,95.9999970703126,0|8,1:0|0:0,0:0:0:0:
262,168,63043,6,0,P|223:243|116:225,1,191.999994140625,2|0,1:2|1:0,0:0:0:0:
37,84,63564,2,0,P|39:179|37:275,1,191.999994140625,8|2,0:0|1:2,0:0:0:0:
128,151,64085,1,0,1:0:0:0:
191,339,64259,2,0,P|235:355|284:346,1,95.9999970703126,8|0,0:0|0:0,0:0:0:0:
473,244,64607,6,0,L|329:256,1,143.999995605469,2|0,1:2|0:0,0:0:0:0:
244,263,64955,1,8,0:0:0:0:
368,339,65128,1,0,0:0:0:0:
477,156,65302,1,2,1:2:0:0:
440,125,65389,1,0,1:0:0:0:
392,129,65476,1,0,1:0:0:0:
244,178,65650,1,8,0:0:0:0:
54,75,65824,6,0,P|141:113|128:220,1,191.999994140625,2|0,1:2|1:0,0:0:0:0:
206,356,66345,2,0,P|205:308|208:260,1,95.9999970703126,8|0,0:0|0:0,0:0:0:0:
228,89,66693,1,10,0:0:0:0:
48,191,66867,1,8,0:0:0:0:
71,193,66953,1,8,0:0:0:0:
95,195,67040,1,0,1:0:0:0:
119,197,67127,1,0,1:0:0:0:
143,199,67214,1,0,1:0:0:0:
364,258,67388,6,0,P|330:196|261:185,1,143.999995605469,6|0,1:2|0:0,0:0:0:0:
208,260,67736,1,8,0:0:0:0:
455,298,67909,2,0,L|463:202,1,95.9999970703126,2|0,0:0|0:0,0:0:0:0:
455,121,68257,2,0,L|446:216,1,95.9999970703126,0|8,1:0|0:0,0:0:0:0:
185,358,68605,6,0,L|168:166,1,191.999994140625,2|0,1:2|1:0,0:0:0:0:
284,23,69126,2,0,L|268:215,1,191.999994140625,8|2,0:0|1:2,0:0:0:0:
76,174,69647,1,0,1:0:0:0:
193,90,69821,1,8,0:0:0:0:
360,283,69995,5,2,0:0:0:0:
323,314,70082,1,2,0:0:0:0:
275,310,70169,2,0,L|267:214,1,95.9999970703126,2|0,1:2|0:0,0:0:0:0:
362,105,70517,5,8,0:0:0:0:
458,342,70690,1,0,0:0:0:0:
424,170,70864,6,0,L|418:233,1,47.9999985351563,2|0,0:0|0:0,0:0:0:0:
279,357,71038,2,0,L|273:293,1,47.9999985351563,0|0,1:0|0:0,0:0:0:0:
215,145,71212,1,8,0:0:0:0:
25,241,71386,6,0,P|69:294|138:288,1,143.999995605469,2|0,1:2|0:0,0:0:0:0:
177,217,71733,1,0,1:0:0:0:
370,317,71907,2,0,L|274:308,1,95.9999970703126,8|0,0:0|0:0,0:0:0:0:
132,145,72255,5,8,0:0:0:0:
152,86,72341,1,8,0:0:0:0:
208,58,72428,1,8,0:0:0:0:
267,78,72515,1,8,0:0:0:0:
334,129,72602,5,8,3:0:0:0:
363,139,72689,1,8,3:0:0:0:
391,125,72776,1,4,3:0:0:0:
401,96,72862,1,0,1:0:0:0:
384,108,72950,6,0,B|320:136|355:174|269:210,1,125.999996154785,6|0,1:2|0:0,0:0:0:0:
288,223,73298,1,10,0:0:0:0:
339,279,73471,1,2,0:0:0:0:
190,381,73645,6,0,P|230:369|271:364,1,83.9999974365235,0|2,1:0|1:2,0:0:0:0:
271,364,73993,1,8,0:0:0:0:
209,213,74167,6,0,P|149:199|48:164,1,167.999994873047,2|2,0:0|0:0,0:0:0:0:
0,222,74688,1,8,0:0:0:0:
151,81,74862,5,2,3:2:0:0:
151,81,74949,1,8,0:0:0:0:
151,81,75036,2,0,P|160:131|133:181,1,83.9999974365235,2|0,1:2|1:0,0:0:0:0:
19,316,75383,2,0,P|10:266|37:216,1,83.9999974365235,10|2,0:2|0:0,0:0:0:0:
105,351,75731,5,4,1:2:0:0:
117,365,75905,1,2,0:0:0:0:
183,209,76079,5,8,0:0:0:0:
146,232,76252,1,2,0:0:0:0:
270,343,76426,5,4,1:2:0:0:
318,358,76600,1,2,0:0:0:0:
440,224,76774,5,8,0:0:0:0:
359,264,76948,1,2,3:2:0:0:
359,264,77034,1,0,3:0:0:0:
359,264,77121,6,0,P|400:254|442:246,1,83.9999974365235,6|2,1:2|0:0,0:0:0:0:
504,302,77469,1,10,0:0:0:0:
512,103,77817,6,0,P|468:89|455:81,1,41.9999987182618,2|0,1:2|0:0,0:0:0:0:
428,16,77990,2,0,P|408:23|387:27,1,41.9999987182618,6|0,3:0|0:0,0:0:0:0:
278,174,78164,6,8,P|343:157|375:212,1,125.999996154785,8|0,0:0|0:0,0:0:0:0:
360,227,78512,5,6,1:2:0:0:
292,327,78686,5,2,0:0:0:0:
263,371,78773,1,2,0:0:0:0:
211,384,78860,1,10,0:0:0:0:
165,356,78946,1,2,0:0:0:0:
168,335,79033,5,2,0:0:0:0:
171,314,79120,1,2,0:0:0:0:
174,293,79207,1,2,1:2:0:0:
0,130,79381,6,0,P|12:162|17:189,1,41.9999987182618,2|0,1:2|0:0,0:0:0:0:
89,211,79555,5,10,0:0:0:0:
116,195,79641,1,2,0:0:0:0:
145,182,79728,1,2,0:0:0:0:
174,170,79815,1,2,0:0:0:0:
204,160,79902,1,2,1:2:0:0:
416,89,80076,5,2,0:0:0:0:
424,47,80163,1,2,0:0:0:0:
401,11,80250,1,10,0:0:0:0:
287,206,80424,5,2,0:0:0:0:
279,248,80511,1,2,0:0:0:0:
302,284,80598,1,2,0:0:0:0:
426,358,80771,5,2,1:2:0:0:
411,326,80858,1,2,0:0:0:0:
437,284,80945,5,10,0:0:0:0:
445,240,81032,1,2,0:0:0:0:
402,189,81119,5,2,0:0:0:0:
381,124,81206,1,2,0:0:0:0:
472,110,81293,6,0,P|412:85|378:74,1,83.9999974365235,6|0,1:2|0:0,0:0:0:0:
263,286,81641,2,0,P|223:300|185:317,1,83.9999974365235,8|2,0:2|0:0,0:0:0:0:
70,270,81988,5,10,0:0:0:0:
40,224,82074,1,8,0:0:0:0:
57,173,82161,1,10,0:0:0:0:
108,154,82248,1,8,0:0:0:0:
111,164,82336,5,8,3:0:0:0:
114,174,82423,1,8,3:0:0:0:
117,184,82510,1,4,3:0:0:0:
120,194,82596,1,4,3:0:0:0:
204,235,82683,6,0,P|190:285|184:321,1,83.9999974365235,2|2,1:2|0:0,0:0:0:0:
29,208,83031,2,0,P|21:166|9:126,1,83.9999974365235,2|2,0:2|0:0,0:0:0:0:
90,74,83379,5,2,0:0:0:0:
90,74,83552,1,2,0:0:0:0:
195,225,83726,5,10,0:0:0:0:
117,337,83900,1,2,0:0:0:0:
283,287,84074,6,0,P|281:223|284:159,1,128,6|0,1:2|0:0,0:0:0:0:
371,79,84595,2,0,P|372:142|369:206,1,128,0|0,1:0|1:0,0:0:0:0:
451,293,85117,2,0,P|450:263|451:229,1,64,8|0,0:0|0:0,0:0:0:0:
373,347,85464,6,0,P|343:293|282:286,2,128,2|8|2,1:2|0:0|0:0,0:0:0:0:
192,314,86333,1,0,1:0:0:0:
192,314,86507,2,0,P|193:284|192:250,1,64,8|0,0:0|0:0,0:0:0:0:
119,170,86855,6,0,L|246:159,1,128,2|0,1:2|0:0,0:0:0:0:
153,82,87376,2,0,L|280:71,1,128,0|0,1:0|1:0,0:0:0:0:
456,123,87898,1,8,0:0:0:0:
456,123,88072,1,0,0:0:0:0:
369,159,88245,6,0,P|365:95|367:31,2,128,2|8|2,1:2|0:0|0:0,0:0:0:0:
443,319,89114,1,0,1:0:0:0:
409,240,89288,2,0,L|345:245,1,64,8|0,0:0|0:0,0:0:0:0:
234,322,89636,6,0,L|361:333,1,128,6|0,1:2|0:0,0:0:0:0:
276,171,90157,2,0,P|246:224|185:231,1,128,2|0,1:2|1:0,0:0:0:0:
67,332,90679,1,8,0:0:0:0:
151,311,90853,1,2,0:0:0:0:
129,158,91026,6,0,L|2:147,2,128,2|8|2,1:2|0:0|0:0,0:0:0:0:
203,54,91895,1,0,1:0:0:0:
203,54,92069,2,0,P|202:84|203:118,1,64,10|0,0:0|0:0,0:0:0:0:
285,13,92417,6,0,P|315:66|376:73,1,128,2|0,1:2|0:0,0:0:0:0:
468,16,92938,2,0,P|466:79|469:143,1,128,0|0,1:0|1:0,0:0:0:0:
379,225,93460,2,0,B|392:194|392:194|381:166,1,64,8|0,0:0|0:0,0:0:0:0:
265,313,93807,5,2,1:2:0:0:
465,246,93981,1,0,0:0:0:0:
294,154,94155,2,0,P|284:191|291:235,1,80,8|0,0:0|0:0,0:0:0:0:
349,346,94503,5,2,1:2:0:0:
197,198,94676,1,2,0:0:0:0:
122,255,94850,1,8,0:0:0:0:
290,231,95024,1,8,0:0:0:0:
292,214,95111,1,8,0:0:0:0:
294,199,95198,6,0,B|190:211|239:274|127:285,1,176.000005371094,6|8,1:2|0:0,0:0:0:0:
0,301,95719,2,0,B|104:313|55:376|167:387,1,176.000005371094,2|0,1:2|1:0,0:0:0:0:
214,340,96241,1,8,0:0:0:0:
476,309,96588,6,0,P|421:287|388:274,1,88.000002685547,2|0,1:2|1:0,0:0:0:0:
291,92,96936,1,8,0:0:0:0:
342,31,97110,6,0,P|320:112|290:214,1,176.000005371094,2|0,1:2|1:0,0:0:0:0:
224,237,97631,1,8,0:0:0:0:
224,237,97805,1,8,0:0:0:0:
30,177,97979,6,0,P|74:98|170:130,1,176.000005371094,2|8,1:2|0:0,0:0:0:0:
286,70,98500,2,0,P|242:-9|146:23,1,176.000005371094,2|0,1:2|1:0,0:0:0:0:
296,182,99022,2,0,P|353:163|382:159,1,88.000002685547,8|0,0:0|0:0,0:0:0:0:
429,84,99369,5,2,1:2:0:0:
429,84,99543,1,0,1:0:0:0:
335,267,99717,1,8,0:0:0:0:
506,364,99891,6,0,B|401:352|463:293|332:290,1,176.000005371094,2|0,1:2|1:0,0:0:0:0:
284,204,100412,2,0,B|193:227|258:251|151:284,1,132.00000402832,8|0,0:0|0:0,0:0:0:0:
137,336,100760,6,0,P|72:306|84:223,1,151.999995941162,2|8,1:2|0:0,0:0:0:0:
234,45,101281,2,0,P|218:137|203:213,1,151.999995941162,10|0,0:0|1:0,0:0:0:0:
206,194,101803,1,2,1:2:0:0:
408,361,102150,6,0,P|466:347|507:339,1,75.9999979705811,2|0,1:2|1:0,0:0:0:0:
408,208,102498,1,8,0:0:0:0:
370,139,102672,6,0,P|451:171|518:192,1,151.999995941162,2|0,1:2|1:0,0:0:0:0:
512,190,103193,1,8,0:0:0:0:
512,114,103367,1,0,0:0:0:0:
354,290,103541,6,0,P|301:314|265:335,1,88.000002685547,6|2,1:2|0:0,0:0:0:0:
213,274,103888,1,0,1:0:0:0:
13,117,104062,6,0,P|66:141|102:162,1,88.000002685547,10|2,0:2|0:0,0:0:0:0:
154,101,104409,1,0,1:0:0:0:
307,17,104584,6,0,P|320:103|326:140,2,88.000002685547,8|2|0,0:0|0:0|1:0,0:0:0:0:
100,275,105105,2,0,P|113:189|119:152,2,88.000002685547,8|2|0,0:0|0:0|1:0,0:0:0:0:
100,275,105627,1,8,0:0:0:0:
162,351,105800,5,8,0:0:0:0:
205,343,105886,1,8,0:0:0:0:
241,319,105973,1,8,0:0:0:0:
269,285,106060,1,8,0:0:0:0:
308,266,106147,1,8,0:0:0:0:
352,261,106234,1,8,0:0:0:0:
389,275,106322,6,0,P|389:215|390:155,1,120,6|0,1:2|0:0,0:0:0:0:
408,125,106669,1,8,0:0:0:0:
250,201,106843,2,0,P|250:141|248:81,1,120,2|0,0:0|0:0,0:0:0:0:
231,51,107190,1,2,1:2:0:0:
83,160,107365,2,0,P|121:169|165:161,1,80,10|0,0:0|0:0,0:0:0:0:
313,255,107712,5,0,1:0:0:0:
250,201,107886,1,2,0:0:0:0:
180,244,108060,1,10,0:0:0:0:
235,351,108234,2,0,B|190:343|148:364|166:368|132:392|82:383,1,160,0|2,1:2|1:2,0:0:0:0:
31,237,108755,2,0,L|24:316,1,80,10|2,0:0|0:0,0:0:0:0:
112,192,109103,6,0,P|111:112|115:32,1,160,2|8,1:2|0:0,0:0:0:0:
282,153,109624,2,0,L|203:146,1,80,2|0,0:2|0:0,0:0:0:0:
252,64,109972,1,0,1:0:0:0:
314,238,110146,1,10,0:0:0:0:
488,176,110320,1,0,0:0:0:0:
358,321,110493,6,0,P|301:267|224:277,2,160,2|10|2,1:2|0:2|1:2,0:0:0:0:
408,230,111362,1,0,1:0:0:0:
274,353,111536,1,10,0:0:0:0:
101,224,111710,5,2,0:0:0:0:
117,226,111797,1,2,0:0:0:0:
131,228,111884,2,0,P|140:266|132:310,1,80,6|0,1:2|0:0,0:0:0:0:
26,274,112231,1,8,0:0:0:0:
214,188,112405,2,0,P|213:108|217:28,1,160,2|0,0:0|1:0,0:0:0:0:
124,142,112927,1,8,0:0:0:0:
317,55,113101,6,0,L|476:68,1,160,6|0,1:2|1:0,0:0:0:0:
306,145,113622,2,0,P|307:185|306:225,1,80,10|0,0:0|3:0,0:0:0:0:
470,185,113970,1,2,3:2:0:0:
390,150,114143,1,0,1:0:0:0:
384,265,114317,2,0,L|463:272,1,80,10|0,0:0|3:0,0:0:0:0:
236,367,114665,6,0,P|229:327|238:289,1,80,2|0,1:2|0:0,0:0:0:0:
305,223,115012,1,8,0:0:0:0:
145,362,115186,2,0,P|88:308|11:318,1,160,2|0,0:0|1:0,0:0:0:0:
163,243,115708,1,10,0:0:0:0:
37,187,115882,1,0,0:0:0:0:
177,48,116055,5,10,0:0:0:0:
125,164,116229,1,0,0:0:0:0:
259,249,116403,5,10,0:0:0:0:
207,133,116577,1,0,0:0:0:0:
369,35,116751,5,8,0:0:0:0:
333,53,116837,1,8,0:0:0:0:
308,84,116924,1,8,3:0:0:0:
297,122,117011,1,8,3:0:0:0:
301,161,117098,1,4,3:0:0:0:
310,161,117184,1,4,3:0:0:0:
320,162,117271,1,0,1:0:0:0:
330,163,117358,1,0,1:0:0:0:
340,163,117446,2,0,L|383:166,2,40,0|0|0,1:0|3:0|3:0,0:0:0:0:
365,274,117793,6,0,P|395:248|434:243,1,80,2|2,3:2|0:0,0:0:0:0:
317,355,118054,1,2,0:0:0:0:
317,355,118141,5,0,3:0:0:0:
272,357,118228,1,0,3:0:0:0:
234,333,118315,1,0,3:0:0:0:
216,291,118402,1,0,3:0:0:0:
233,239,118489,5,2,3:2:0:0:
215,197,118576,1,2,3:2:0:0:
177,173,118663,1,2,3:2:0:0:
132,175,118750,1,2,3:2:0:0:
50,232,118836,6,0,P|107:214|149:206,1,95.9999970703126,6|0,1:2|0:0,0:0:0:0:
218,30,119184,1,8,0:0:0:0:
141,50,119358,6,0,P|225:74|297:101,1,143.999995605469,2|0,1:2|0:0,0:0:0:0:
288,115,119705,1,0,1:0:0:0:
209,343,119879,5,8,0:0:0:0:
155,293,120053,2,0,B|252:298|224:367|330:376,1,191.999994140625,2|0,1:2|1:0,0:0:0:0:
407,212,120574,5,8,0:0:0:0:
341,134,120748,1,8,0:0:0:0:
341,134,120835,1,8,0:0:0:0:
341,134,120922,2,0,P|354:186|369:239,1,95.9999970703126,2|0,1:2|1:0,0:0:0:0:
512,69,121270,2,0,P|499:121|484:174,1,95.9999970703126,8|0,0:2|0:0,0:0:0:0:
302,28,121617,6,0,P|231:30|215:114,1,143.999995605469,2|0,1:2|0:0,0:0:0:0:
239,100,121965,1,8,0:0:0:0:
239,100,122139,1,2,0:0:0:0:
365,226,122313,5,0,1:0:0:0:
313,294,122486,1,0,1:0:0:0:
280,214,122660,1,8,0:0:0:0:
447,305,122834,6,0,P|372:323|255:356,1,191.999994140625,2|0,1:2|1:0,0:0:0:0:
118,201,123355,1,8,0:0:0:0:
178,150,123529,5,0,1:0:0:0:
178,150,123616,1,0,1:0:0:0:
178,150,123703,2,0,P|157:229|141:275,1,95.9999970703126,2|8,1:2|0:0,0:0:0:0:
85,273,123964,1,4,3:0:0:0:
85,273,124051,1,0,1:0:0:0:
117,342,124225,1,8,0:0:0:0:
306,216,124398,6,0,P|327:295|343:341,1,95.9999970703126,6|0,1:2|0:0,0:0:0:0:
331,308,124746,1,8,0:0:0:0:
480,128,124920,6,0,B|411:102|447:66|355:40,1,143.999995605469,2|0,0:0|0:0,0:0:0:0:
351,62,125267,1,0,1:0:0:0:
185,256,125441,5,8,0:0:0:0:
111,241,125615,2,0,P|174:219|294:173,1,191.999994140625,2|0,1:2|1:2,0:0:0:0:
290,174,126136,1,8,0:0:0:0:
168,55,126310,5,8,0:0:0:0:
168,55,126397,1,8,0:0:0:0:
168,55,126484,2,0,P|114:45|54:24,1,95.9999970703126,2|0,1:2|1:0,0:0:0:0:
0,198,126832,2,0,P|-11:253|65:299,1,143.999995605469,8|0,0:0|0:0,0:0:0:0:
133,322,127179,6,0,B|48:327|93:374|-12:388,1,143.999995605469,2|0,1:2|0:0,0:0:0:0:
0,369,127527,1,10,0:0:0:0:
88,384,127701,1,0,0:0:0:0:
181,197,127875,6,0,P|222:178|277:151,1,95.9999970703126,2|0,0:0|1:0,0:0:0:0:
317,208,128222,1,8,0:0:0:0:
454,370,128396,6,0,P|388:344|273:307,1,191.999994140625,2|0,1:2|1:0,0:0:0:0:
272,306,128917,1,8,0:0:0:0:
440,219,129265,5,8,0:0:0:0:
481,197,129351,1,8,0:0:0:0:
497,153,129438,1,8,0:0:0:0:
479,110,129525,1,8,0:0:0:0:
412,66,129614,5,10,0:0:0:0:
386,53,129700,1,10,0:0:0:0:
377,26,129787,1,8,3:0:0:0:
388,0,129874,1,4,3:0:0:0:
475,13,129960,5,14,1:2:0:0:
297,67,130134,1,2,0:0:0:0:
268,51,130308,1,2,1:2:0:0:
40,97,130482,5,10,0:0:0:0:
218,151,130656,1,2,0:0:0:0:
247,135,130830,1,2,1:2:0:0:
479,177,131003,5,10,0:0:0:0:
301,231,131177,1,2,0:0:0:0:
272,215,131351,1,2,1:2:0:0:
44,261,131525,5,10,0:0:0:0:
222,315,131699,1,2,0:0:0:0:
251,299,131873,1,2,1:2:0:0:
247,135,132046,5,8,0:0:0:0:
227,122,132133,1,8,0:0:0:0:
203,116,132220,1,8,0:0:0:0:
180,117,132307,1,8,0:0:0:0:
157,124,132394,1,8,3:0:0:0:
137,138,132481,1,8,3:0:0:0:
122,156,132568,1,4,3:0:0:0:
114,179,132655,1,4,3:0:0:0:
112,203,132741,6,0,L|103:107,1,95.9999970703126,6|0,1:2|0:0,0:0:0:0:
207,68,133002,1,2,0:0:0:0:
207,68,133089,2,0,L|202:115,1,47.9999985351563,8|0,0:0|0:0,0:0:0:0:
140,258,133263,2,0,L|144:210,1,47.9999985351563,2|0,0:0|0:0,0:0:0:0:
12,174,133437,6,0,P|3:223|15:273,1,95.9999970703126,2|0,0:0|1:0,0:0:0:0:
108,340,133697,1,2,0:0:0:0:
108,340,133784,2,0,L|155:344,1,47.9999985351563,8|0,0:0|0:0,0:0:0:0:
279,239,133958,2,0,L|231:243,1,47.9999985351563,2|0,0:0|0:0,0:0:0:0:
364,364,134132,6,0,P|369:268|365:173,2,191.999994140625,2|8|0,1:2|0:0|1:0,0:0:0:0:
364,364,135175,1,10,0:0:0:0:
462,212,135349,1,2,0:0:0:0:
267,160,135522,6,0,B|329:171|372:141|349:136|402:109|458:119,1,191.999994140625,6|8,1:2|0:0,0:0:0:0:
328,52,136044,1,0,0:0:0:0:
159,128,136218,5,2,1:2:0:0:
184,146,136333,1,2,0:0:0:0:
196,171,136449,1,2,0:0:0:0:
145,238,136565,5,10,0:0:0:0:
127,281,136681,1,2,0:0:0:0:
135,325,136797,1,2,0:0:0:0:
179,245,136913,5,2,1:2:0:0:
169,165,137029,1,2,0:0:0:0:
159,86,137145,1,2,0:0:0:0:
57,25,137260,5,10,0:2:0:0:
54,45,137376,1,2,0:0:0:0:
52,64,137492,1,2,0:0:0:0:
76,112,137608,5,0,1:2:0:0:
60,308,137782,1,0,1:0:0:0:
238,224,137956,1,8,0:0:0:0:
238,224,138303,5,2,1:2:0:0:
354,286,138477,1,2,0:0:0:0:
456,201,138651,5,10,0:0:0:0:
418,214,138738,2,0,L|339:196,1,79.9999975585938,2|2,0:0|0:0,0:0:0:0:
269,151,138999,5,2,1:2:0:0:
267,135,139085,1,2,0:0:0:0:
266,119,139172,1,2,1:2:0:0:
265,103,139259,1,2,0:0:0:0:
232,72,139346,6,0,L|228:120,3,47.9999985351563,10|2|2|2,0:0|0:0|0:0|0:0,0:0:0:0:
162,189,139694,5,2,1:2:0:0:
144,147,139781,1,2,0:0:0:0:
106,123,139868,1,2,0:0:0:0:
61,125,139955,1,2,0:0:0:0:
70,149,140041,5,10,0:0:0:0:
28,167,140128,1,2,0:0:0:0:
4,205,140215,1,2,0:0:0:0:
6,250,140302,1,10,0:0:0:0:
30,241,140389,5,2,1:2:0:0:
48,283,140476,1,2,0:0:0:0:
86,307,140563,1,2,1:2:0:0:
131,305,140650,1,2,0:2:0:0:
153,326,140737,5,10,0:0:0:0:
171,284,140824,1,2,0:0:0:0:
209,260,140911,1,2,0:0:0:0:
254,262,140998,1,2,0:0:0:0:
332,324,141084,5,2,1:2:0:0:
332,324,141171,1,2,0:0:0:0:
332,324,141258,2,0,L|340:228,1,95.9999970703126,2|10,0:0|0:0,0:0:0:0:
372,166,141519,1,2,0:0:0:0:
372,166,141606,2,0,L|367:213,1,47.9999985351563,2|2,0:0|0:0,0:0:0:0:
426,384,141780,6,0,P|435:337|427:290,1,95.9999970703126,2|0,1:2|1:0,0:0:0:0:
278,159,142040,1,2,0:0:0:0:
278,159,142127,2,0,P|269:111|279:65,1,95.9999970703126,10|0,0:0|0:0,0:0:0:0:
491,168,142475,6,0,B|378:147|357:216|348:267|301:287|209:271,1,320,2|10,1:2|0:0,0:0:0:0:
225,9,142996,1,2,0:0:0:0:
225,9,143083,1,2,0:0:0:0:
225,9,143170,2,0,P|267:43|282:73,1,80,2|0,1:2|0:0,0:0:0:0:
363,117,143344,2,0,P|354:170|336:198,1,80,0|0,1:0|0:0,0:0:0:0:
346,318,143518,2,0,P|288:267|210:271,1,160,10|0,0:0|0:0,0:0:0:0:
39,242,143865,5,6,1:2:0:0:
82,259,143951,1,2,0:0:0:0:
126,242,144038,1,2,0:0:0:0:
147,200,144125,1,2,0:0:0:0:
128,177,144213,5,10,0:0:0:0:
140,132,144300,1,2,0:0:0:0:
119,90,144387,1,2,0:0:0:0:
75,73,144474,1,2,0:0:0:0:
4,118,144561,6,0,P|38:109|66:106,1,60.0000022888184,2|2,1:2|0:0,0:0:0:0:
149,0,144734,2,0,P|183:9|211:12,1,60.0000022888184,2|2,1:2|0:0,0:0:0:0:
256,224,144908,6,0,P|285:227|314:235,1,60.0000022888184,10|2,0:0|0:0,0:0:0:0:
400,128,145082,2,0,P|430:125|459:117,1,60.0000022888184,2|2,0:0|0:0,0:0:0:0:
357,73,145256,5,2,1:2:0:0:
372,119,145342,1,2,0:0:0:0:
386,165,145429,1,2,0:0:0:0:
400,212,145516,1,2,0:0:0:0:
448,238,145603,5,10,0:0:0:0:
435,274,145689,1,2,0:0:0:0:
424,312,145776,1,2,0:0:0:0:
413,349,145863,1,10,0:0:0:0:
378,367,145951,5,2,1:2:0:0:
349,356,146037,1,2,0:0:0:0:
318,347,146124,1,2,1:2:0:0:
289,339,146211,1,2,0:0:0:0:
275,316,146299,5,10,0:0:0:0:
251,324,146385,1,2,0:0:0:0:
227,331,146472,1,2,0:0:0:0:
203,338,146559,1,2,0:0:0:0:
184,366,146646,6,0,P|234:352|267:345,1,60.0000022888184,2|2,1:2|0:0,0:0:0:0:
319,248,146820,2,0,P|289:240|261:232,1,60.0000022888184,2|2,0:0|0:0,0:0:0:0:
172,71,146995,5,10,0:0:0:0:
114,71,147081,1,2,0:0:0:0:
84,120,147168,1,2,0:0:0:0:
109,172,147255,1,2,0:0:0:0:
190,198,147342,5,2,1:2:0:0:
230,198,147428,1,2,0:0:0:0:
251,232,147515,1,2,1:2:0:0:
234,268,147602,1,2,0:0:0:0:
163,311,147689,5,10,0:0:0:0:
135,311,147775,1,2,0:0:0:0:
120,334,147862,1,2,0:0:0:0:
132,360,147949,1,2,0:0:0:0:
207,384,148037,6,0,P|249:370|281:366,1,60.0000022888184,2|2,1:2|0:0,0:0:0:0:
382,173,148211,2,0,P|411:179|439:189,1,60.0000022888184,2|2,0:0|0:0,0:0:0:0:
404,215,148384,5,10,0:0:0:0:
357,238,148470,1,2,0:0:0:0:
307,223,148557,1,2,0:0:0:0:
282,178,148644,1,2,0:0:0:0:
257,88,148733,5,10,0:0:0:0:
229,37,148820,1,10,0:0:0:0:
173,21,148907,1,10,0:0:0:0:
121,46,148993,1,10,0:0:0:0:
59,109,149080,5,2,1:2:0:0:
74,143,149167,1,2,1:2:0:0:
139,201,149254,5,2,1:2:0:0:
122,245,149340,1,2,1:2:0:0:
30,352,149427,5,6,1:2:0:0:
53,292,149513,1,2,0:0:0:0:
113,267,149600,1,2,0:0:0:0:
171,293,149687,1,2,0:0:0:0:
207,384,149775,6,0,P|154:366|132:359,1,71.9999978027344,10|2,0:0|0:0,0:0:0:0:
0,191,149949,2,0,P|34:179|68:168,1,71.9999978027344,2|2,1:2|0:0,0:0:0:0:
304,36,150123,5,10,0:0:0:0:
291,99,150209,1,2,0:0:0:0:
280,163,150296,1,2,1:2:0:0:
272,227,150383,1,2,0:0:0:0:
267,251,150470,6,0,P|207:229|159:215,1,71.9999978027344,10|0,0:0|1:0,0:0:0:0:
1,63,150818,5,10,0:0:0:0:
54,96,150904,1,2,0:0:0:0:
115,80,150991,1,2,1:2:0:0:
147,25,151078,1,2,0:0:0:0:
125,9,151165,6,0,P|147:69|161:117,1,71.9999978027344,10|0,0:0|1:0,0:0:0:0:
219,255,151513,5,10,0:0:0:0:
251,310,151600,1,2,0:0:0:0:
312,326,151687,1,2,0:0:0:0:
365,293,151773,1,2,0:0:0:0:
345,268,151861,5,10,0:0:0:0:
394,257,151947,1,2,0:0:0:0:
420,212,152034,1,2,1:2:0:0:
407,165,152121,1,2,0:0:0:0:
342,114,152208,5,10,0:0:0:0:
296,128,152294,1,2,0:0:0:0:
250,142,152382,2,0,L|275:220,1,71.9999978027344,2|2,0:0|0:0,0:0:0:0:
224,288,152557,5,10,0:0:0:0:
176,276,152644,1,2,0:0:0:0:
130,262,152731,1,2,1:2:0:0:
84,248,152817,1,2,0:0:0:0:
27,190,152904,6,0,P|47:283|65:357,1,143.999995605469,10|2,0:0|1:2,0:0:0:0:
202,257,153164,1,2,1:2:0:0:
242,236,153251,2,0,P|225:306|210:376,1,143.999995605469,10|0,0:0|0:2,0:0:0:0:
178,264,153599,5,10,0:0:0:0:
242,236,153685,1,10,0:0:0:0:
308,259,153772,1,10,0:0:0:0:
341,321,153859,1,10,0:0:0:0:
365,347,153946,5,2,1:2:0:0:
409,365,154032,1,2,1:2:0:0:
456,349,154119,1,2,1:2:0:0:
479,306,154206,1,2,1:2:0:0:
461,271,154294,5,10,0:0:0:0:
451,249,154381,1,0,1:0:0:0:
315,135,154555,5,0,1:0:0:0:
325,113,154642,2,0,P|408:136|489:157,1,132.00000402832,8|0,0:0|0:0,0:0:0:0:
428,128,154989,6,0,B|383:120|341:141|359:145|325:169|275:160,1,160,6|8,1:2|0:0,0:0:0:0:
185,66,155511,2,0,P|186:145|184:225,1,160,2|2,1:2|1:2,0:0:0:0:
104,113,156032,1,8,0:0:0:0:
34,155,156206,1,2,0:0:0:0:
86,258,156380,6,0,P|162:249|218:302,1,160,2|8,1:2|0:0,0:0:0:0:
396,224,156901,2,0,L|402:303,1,80,0|0,1:0|0:0,0:0:0:0:
303,353,157249,2,0,L|310:274,1,80,0|10,1:0|0:0,0:0:0:0:
487,254,157596,1,2,0:0:0:0:
322,133,157770,6,0,L|481:146,1,160,2|8,1:2|0:0,0:0:0:0:
293,49,158292,2,0,P|239:106|249:183,1,160,0|2,1:0|1:2,0:0:0:0:
151,262,158813,2,0,P|151:222|150:182,1,80,8|0,0:0|0:0,0:0:0:0:
63,224,159161,5,0,1:0:0:0:
238,265,159335,1,0,1:0:0:0:
25,356,159508,2,0,L|184:343,1,160,14|2,0:0|1:2,0:0:0:0:
325,261,160030,1,0,1:0:0:0:
151,183,160204,2,0,P|150:222|151:262,1,80,12|0,0:0|0:0,0:0:0:0:
279,133,160551,6,0,B|234:141|192:120|210:116|176:92|126:101,1,160,6|8,1:2|0:0,0:0:0:0:
259,39,161073,2,0,L|418:52,1,160,2|2,1:2|1:2,0:0:0:0:
362,134,161594,1,8,0:0:0:0:
504,87,161768,1,2,0:0:0:0:
506,270,161942,6,0,P|449:216|372:226,1,160,2|8,1:2|0:0,0:0:0:0:
283,340,162463,2,0,L|289:260,1,80,2|0,1:2|0:0,0:0:0:0:
190,210,162811,2,0,L|196:289,1,80,2|8,1:2|0:0,0:0:0:0:
375,312,163158,1,0,0:0:0:0:
338,138,163332,6,0,L|179:125,1,160,2|8,1:2|0:0,0:0:0:0:
54,240,163854,2,0,P|52:160|53:80,1,160,0|2,1:0|1:2,0:0:0:0:
139,48,164375,1,8,0:0:0:0:
19,165,164549,1,0,0:0:0:0:
249,212,164723,5,2,1:2:0:0:
249,212,164897,1,0,1:0:0:0:
84,262,165070,2,0,P|152:262|187:315,1,120,14|0,0:0|0:0,0:0:0:0:
185,342,165418,6,0,P|209:350|246:367,3,40,0|0|0|0,1:0|1:0|1:0|1:0,0:0:0:0:
320,323,165766,5,2,1:2:0:0:
352,281,165853,1,2,1:2:0:0:
354,225,165940,1,2,1:2:0:0:
325,180,166026,1,2,1:2:0:0:
291,169,166113,6,0,P|245:192|195:205,1,80,6|0,1:2|0:0,0:0:0:0:
217,200,166461,1,8,0:0:0:0:
9,281,166635,6,0,B|94:293|51:338|157:358,1,160,2|2,1:2|1:2,0:0:0:0:
216,326,167156,1,8,0:0:0:0:
380,381,167330,6,0,P|441:355|410:261,1,160,6|0,1:2|1:0,0:0:0:0:
301,100,167851,1,8,0:0:0:0:
373,45,168025,6,0,P|341:115|310:207,1,160,6|0,1:2|1:0,0:0:0:0:
249,251,168547,1,8,0:0:0:0:
249,251,168720,1,0,0:0:0:0:
97,372,168894,6,0,P|70:296|37:223,1,160,6|8,1:2|0:0,0:0:0:0:
151,29,169416,6,0,P|200:64|141:147,1,160,6|0,1:2|1:0,0:0:0:0:
166,143,169937,1,8,0:0:0:0:
318,297,170111,6,0,B|396:286|352:222|469:202,1,160,6|0,1:2|1:0,0:0:0:0:
494,266,170632,1,8,0:0:0:0:
512,59,170806,6,0,P|456:93|430:104,1,80,2|0,1:2|0:0,0:0:0:0:
296,204,171154,5,0,1:0:0:0:
326,212,171241,1,0,1:0:0:0:
353,224,171328,1,8,0:0:0:0:
398,283,171501,1,2,0:0:0:0:
209,67,171675,5,8,0:0:0:0:
137,311,171849,1,8,0:0:0:0:
399,379,172023,5,8,0:0:0:0:
358,260,172197,1,8,0:0:0:0:
284,227,172544,5,8,0:0:0:0:
284,227,172631,1,8,0:0:0:0:
284,227,172718,1,0,1:0:0:0:
79,354,172892,6,0,P|106:342|130:331,1,40,2|0,1:2|0:2,0:0:0:0:
201,366,173935,5,0,1:0:0:0:
201,366,174022,1,0,1:0:0:0:
201,366,174109,2,0,L|190:319,3,40,10|2|2|2,0:0|0:0|0:0|0:0,0:0:0:0:
240,261,174456,5,2,1:2:0:0:
284,337,174804,1,0,1:0:0:0:
284,337,174978,1,0,0:0:0:0:
368,359,175325,1,0,0:0:0:0:
444,315,175674,1,2,0:0:0:0:
466,231,176021,1,0,0:0:0:0:
466,231,176194,1,0,1:0:0:0:
422,155,176543,1,2,1:2:0:0:
338,133,176890,1,2,1:2:0:0:
262,177,177237,1,2,1:2:0:0:
240,261,177586,1,0,1:0:0:0:
240,261,177759,1,0,0:0:0:0:
240,261,177933,1,2,1:2:0:0:
156,239,178280,1,0,1:0:0:0:
126,119,178454,6,0,P|132:190|132:262,1,143.999995605469,10|0,0:0|0:0,0:0:0:0:
93,334,178802,1,8,0:0:0:0:
38,142,178975,2,0,P|35:91|37:44,1,95.9999970703126,0|0,0:0|1:0,0:0:0:0:
219,190,179323,1,8,0:0:0:0:
381,89,179497,5,8,0:0:0:0:
354,61,179584,1,8,0:0:0:0:
319,47,179671,1,8,0:0:0:0:
281,52,179758,1,8,0:0:0:0:
249,73,179845,1,8,0:0:0:0:
229,106,179931,1,8,0:0:0:0:
219,190,180018,6,0,L|235:382,1,191.999994140625,6|8,1:2|0:0,0:0:0:0:
324,166,180540,2,0,L|315:261,1,95.9999970703126,2|0,1:2|0:0,0:0:0:0:
385,320,180887,1,0,1:0:0:0:
385,320,181061,1,8,0:0:0:0:
148,134,181235,6,0,P|79:127|34:180,1,143.999995605469,2|0,1:2|0:0,0:0:0:0:
81,249,181583,1,0,1:0:0:0:
227,10,181756,2,0,P|226:58|229:106,1,95.9999970703126,8|0,0:0|0:0,0:0:0:0:
315,261,182104,2,0,P|316:213|313:165,1,95.9999970703126,2|0,1:2|1:0,0:0:0:0:
340,12,182452,2,0,P|342:53|456:113,1,143.999995605469,8|0,0:0|0:0,0:0:0:0:
485,65,182799,5,2,1:2:0:0:
441,201,182973,1,0,0:0:0:0:
423,324,183147,5,8,0:0:0:0:
467,188,183321,1,0,0:0:0:0:
270,243,183495,2,0,L|365:251,1,95.9999970703126,2|0,1:2|1:0,0:0:0:0:
230,324,183842,1,8,0:0:0:0:
140,161,184016,2,0,P|143:256|141:352,1,191.999994140625,2|0,1:2|1:0,0:0:0:0:
51,179,184537,2,0,P|48:131|49:83,1,95.9999970703126,8|0,0:0|0:0,0:0:0:0:
236,214,184885,5,8,0:0:0:0:
277,227,184971,1,8,0:0:0:0:
320,214,185058,1,8,0:0:0:0:
349,178,185145,1,8,0:0:0:0:
366,204,185232,5,2,1:2:0:0:
397,161,185319,1,2,1:2:0:0:
450,146,185406,1,2,1:2:0:0:
501,162,185492,1,2,1:2:0:0:
507,205,185580,6,0,P|498:259|484:382,1,162.000000617981,6|0,1:2|0:0,0:0:0:0:
439,384,185928,1,8,0:0:0:0:
241,264,186102,5,0,1:0:0:0:
241,264,186189,1,0,1:0:0:0:
241,264,186276,2,0,B|286:231|286:231|361:238,1,108.000000411987,8|0,0:0|1:0,0:0:0:0:
337,235,186623,1,8,0:0:0:0:
123,384,186797,6,0,B|52:363|106:291|-4:260,1,162.000000617981,6|0,1:2|0:0,0:0:0:0:
16,226,187145,1,2,0:0:0:0:
281,187,187318,6,0,P|222:167|167:139,1,108.000000411987,8|0,0:0|1:0,0:0:0:0:
145,171,187579,1,0,1:0:0:0:
145,171,187666,5,8,0:0:0:0:
346,115,187840,1,0,1:0:0:0:
382,3,188014,5,8,0:0:0:0:
507,55,188187,1,0,1:0:0:0:
301,271,188361,6,0,P|310:186|321:95,1,162.000000617981,6|2,1:2|0:0,0:0:0:0:
209,4,188709,6,0,P|200:50|194:86,1,54.0000002059937,8|0,0:0|0:0,0:0:0:0:
63,229,188883,1,8,0:0:0:0:
63,229,188970,1,8,0:0:0:0:
63,229,189057,2,0,P|122:206|183:189,1,108.000000411987,2|0,1:2|1:0,0:0:0:0:
164,193,189403,1,8,0:0:0:0:
458,298,189578,6,0,B|373:314|410:368|311:386,1,162.000000617981,6|0,1:2|0:0,0:0:0:0:
291,354,189926,1,0,1:0:0:0:
425,79,190099,6,0,P|409:168|402:208,1,108.000000411987,8|2,0:0|0:0,0:0:0:0:
289,305,190447,5,8,0:0:0:0:
248,333,190534,1,8,0:0:0:0:
200,317,190621,1,8,0:0:0:0:
178,271,190708,1,8,0:0:0:0:
112,201,190795,5,8,3:0:0:0:
82,191,190882,1,8,3:0:0:0:
50,204,190969,1,4,3:0:0:0:
35,230,191056,1,4,3:0:0:0:
73,240,191142,6,0,P|132:207|184:186,1,108.000000411987,6|0,1:2|0:0,0:0:0:0:
306,61,191490,1,8,0:0:0:0:
423,86,191664,2,0,P|364:53|312:32,1,108.000000411987,2|8,1:2|0:0,0:0:0:0:
267,135,192011,5,0,1:0:0:0:
272,159,192098,1,0,1:0:0:0:
279,185,192185,1,8,0:0:0:0:
121,359,192359,6,0,P|49:336|67:219,1,162.000000617981,6|0,1:2|0:0,0:0:0:0:
68,234,192707,1,2,0:0:0:0:
377,248,192880,6,0,P|316:271|253:303,1,108.000000411987,10|0,0:0|1:0,0:0:0:0:
448,216,193141,1,0,1:0:0:0:
448,216,193228,2,0,P|387:193|324:161,1,108.000000411987,10|0,0:0|1:0,0:0:0:0:
51,49,193576,6,0,B|142:73|82:130|209:151,1,162.000000617981,10|0,0:2|0:0,0:0:0:0:
248,358,193923,6,0,B|339:334|279:277|406:256,1,162.000000617981,6|0,1:2|0:0,0:0:0:0:
389,215,194271,1,8,0:0:0:0:
236,42,194445,5,8,0:0:0:0:
236,42,194532,1,8,0:0:0:0:
236,42,194619,2,0,P|254:114|267:159,1,108.000000411987,2|0,1:2|1:0,0:0:0:0:
263,146,194966,1,8,0:0:0:0:
454,384,195140,6,0,P|467:304|485:225,1,162.000000617981,6|0,1:2|0:0,0:0:0:0:
462,189,195488,1,0,1:0:0:0:
218,339,195661,6,0,P|283:313|332:298,1,108.000000411987,10|0,0:0|0:0,0:0:0:0:
186,260,196009,5,8,0:0:0:0:
149,206,196096,1,2,0:0:0:0:
94,205,196183,1,8,0:0:0:0:
58,229,196270,1,10,0:0:0:0:
49,260,196357,1,10,0:0:0:0:
64,274,196444,1,10,0:0:0:0:
73,269,196530,1,10,0:0:0:0:
71,263,196617,1,10,0:0:0:0:
71,263,196704,5,6,1:2:0:0:
305,322,196878,1,0,1:0:0:0:
388,84,197052,5,8,0:0:0:0:
181,128,197226,1,0,1:0:0:0:
344,14,197400,5,8,0:0:0:0:
362,213,197573,1,0,1:0:0:0:
439,160,197747,5,8,0:0:0:0:
421,359,197920,1,0,1:0:0:0:
248,309,198095,6,0,L|356:300,1,108.000000411987,8|0,0:0|1:0,0:0:0:0:
247,45,198442,2,0,L|139:35,1,108.000000411987,8|0,0:0|1:0,0:0:0:0:
33,183,198790,5,8,0:0:0:0:
16,247,198876,1,8,0:0:0:0:
55,299,198963,1,8,0:0:0:0:
120,300,199050,1,8,0:0:0:0:
162,249,199137,5,8,0:0:0:0:
160,235,199224,1,8,0:0:0:0:
159,222,199311,1,8,0:0:0:0:
158,208,199398,1,0,1:0:0:0:
157,195,199484,1,0,0:0:0:0:
256,192,199572,12,6,200876,1:2:0:0:
142,21,201223,6,0,L|134:117,1,80,6|0,1:2|0:0,0:0:0:0:
346,125,201571,5,8,0:0:0:0:
305,112,201657,1,8,0:0:0:0:
262,125,201744,1,8,0:0:0:0:
233,161,201831,1,8,0:0:0:0:
216,135,201918,5,8,0:2:0:0:
185,178,202005,1,8,0:2:0:0:
132,193,202092,1,8,0:2:0:0:
81,177,202178,1,8,0:2:0:0:
43,89,202266,6,0,L|51:184,1,80,14|2,1:2|0:0,0:0:0:0:
53,192,202527,1,2,0:0:0:0:
55,216,202614,1,8,0:0:0:0:
136,101,202788,1,2,1:2:0:0:
185,178,202961,6,0,L|176:273,1,80,10|2,0:2|1:2,0:0:0:0:
175,281,203222,1,2,0:0:0:0:
173,305,203309,1,10,0:0:0:0:
55,216,203483,1,2,1:2:0:0:
276,229,203657,6,0,L|284:324,1,80,10|2,0:2|1:2,0:0:0:0:
286,332,203918,1,2,0:0:0:0:
288,356,204005,1,10,0:0:0:0:
464,314,204178,1,2,1:2:0:0:
349,173,204352,5,10,0:0:0:0:
376,328,204526,2,0,L|380:289,1,40,2|2,1:2|0:0,0:0:0:0:
436,130,204700,2,0,P|445:168|437:212,1,80,10|0,0:0|1:0,0:0:0:0:
262,141,205047,5,10,0:2:0:0:
393,50,205221,1,2,1:2:0:0:
168,23,205395,5,10,0:0:0:0:
318,76,205569,1,2,1:2:0:0:
115,173,205742,1,10,0:0:0:0:
115,173,205829,1,10,0:0:0:0:
115,173,205916,1,2,1:2:0:0:
12,53,206090,1,10,0:0:0:0:
126,255,206264,1,2,1:2:0:0:
347,186,206438,6,0,P|346:264|346:345,2,160,14|8|14,0:2|0:0|0:0,0:0:0:0:
258,321,207307,1,2,1:2:0:0:
437,224,207481,1,10,0:0:0:0:
340,45,207654,1,2,0:0:0:0:
280,115,207828,6,0,P|355:84|387:71,1,92.0000017547608,14|2,1:2|0:0,0:0:0:0:
411,102,208089,1,2,0:0:0:0:
411,102,208176,1,10,0:0:0:0:
242,21,208350,1,2,1:2:0:0:
177,235,208523,6,0,P|134:216|91:202,1,92.0000017547608,10|2,0:2|1:2,0:0:0:0:
86,172,208784,1,2,0:0:0:0:
86,172,208871,1,10,0:0:0:0:
231,121,209045,1,2,1:2:0:0:
343,278,209219,6,0,P|333:346|327:381,1,92.0000017547608,10|2,0:2|1:2,0:0:0:0:
294,384,209479,1,2,0:0:0:0:
294,384,209566,1,10,0:0:0:0:
453,237,209740,1,2,1:2:0:0:
233,126,209914,5,10,0:2:0:0:
183,187,210088,2,0,P|213:175|256:159,1,46.0000008773804,2|2,1:2|0:0,0:0:0:0:
398,59,210262,6,0,P|357:32|309:43,1,92.0000017547608,8|2,0:0|1:2,0:0:0:0:
316,38,210609,1,10,0:2:0:0:
469,186,210783,1,2,1:2:0:0:
334,296,210957,5,8,0:0:0:0:
373,200,211131,1,2,1:2:0:0:
479,356,211304,5,2,1:2:0:0:
419,341,211390,1,2,1:2:0:0:
359,328,211477,1,2,1:2:0:0:
299,314,211564,1,2,1:2:0:0:
299,314,211652,5,10,0:0:0:0:
238,367,211826,1,2,0:0:0:0:
93,233,212000,5,10,0:0:0:0:
131,161,212174,5,8,0:0:0:0:
162,175,212260,1,8,0:0:0:0:
184,201,212347,1,8,0:0:0:0:
192,234,212434,1,8,0:0:0:0:
186,268,212521,1,10,0:0:0:0:
62,44,212695,5,10,0:0:0:0:
31,58,212782,1,8,0:0:0:0:
9,84,212869,1,10,0:0:0:0:
1,117,212956,1,8,0:0:0:0:
7,151,213043,1,10,0:0:0:0:
166,13,213216,1,10,0:0:0:0:
228,111,213390,5,2,1:2:0:0:
512,56,213564,5,10,0:0:0:0:
472,45,213650,1,8,0:0:0:0:
431,35,213737,1,10,0:0:0:0:
391,27,213824,1,8,0:0:0:0:
350,19,213911,1,10,0:0:0:0:
206,230,214086,5,10,0:0:0:0:
246,219,214172,1,8,0:0:0:0:
287,209,214259,1,10,0:0:0:0:
327,201,214346,1,8,0:0:0:0:
368,193,214433,1,10,0:0:0:0:
368,193,214607,1,2,0:0:0:0:
192,61,214781,5,2,1:2:0:0:
142,142,214955,5,10,0:0:0:0:
176,190,215041,1,8,0:0:0:0:
149,248,215128,5,10,0:0:0:0:
189,285,215215,1,8,0:0:0:0:
170,346,215302,5,10,0:0:0:0:
317,370,215476,5,10,0:0:0:0:
359,384,215562,1,8,0:0:0:0:
402,369,215649,1,10,0:0:0:0:
426,331,215736,1,8,0:0:0:0:
508,329,215825,5,10,0:0:0:0:
512,268,215911,1,8,0:0:0:0:
479,219,215998,1,10,0:0:0:0:
419,209,216085,1,8,0:0:0:0:
430,237,216171,22,0,P|501:207|469:57,1,240.000009155274,6|2,1:2|0:0,0:0:0:0:
