osu file format v14

[General]
AudioFilename: audio.mp3
AudioLeadIn: 0
PreviewTime: 118402
Countdown: 0
SampleSet: Soft
StackLeniency: 0.7
Mode: 0
LetterboxInBreaks: 0
WidescreenStoryboard: 1

[Editor]
Bookmarks: 120227
DistanceSpacing: 1.3
BeatDivisor: 3
GridSize: 32
TimelineZoom: 1.6

[Metadata]
Title:MOON PRIDE
TitleUnicode:MOON PRIDE
Artist:Asano Ruri x Inui Toko x Shirakami Fubuki x Higuchi Kaede x Houshou Marine
ArtistUnicode:朝ノ瑠璃×戌亥とこ×白上フブキ×樋口楓×宝鐘マリン
Creator:-Aqua
Version:Hard
Source:美少女戦士セーラームーンCrystal
Tags:Virtual YouTuber VTuber ホロライブ hololive にじさんじ Nijisanji idol Full Version Anime Pop Rock Japanese ももいろクローバーZ Momoiro Clover Z Sailor Moon Crystal Single Opening Theme OP Cover Song Collab newton- J-pop Jpop J-rock Jrock Shiny Makeup Make-up Make up bongo
BeatmapID:2908861
BeatmapSetID:1247813

[Difficulty]
HPDrainRate:4.5
CircleSize:3.8
OverallDifficulty:6.5
ApproachRate:8
SliderMultiplier:1.4
SliderTickRate:1

[Events]
//Background and Video events
0,0,"bg.jpg",0,0
Video,0,"video.mp4"
//Break Periods
//Storyboard Layer 0 (Background)
//Storyboard Layer 1 (Fail)
//Storyboard Layer 2 (Pass)
//Storyboard Layer 3 (Foreground)
//Storyboard Layer 4 (Overlay)
//Storyboard Sound Samples

[TimingPoints]
2035,347.624565469293,4,2,1,50,1,0
2035,-111.111111111111,4,2,1,50,0,0
7596,-111.111111111111,4,2,1,60,0,0
10377,-111.111111111111,4,2,1,50,0,0
15418,-100,4,2,1,60,0,0
15939,-100,4,2,1,70,0,0
25673,-100,4,2,1,60,0,0
27063,-111.111111111111,4,2,1,50,0,0
38187,-111.111111111111,4,2,1,55,0,0
43749,-100,4,2,1,55,0,0
46530,-100,4,2,1,70,0,0
49311,-100,4,2,1,60,0,0
49572,-100,4,2,1,5,0,0
49659,-100,4,2,1,60,0,0
56351,-100,4,2,1,5,0,0
56438,-100,4,2,1,60,0,0
58437,-100,4,2,1,5,0,0
58523,-100,4,2,1,60,0,0
59045,-100,4,2,1,70,0,0
60435,-111.111111111111,4,2,1,60,0,0
61826,-90.9090909090909,4,2,1,85,0,1
61913,-90.9090909090909,4,2,1,85,0,0
72950,-100,4,2,1,70,0,0
73211,-100,4,2,1,5,0,0
73298,-100,4,2,1,70,0,0
77904,-100,4,2,1,5,0,0
77990,-100,4,2,1,70,0,0
78077,-100,4,2,1,5,0,0
78164,-100,4,2,1,70,0,0
78186,-100,4,2,0,70,0,0
78425,-100,4,2,1,5,0,0
78512,-100,4,2,1,70,0,0
79468,-100,4,2,1,5,0,0
79555,-100,4,2,1,70,0,0
84074,-111.111111111111,4,2,1,50,0,0
93807,-111.111111111111,4,2,1,60,0,0
100673,-111.111111111111,4,2,1,5,0,0
100760,-100,4,2,1,60,0,0
103541,-100,4,2,1,70,0,0
106322,-100,4,2,1,60,0,0
116055,-100,4,2,1,70,0,0
117446,-100,4,2,1,60,0,0
118836,-90.9090909090909,4,2,1,85,0,1
118923,-90.9090909090909,4,2,1,85,0,0
119619,-90.9090909090909,4,2,1,5,0,0
119705,-90.9090909090909,4,2,1,85,0,0
125181,-90.9090909090909,4,2,1,5,0,0
125267,-90.9090909090909,4,2,1,85,0,0
127092,-90.9090909090909,4,2,1,5,0,0
127179,-90.9090909090909,4,2,1,85,0,0
129960,-100,4,2,1,70,0,0
132741,-90.9090909090909,4,2,1,90,0,1
142475,-86.9565217391304,4,2,1,90,0,0
143778,-86.9565217391304,4,2,1,5,0,0
143865,-86.9565217391304,4,2,1,90,0,1
149340,-86.9565217391304,4,2,1,90,0,0
149427,-86.9565217391304,4,2,1,90,0,1
154989,-100,4,2,1,60,0,0
172979,-100,4,2,1,5,0,0
173066,-100,4,2,1,60,0,0
174456,-111.111111111111,4,2,1,50,0,0
180018,-90.9090909090908,4,2,1,70,0,1
180105,-90.9090909090908,4,2,1,70,0,0
185580,-90.9090909090908,4,2,1,85,0,1
185667,-90.9090909090908,4,2,1,85,0,0
187058,-90.9090909090908,4,2,1,5,0,0
187145,-90.9090909090908,4,2,1,85,0,0
188796,-90.9090909090908,4,2,1,5,0,0
188883,-90.9090909090908,4,2,1,85,0,0
189839,-90.9090909090908,4,2,1,5,0,0
189926,-90.9090909090908,4,2,1,85,0,0
192620,-90.9090909090908,4,2,1,5,0,0
192707,-90.9090909090908,4,2,1,85,0,0
193836,-90.9090909090908,4,2,1,5,0,0
193923,-90.9090909090908,4,2,1,85,0,0
194184,-90.9090909090908,4,2,1,5,0,0
194271,-90.9090909090908,4,2,1,85,0,0
195401,-90.9090909090908,4,2,1,5,0,0
195488,-90.9090909090908,4,2,1,85,0,0
196704,-90.9090909090908,4,2,1,90,0,0
199485,-90.9090909090908,4,2,1,60,0,0
202266,-100,4,2,1,70,0,0
216171,-153.846153846153,4,2,1,60,0,0

[Colours]
Combo1 : 255,255,168
Combo2 : 168,168,255
Combo3 : 255,168,168
Combo4 : 168,255,168

[HitObjects]
0,64,2035,6,0,P|74:59|101:114,1,125.999996154785,2|0,0:0|0:0,0:0:0:0:
154,168,2556,2,0,P|205:148|282:131,1,125.999996154785,0|0,0:0|0:0,0:0:0:0:
327,2,3251,6,0,P|378:22|455:39,1,125.999996154785,2|0,0:0|0:0,0:0:0:0:
512,111,3773,1,0,0:0:0:0:
435,233,4120,1,0,0:0:0:0:
435,233,4468,1,0,0:0:0:0:
435,233,4815,6,0,B|362:240|394:282|318:290,1,125.999996154785,2|0,0:0|0:0,0:0:0:0:
278,365,5337,2,0,B|205:358|237:316|161:308,1,125.999996154785,0|0,0:0|0:0,0:0:0:0:
44,200,6032,2,0,P|32:140|78:101,1,125.999996154785,2|0,0:0|0:0,0:0:0:0:
149,156,6554,5,0,0:0:0:0:
281,254,6901,2,0,P|318:243|350:237,1,62.9999980773926,0|0,0:0|0:0,0:0:0:0:
341,238,7249,1,0,0:0:0:0:
443,104,7596,6,0,P|396:65|322:88,1,125.999996154785,6|0,1:2|1:0,0:0:0:0:
263,21,8118,2,0,P|198:11|129:-2,1,125.999996154785,0|0,0:0|0:0,0:0:0:0:
18,107,8813,1,0,0:0:0:0:
18,107,8987,6,0,B|31:164|40:192,1,62.9999980773926,6|0,1:2|0:0,0:0:0:0:
108,214,9335,2,0,P|144:172|228:199,2,125.999996154785,0|2|2,1:0|1:2|1:2,0:0:0:0:
65,342,10377,5,6,1:2:0:0:
306,265,11073,1,2,0:0:0:0:
200,220,11768,5,2,0:0:0:0:
73,192,12463,1,2,0:0:0:0:
194,335,13158,5,2,0:0:0:0:
372,384,13854,1,2,0:0:0:0:
401,384,14549,6,0,P|444:350|428:279,1,125.999996154785,2|2,0:0|0:0,0:0:0:0:
348,214,15244,2,0,P|310:228|266:236,1,62.9999980773926,2|0,0:0|1:0,0:0:0:0:
272,261,15505,1,0,1:0:0:0:
272,261,15592,1,8,0:0:0:0:
197,201,15766,1,0,0:0:0:0:
99,298,15939,6,0,B|53:266|53:266|49:180,1,140,6|8,1:2|0:0,0:0:0:0:
49,182,16461,1,2,0:0:0:0:
79,76,16635,2,0,P|127:62|149:50,1,70,2|2,0:0|1:2,0:0:0:0:
168,71,16895,1,2,0:0:0:0:
168,71,16982,1,10,0:0:0:0:
256,122,17156,1,2,0:0:0:0:
331,49,17330,6,0,P|381:34|424:105,1,140,2|10,1:2|0:0,0:0:0:0:
363,162,17851,1,2,0:0:0:0:
438,228,18025,1,2,0:0:0:0:
383,311,18199,2,0,L|404:372,2,35,2|2|10,1:2|0:0|0:0,0:0:0:0:
217,255,18720,6,0,P|230:202|233:163,1,70,2|2,1:2|0:0,0:0:0:0:
321,137,19068,2,0,P|315:102|306:68,1,70,10|2,0:0|0:0,0:0:0:0:
230,6,19416,1,2,0:0:0:0:
230,6,19503,1,2,0:0:0:0:
230,6,19590,2,0,P|183:25|136:32,1,70,2|10,1:2|0:0,0:0:0:0:
164,29,19937,1,2,0:0:0:0:
80,142,20111,6,0,P|107:226|117:290,1,140,6|8,1:2|0:0,0:0:0:0:
115,276,20806,2,0,P|170:264|217:261,1,70,2|2,0:0|1:2,0:0:0:0:
244,344,21154,2,0,P|278:349|312:357,1,70,10|2,0:0|0:0,0:0:0:0:
427,268,21501,6,0,B|437:221|437:221|425:188|425:188|443:118,1,140,6|10,1:2|0:0,0:0:0:0:
494,63,22023,1,2,0:0:0:0:
420,13,22197,2,0,P|379:29|334:37,1,70,2|2,0:0|1:2,0:0:0:0:
340,59,22457,1,2,0:0:0:0:
340,59,22544,1,10,0:0:0:0:
319,148,22718,1,2,0:0:0:0:
217,123,22892,6,0,B|187:181|187:181|230:270,1,140,2|10,1:2|0:0,0:0:0:0:
219,248,23413,1,2,0:0:0:0:
306,307,23587,1,2,0:0:0:0:
223,378,23761,2,0,L|276:385,2,35,2|2|10,1:2|0:0|0:0,0:0:0:0:
45,310,24282,6,0,P|86:302|122:289,1,70,2|2,1:2|0:0,0:0:0:0:
181,218,24630,2,0,P|140:210|104:197,1,70,10|2,0:0|0:0,0:0:0:0:
64,122,24978,2,0,P|72:88|73:77,4,35,10|10|10|10|2,0:0|0:0|0:0|0:0|1:2,0:0:0:0:
142,39,25499,1,2,1:2:0:0:
284,123,25673,6,0,P|325:125|353:156,1,70,10|2,1:2|0:0,0:0:0:0:
390,60,26021,2,0,P|431:58|459:27,1,70,2|2,0:0|0:0,0:0:0:0:
509,121,26368,2,0,P|501:160|494:196,1,70,2|2,0:0|0:0,0:0:0:0:
423,241,26716,2,0,P|431:280|438:316,1,70,8|2,0:0|0:0,0:0:0:0:
512,329,27063,6,0,B|429:340|474:380|394:386,1,125.999996154785,6|0,1:2|0:0,0:0:0:0:
324,324,27585,2,0,P|266:310|188:286,1,125.999996154785,0|0,1:2|1:0,0:0:0:0:
133,357,28106,1,0,0:0:0:0:
133,357,28280,1,0,0:0:0:0:
55,307,28454,6,0,P|20:284|42:206,1,125.999996154785,2|0,1:2|0:0,0:0:0:0:
125,88,29149,1,2,0:0:0:0:
125,88,29323,2,0,P|173:108|196:112,1,62.9999980773926,0|10,1:0|0:0,0:0:0:0:
230,203,29671,1,2,0:0:0:0:
230,203,29844,6,0,P|288:186|364:175,1,125.999996154785,2|0,1:2|0:0,0:0:0:0:
412,106,30366,2,0,P|439:73|380:43,1,125.999996154785,0|0,1:2|1:0,0:0:0:0:
298,15,30887,2,0,P|266:9|236:0,1,62.9999980773926,2|0,0:0|0:0,0:0:0:0:
182,71,31235,6,0,B|130:78|130:78|115:98|115:98|55:109,1,125.999996154785,2|0,1:2|0:0,0:0:0:0:
67,106,31756,1,2,0:0:0:0:
14,177,31930,2,0,B|8:214|8:214|29:245,1,62.9999980773926,2|0,0:0|1:0,0:0:0:0:
103,263,32278,1,8,0:0:0:0:
49,327,32452,1,0,0:0:0:0:
117,384,32625,6,0,P|170:368|254:359,1,125.999996154785,6|0,1:2|0:0,0:0:0:0:
252,271,33147,2,0,P|305:287|389:296,1,125.999996154785,2|0,1:2|1:0,0:0:0:0:
429,382,33668,1,0,0:0:0:0:
429,382,33842,1,0,0:0:0:0:
510,320,34016,6,0,P|537:269|473:218,1,125.999996154785,2|0,1:2|0:0,0:0:0:0:
499,220,34537,1,0,0:0:0:0:
448,148,34711,2,0,P|462:100|465:79,2,62.9999980773926,2|0|10,0:0|1:0|0:0,0:0:0:0:
375,206,35233,1,0,0:0:0:0:
375,206,35406,6,0,B|296:213|336:254|245:259,1,125.999996154785,2|0,1:2|0:0,0:0:0:0:
196,197,35928,2,0,B|117:190|157:149|66:144,1,125.999996154785,0|0,1:2|1:0,0:0:0:0:
10,258,36623,1,0,0:0:0:0:
10,258,36797,6,0,P|-2:210|-28:124,1,125.999996154785,2|2,1:2|0:0,0:0:0:0:
59,21,37492,2,0,P|95:12|131:-11,1,62.9999980773926,2|0,0:0|1:0,0:0:0:0:
118,0,37840,1,8,0:0:0:0:
198,75,38014,1,8,0:0:0:0:
198,75,38101,1,8,0:0:0:0:
198,75,38187,6,0,B|244:90|244:90|262:118|262:118|312:131,1,125.999996154785,6|0,1:2|0:0,0:0:0:0:
374,66,38709,1,2,1:2:0:0:
455,129,38883,2,0,P|488:172|455:248,1,125.999996154785,0|8,0:0|0:0,0:0:0:0:
385,375,39578,6,0,P|340:357|258:335,1,125.999996154785,2|0,1:2|0:0,0:0:0:0:
218,256,40099,2,0,P|173:274|91:296,1,125.999996154785,0|0,1:0|1:0,0:0:0:0:
14,365,40621,2,0,P|-1:327|-17:297,1,62.9999980773926,8|0,0:0|0:3,0:0:0:0:
72,199,40968,6,0,P|106:156|65:97,1,125.999996154785,2|0,1:2|0:0,0:0:0:0:
146,0,41490,2,0,P|166:50|237:44,1,125.999996154785,0|0,1:0|1:0,0:0:0:0:
273,137,42011,1,8,0:0:0:0:
187,263,42359,6,0,P|209:333|226:401,1,125.999996154785,0|0,1:0|0:0,0:0:0:0:
303,328,42880,2,0,B|381:318|352:358|433:352,1,125.999996154785,2|2,1:2|1:2,0:0:0:0:
443,383,43315,1,2,1:2:0:0:
443,383,43402,2,0,P|491:365|512:361,1,62.9999980773926,10|0,0:0|0:0,0:0:0:0:
512,219,43749,6,0,P|447:233|410:178,1,140,2|8,1:2|0:0,0:0:0:0:
351,104,44271,2,0,P|286:89|249:144,1,140,8|0,0:0|1:0,0:0:0:0:
238,230,44792,1,8,0:0:0:0:
116,316,45140,6,0,P|124:349|130:384,2,70,2|0|8,1:2|1:0|0:0,0:0:0:0:
40,256,45661,2,0,P|55:165|66:106,1,140,8|0,0:0|1:0,0:0:0:0:
144,68,46183,1,8,0:0:0:0:
144,68,46530,6,0,P|192:57|240:45,2,70,6|2|8,1:2|0:0|0:0,0:0:0:0:
238,151,47052,2,0,P|286:162|334:174,2,70,2|2|0,1:2|0:0|1:0,0:0:0:0:
177,244,47573,6,0,P|129:233|81:221,2,70,10|2|2,0:0|0:0|0:0,0:0:0:0:
83,327,48095,2,0,P|35:338|-13:350,2,70,2|10|0,1:2|0:0|0:0,0:0:0:0:
83,327,48616,5,8,0:0:0:0:
238,384,48964,2,0,P|270:363|308:369,1,70,8|8,0:0|0:0,0:0:0:0:
315,336,49225,1,8,0:0:0:0:
315,336,49311,6,0,P|385:347|455:362,1,140,6|8,1:2|0:0,0:0:0:0:
512,285,49833,2,0,P|530:220|467:173,1,140,2|2,0:0|1:2,0:0:0:0:
421,114,50354,2,0,P|385:128|345:139,1,70,10|0,0:0|0:0,0:0:0:0:
306,220,50702,5,0,1:0:0:0:
306,220,50876,1,2,0:0:0:0:
225,167,51050,1,10,0:0:0:0:
160,233,51223,2,0,B|72:240|108:281|36:287,1,140,0|2,1:2|1:2,0:0:0:0:
3,199,51745,2,0,P|8:149|10:125,1,70,10|2,0:0|0:0,0:0:0:0:
94,14,52092,6,0,P|117:49|208:36,1,140,2|8,1:2|0:0,0:0:0:0:
250,130,52614,2,0,P|313:150|360:104,1,140,2|0,0:2|1:0,0:0:0:0:
405,14,53135,1,10,0:0:0:0:
405,14,53309,1,0,0:0:0:0:
488,80,53483,6,0,P|477:125|474:167,1,70,2|0,1:2|0:0,0:0:0:0:
512,258,53831,2,0,P|454:235|361:212,1,140,10|2,0:2|1:2,0:0:0:0:
379,215,54352,1,0,1:0:0:0:
324,140,54526,2,0,P|287:148|245:164,1,70,10|2,0:0|0:0,0:0:0:0:
223,251,54873,6,0,P|180:209|103:233,1,140,6|8,1:2|0:0,0:0:0:0:
0,290,55395,2,0,B|85:294|38:339|131:345,1,140,2|0,0:0|1:0,0:0:0:0:
219,384,55916,1,8,0:0:0:0:
344,320,56090,6,0,P|407:337|482:356,1,140,6|0,1:2|1:0,0:0:0:0:
479,355,56612,1,10,0:0:0:0:
334,217,56959,2,0,P|299:220|273:242,1,70,2|0,3:2|1:0,0:0:0:0:
210,314,57307,2,0,P|175:310|149:288,1,70,10|0,0:0|3:0,0:0:0:0:
67,219,57654,6,0,P|89:142|98:68,1,140,2|8,1:2|0:0,0:0:0:0:
200,0,58176,2,0,P|210:69|230:136,1,140,2|0,0:0|1:0,0:0:0:0:
320,171,58697,1,10,0:0:0:0:
320,171,58871,1,0,0:0:0:0:
410,247,59045,6,0,P|459:240|506:238,1,70,10|0,0:0|0:0,0:0:0:0:
372,359,59393,2,0,P|323:352|276:350,1,70,10|0,0:0|0:0,0:0:0:0:
247,284,59740,6,0,P|222:290|197:296,6,35,8|8|8|8|8|8|0,0:0|0:0|0:0|0:0|0:0|0:0|1:0,0:0:0:0:
247,284,60435,1,0,1:0:0:0:
322,98,61826,6,0,B|266:46|266:46|192:77,1,154.000004699707,6|8,1:2|0:0,0:0:0:0:
163,170,62347,2,0,B|91:140|91:140|35:192,1,154.000004699707,2|0,0:0|1:0,0:0:0:0:
35,192,62869,1,8,0:0:0:0:
2,316,63043,6,0,P|39:388|46:413,1,77.0000023498536,2|0,1:2|0:0,0:0:0:0:
122,318,63390,1,0,1:0:0:0:
122,318,63564,2,0,P|137:282|157:250,1,77.0000023498536,8|0,0:0|0:0,0:0:0:0:
232,332,63912,2,0,B|330:335|280:393|400:384,1,154.000004699707,2|8,1:2|0:0,0:0:0:0:
371,384,64433,1,0,0:0:0:0:
474,308,64607,6,0,P|471:260|377:251,1,154.000004699707,2|8,1:2|0:0,0:0:0:0:
299,210,65128,1,0,0:0:0:0:
299,210,65302,2,0,P|370:216|391:147,1,154.000004699707,2|8,1:2|0:0,0:0:0:0:
512,132,65824,6,0,B|533:37|533:37|487:3,1,154.000004699707,2|0,1:2|1:0,0:0:0:0:
413,59,66345,2,0,P|358:48|325:43,1,77.0000023498536,8|0,0:0|0:0,0:0:0:0:
337,44,66693,1,10,0:0:0:0:
297,143,66866,1,8,0:0:0:0:
297,143,66953,1,8,0:0:0:0:
297,143,67040,2,0,P|259:149|221:157,1,77.0000023498536,0|0,1:0|1:0,0:0:0:0:
85,105,67388,6,0,P|62:44|141:3,1,154.000004699707,6|8,1:2|0:0,0:0:0:0:
175,86,67909,2,0,P|163:161|151:269,1,154.000004699707,2|0,0:0|1:0,0:0:0:0:
220,307,68431,1,8,0:0:0:0:
121,384,68605,6,0,P|84:371|47:364,1,77.0000023498536,2|0,1:2|0:0,0:0:0:0:
0,283,68952,1,0,1:0:0:0:
0,283,69126,2,0,P|12:246|19:208,1,77.0000023498536,8|0,0:0|0:0,0:0:0:0:
102,141,69474,2,0,P|122:189|221:176,1,154.000004699707,2|8,1:2|0:0,0:0:0:0:
212,186,69995,1,2,0:0:0:0:
298,302,70169,6,0,P|372:280|455:262,1,154.000004699707,2|8,1:2|0:0,0:0:0:0:
503,189,70690,1,0,0:0:0:0:
503,189,70864,2,0,P|445:171|394:166,1,77.0000023498536,2|0,0:0|1:0,0:0:0:0:
382,94,71212,1,8,0:0:0:0:
302,189,71386,6,0,P|242:166|202:256,1,154.000004699707,2|0,1:2|1:0,0:0:0:0:
166,329,71907,2,0,P|129:339|93:353,1,77.0000023498536,8|0,0:0|0:0,0:0:0:0:
12,285,72255,2,0,L|22:237,3,38.5000011749268,8|8|8|8,0:0|0:0|0:0|0:0,0:0:0:0:
62,226,72602,2,0,L|52:178,3,38.5000011749268,8|8|4|0,3:0|3:0|3:0|1:0,0:0:0:0:
13,160,72950,6,0,B|-17:111|-17:111|34:19,1,140,6|10,1:2|0:0,0:0:0:0:
104,96,73471,2,0,B|191:100|149:151|249:153,1,140,2|2,0:0|1:2,0:0:0:0:
227,151,73993,1,8,0:0:0:0:
284,66,74167,6,0,P|341:34|389:102,1,140,2|2,0:0|0:0,0:0:0:0:
493,181,74688,2,0,P|456:173|392:166,1,70,8|2,0:0|3:2,0:0:0:0:
407,207,74949,1,8,0:0:0:0:
407,207,75036,2,0,P|370:215|306:222,1,70,2|0,1:2|1:0,0:0:0:0:
267,156,75383,1,10,0:2:0:0:
267,156,75557,1,2,0:0:0:0:
341,47,75731,6,0,P|306:39|273:28,1,70,4|2,1:2|0:0,0:0:0:0:
206,81,76079,2,0,P|172:92|138:99,1,70,8|2,0:0|0:0,0:0:0:0:
37,67,76426,2,0,P|27:34|18:-1,2,70,4|2|8,1:2|0:0|0:0,0:0:0:0:
0,157,76948,6,0,P|18:216|47:317,1,140,2|2,3:2|0:0,0:0:0:0:
39,291,77469,1,10,0:0:0:0:
191,382,77817,2,0,P|209:329|224:287,1,70,2|6,1:2|3:0,0:0:0:0:
301,283,78164,2,8,P|336:319|387:316,1,105,8|0,0:0|0:0,0:0:0:0:
400,341,78512,5,6,1:2:0:0:
470,258,78686,1,2,0:0:0:0:
470,258,78773,1,2,0:0:0:0:
470,258,78860,2,0,L|457:212,3,35,10|2|2|2,0:0|0:0|0:0|0:0,0:0:0:0:
432,210,79207,2,0,P|422:170|406:118,1,70,2|2,1:2|1:2,0:0:0:0:
464,53,79555,2,0,L|507:67,3,35,10|2|2|2,0:0|0:0|0:0|0:0,0:0:0:0:
445,13,79902,6,0,P|381:29|356:33,1,70,2|2,1:2|0:0,0:0:0:0:
362,54,80163,1,2,0:0:0:0:
362,54,80250,1,10,0:0:0:0:
325,147,80424,2,0,P|330:163|337:179,2,35,2|2|2,0:0|0:0|0:0,0:0:0:0:
242,102,80771,1,2,1:2:0:0:
242,102,80945,2,0,P|201:94|155:79,1,70,10|2,0:0|0:0,0:0:0:0:
66,0,81293,6,0,P|22:34|60:123,1,140,6|8,1:2|0:2,0:0:0:0:
36,109,81814,1,2,0:0:0:0:
107,193,81988,2,0,P|140:181|168:179,4,35,10|8|10|8|8,0:0|0:0|0:0|0:0|3:0,0:0:0:0:
33,257,82510,1,4,3:0:0:0:
126,350,82683,6,0,P|166:324|209:335,1,70,2|2,1:2|0:0,0:0:0:0:
238,236,83031,2,0,P|278:262|321:251,1,70,2|2,0:2|0:0,0:0:0:0:
352,345,83379,2,0,P|407:328|443:322,1,70,2|2,0:0|0:0,0:0:0:0:
477,252,83726,2,0,P|460:197|454:161,1,70,10|2,0:0|0:0,0:0:0:0:
512,126,84074,6,0,P|449:137|407:78,1,125.999996154785,6|0,1:2|0:0,0:0:0:0:
312,38,84596,2,0,P|251:56|190:71,1,125.999996154785,0|0,1:0|1:0,0:0:0:0:
133,144,85117,1,8,0:0:0:0:
133,144,85291,1,0,0:0:0:0:
42,114,85465,6,0,B|14:166|14:166|57:233,1,125.999996154785,2|8,1:2|0:0,0:0:0:0:
0,384,86160,1,2,0:0:0:0:
0,384,86334,2,0,P|48:364|71:360,1,62.9999980773926,0|8,1:0|0:0,0:0:0:0:
114,287,86682,1,0,0:0:0:0:
114,287,86855,6,0,P|172:304|248:315,1,125.999996154785,2|0,1:2|0:0,0:0:0:0:
317,384,87377,2,0,P|332:348|426:365,1,125.999996154785,0|0,1:0|1:0,0:0:0:0:
467,259,87898,2,0,P|459:229|452:197,1,62.9999980773926,8|0,0:0|0:0,0:0:0:0:
368,153,88245,6,0,B|289:165|343:203|233:209,1,125.999996154785,2|8,1:2|0:0,0:0:0:0:
258,206,88767,1,0,0:0:0:0:
181,170,88941,2,0,P|162:145|163:114,1,62.9999980773926,2|0,0:0|1:0,0:0:0:0:
215,45,89288,1,8,0:0:0:0:
138,0,89463,1,0,0:0:0:0:
138,0,89636,6,0,P|85:16|1:25,1,125.999996154785,6|0,1:2|0:0,0:0:0:0:
0,116,90158,2,0,P|-10:180|48:218,1,125.999996154785,2|0,1:2|1:0,0:0:0:0:
121,174,90679,1,8,0:0:0:0:
121,174,90853,1,2,0:0:0:0:
191,231,91026,6,0,B|238:216|238:216|252:193|252:193|300:179,1,125.999996154785,2|8,1:2|0:0,0:0:0:0:
377,248,91548,1,0,0:0:0:0:
433,172,91722,1,2,0:0:0:0:
433,172,91895,2,0,P|419:124|416:103,2,62.9999980773926,0|10|0,1:0|0:0|0:0,0:0:0:0:
512,234,92417,6,0,P|528:291|482:329,1,125.999996154785,2|0,1:2|0:0,0:0:0:0:
393,384,92939,2,0,B|314:377|354:336|263:331,1,125.999996154785,0|0,1:0|1:0,0:0:0:0:
216,261,93460,2,0,P|161:284|137:288,1,62.9999980773926,8|0,0:0|0:0,0:0:0:0:
86,361,93808,6,0,B|47:322|47:322|56:241,1,125.999996154785,2|8,1:2|0:0,0:0:0:0:
148,119,94503,2,0,P|184:110|220:87,1,62.9999980773926,2|2,1:2|0:0,0:0:0:0:
206,97,94851,1,8,0:0:0:0:
273,177,95025,1,8,0:0:0:0:
273,177,95112,1,8,0:0:0:0:
273,177,95198,6,0,P|330:160|367:207,1,125.999996154785,6|8,1:2|0:0,0:0:0:0:
423,282,95720,1,2,1:2:0:0:
503,241,95894,2,0,B|526:191|526:191|481:118,1,125.999996154785,0|8,0:0|0:0,0:0:0:0:
363,29,96589,6,0,P|336:39|286:53,1,62.9999980773926,2|0,1:2|1:0,0:0:0:0:
303,49,96936,1,8,0:0:0:0:
295,153,97110,2,0,P|234:168|175:191,1,125.999996154785,2|0,1:2|1:0,0:0:0:0:
87,159,97632,2,0,P|72:121|56:91,1,62.9999980773926,8|8,0:0|0:0,0:0:0:0:
115,29,97979,6,0,P|152:-16|209:0,1,125.999996154785,2|8,1:2|0:0,0:0:0:0:
221,97,98501,2,0,P|241:147|312:141,1,125.999996154785,2|0,1:2|1:0,0:0:0:0:
368,86,99022,1,8,0:0:0:0:
473,213,99370,6,0,P|459:255|449:295,1,62.9999980773926,2|0,1:2|1:0,0:0:0:0:
454,273,99717,1,8,0:0:0:0:
369,334,99891,2,0,B|321:315|321:315|308:289|308:289|251:267,1,125.999996154785,2|0,1:2|1:0,0:0:0:0:
205,193,100413,2,0,P|174:201|145:213,1,62.9999980773926,8|0,0:0|0:0,0:0:0:0:
113,354,100760,6,0,P|75:299|11:313,1,140,2|8,1:2|0:0,0:0:0:0:
48,206,101281,2,0,P|86:151|150:165,1,140,10|0,0:0|1:0,0:0:0:0:
217,222,101803,1,2,1:2:0:0:
349,332,102150,6,0,P|382:320|434:304,2,70,2|0|8,1:2|1:0|0:0,0:0:0:0:
283,271,102672,2,0,P|258:205|235:139,1,140,2|0,1:2|1:0,0:0:0:0:
235,139,103194,1,8,0:0:0:0:
350,28,103541,6,0,P|384:26|414:66,2,70,6|2|0,1:2|0:0|1:0,0:0:0:0:
274,132,104062,2,0,P|296:106|346:113,2,70,10|2|0,0:2|0:0|1:0,0:0:0:0:
214,237,104584,6,0,P|180:235|150:275,2,70,8|2|0,0:0|0:0|1:0,0:0:0:0:
290,341,105105,2,0,P|267:315|217:322,2,70,8|2|0,0:0|0:0|1:0,0:0:0:0:
366,284,105627,6,0,P|418:266|454:256,1,70,8|8,0:0|0:0,0:0:0:0:
445,239,105887,1,8,0:0:0:0:
445,239,105974,2,0,L|450:195,3,35,8|8|8|8,0:0|0:0|0:0|0:0,0:0:0:0:
482,175,106322,6,0,P|530:129|512:65,1,140,6|8,1:2|0:0,0:0:0:0:
438,0,106844,2,0,B|353:4|389:50|304:50,1,140,2|2,0:0|1:2,0:0:0:0:
258,123,107365,2,0,P|222:109|182:98,1,70,10|0,0:0|0:0,0:0:0:0:
150,17,107712,6,0,P|116:26|83:39,1,70,0|2,1:0|0:0,0:0:0:0:
83,39,108061,1,10,0:0:0:0:
21,133,108234,2,0,P|39:177|64:276,1,140,0|2,1:2|1:2,0:0:0:0:
145,204,108756,2,0,P|178:213|209:229,1,70,10|2,0:0|0:0,0:0:0:0:
248,368,109103,6,0,P|271:333|362:346,1,140,2|8,1:2|0:0,0:0:0:0:
391,244,109624,2,0,P|414:279|505:266,1,140,2|0,0:2|1:0,0:0:0:0:
474,181,110146,1,10,0:0:0:0:
474,181,110320,1,0,0:0:0:0:
413,100,110494,6,0,P|379:109|344:113,1,70,2|0,1:2|0:0,0:0:0:0:
311,215,110842,2,0,P|253:192|160:169,1,140,10|2,0:2|1:2,0:0:0:0:
126,87,111363,1,0,1:0:0:0:
126,87,111537,2,0,P|137:53|144:19,1,70,10|2,0:0|0:0,0:0:0:0:
20,171,111884,6,0,P|12:205|1:238,1,70,6|0,1:2|0:0,0:0:0:0:
1,238,112231,1,8,0:0:0:0:
68,323,112406,2,0,B|153:327|106:372|199:378,1,140,2|0,0:0|1:0,0:0:0:0:
241,301,112927,1,8,0:0:0:0:
315,358,113101,6,0,B|351:325|351:325|453:362,1,140,6|0,1:2|1:0,0:0:0:0:
511,299,113622,2,0,P|508:264|487:237,1,70,10|0,0:0|3:0,0:0:0:0:
402,180,113970,2,0,P|404:145|425:118,2,70,2|0|10,3:2|1:0|0:0,0:0:0:0:
258,261,114665,6,0,P|211:247|167:242,1,70,2|0,1:2|0:0,0:0:0:0:
190,244,115012,1,8,0:0:0:0:
123,173,115186,2,0,B|30:186|93:226|-21:237,1,140,2|0,0:0|1:0,0:0:0:0:
95,300,115708,1,10,0:0:0:0:
95,300,115882,1,0,0:0:0:0:
142,151,116056,6,0,P|126:103|116:58,1,70,10|0,0:0|0:0,0:0:0:0:
0,21,116403,2,0,P|15:68|25:113,1,70,10|0,0:0|0:0,0:0:0:0:
183,30,116751,6,0,P|208:24|233:18,6,35,8|8|8|8|4|4|0,0:0|0:0|3:0|3:0|3:0|3:0|1:0,0:0:0:0:
183,30,117446,1,0,1:0:0:0:
288,160,118836,6,0,P|363:175|438:193,1,154.000004699707,6|8,1:2|0:0,0:0:0:0:
512,109,119358,2,0,P|469:39|381:51,1,154.000004699707,2|0,1:2|1:0,0:0:0:0:
403,36,119879,1,8,0:0:0:0:
279,80,120053,6,0,P|199:62|173:62,1,77.0000023498536,2|0,1:2|0:0,0:0:0:0:
132,0,120400,1,0,1:0:0:0:
132,0,120574,2,0,P|52:17|26:17,1,77.0000023498536,8|8,0:0|0:0,0:0:0:0:
17,101,120922,2,0,B|-15:160|-15:160|34:240,1,154.000004699707,2|8,1:2|0:2,0:0:0:0:
123,225,121443,1,0,0:0:0:0:
189,331,121617,6,0,B|288:334|237:387|341:380,1,154.000004699707,2|8,1:2|0:0,0:0:0:0:
394,304,122138,1,2,0:0:0:0:
394,304,122312,2,0,P|465:310|486:241,1,154.000004699707,0|8,1:0|0:0,0:0:0:0:
387,134,122834,6,0,P|317:150|216:162,1,154.000004699707,2|0,1:2|1:0,0:0:0:0:
185,240,123355,2,0,P|150:232|97:224,1,77.0000023498536,8|0,0:0|1:0,0:0:0:0:
109,225,123703,1,2,1:2:0:0:
46,161,123876,1,8,0:0:0:0:
46,161,123963,1,4,3:0:0:0:
46,161,124051,2,0,P|40:123|32:85,1,77.0000023498536,0|8,1:0|0:0,0:0:0:0:
154,0,124398,6,0,P|191:61|259:40,1,154.000004699707,6|8,1:2|0:0,0:0:0:0:
297,136,124919,2,0,P|372:124|480:112,1,154.000004699707,2|0,0:0|1:0,0:0:0:0:
449,114,125441,1,8,0:0:0:0:
512,243,125615,6,0,P|504:288|497:352,1,77.0000023498536,2|0,1:2|0:0,0:0:0:0:
396,356,125962,1,0,1:2:0:0:
396,356,126136,2,0,P|403:311|410:246,1,77.0000023498536,8|8,0:0|0:0,0:0:0:0:
327,204,126484,2,0,P|307:252|208:239,1,154.000004699707,2|8,1:2|0:0,0:0:0:0:
169,322,127005,1,0,0:0:0:0:
51,273,127179,6,0,B|17:229|17:229|51:127,1,154.000004699707,2|10,1:2|0:0,0:0:0:0:
134,73,127700,1,0,0:0:0:0:
134,73,127874,2,0,P|192:91|243:96,1,77.0000023498536,2|0,0:0|1:0,0:0:0:0:
243,179,128222,1,8,0:0:0:0:
296,312,128396,6,0,P|364:332|404:272,1,154.000004699707,2|0,1:2|1:0,0:0:0:0:
498,216,128917,2,0,P|484:180|473:142,1,77.0000023498536,8|0,0:0|0:0,0:0:0:0:
396,61,129265,2,0,L|348:51,3,38.5000011749268,8|8|8|8,0:0|0:0|0:0|0:0,0:0:0:0:
330,99,129613,2,0,L|282:109,3,38.5000011749268,10|10|8|4,0:0|0:0|3:0|3:0,0:0:0:0:
259,84,129960,6,0,B|172:91|226:135|118:140,1,140,14|2,1:2|1:2,0:0:0:0:
69,68,130482,2,0,P|79:31|86:-8,2,70,10|2|2,0:0|0:0|1:2,0:0:0:0:
0,136,131003,2,0,P|10:173|17:212,1,70,10|2,0:0|0:0,0:0:0:0:
134,290,131351,5,2,1:2:0:0:
134,290,131525,2,0,P|167:272|222:293,2,70,10|2|2,0:0|0:0|1:2,0:0:0:0:
65,348,132046,2,0,L|32:337,7,35,8|8|8|8|8|8|4|4,0:0|0:0|0:0|0:0|3:0|3:0|3:0|3:0,0:0:0:0:
0,299,132741,6,0,P|-7:243|31:203,1,115.50000352478,6|2,1:2|0:0,0:0:0:0:
63,209,133089,1,8,0:0:0:0:
63,209,133263,1,2,0:0:0:0:
156,152,133437,2,0,P|141:84|124:24,2,115.50000352478,2|2|2,0:0|0:0|0:0,0:0:0:0:
255,258,134132,6,0,B|339:263|294:327|410:333,2,154.000004699707,2|8|0,1:2|0:0|1:0,0:0:0:0:
255,258,135001,1,0,1:0:0:0:
342,261,135175,2,0,P|402:241|449:236,1,77.0000023498536,10|2,0:0|0:0,0:0:0:0:
508,107,135522,6,0,P|443:127|389:57,1,154.000004699707,6|8,1:2|0:0,0:0:0:0:
312,12,136044,1,0,0:0:0:0:
234,78,136218,6,0,P|183:92|164:103,2,51.3333348999024,2|2|2,1:2|0:0|0:0,0:0:0:0:
274,147,136565,2,0,P|325:161|344:172,2,51.3333348999024,10|2|2,0:0|0:0|0:0,0:0:0:0:
217,205,136913,5,2,1:2:0:0:
217,205,137030,2,0,P|223:230|229:255,1,51.3333348999024,2|2,0:2|0:0,0:0:0:0:
302,293,137260,5,10,0:0:0:0:
302,293,137377,2,0,P|295:318|289:343,1,51.3333348999024,2|2,0:0|0:0,0:0:0:0:
220,381,137608,6,0,P|176:363|139:355,1,77.0000023498536,0|0,1:2|1:0,0:0:0:0:
114,260,137956,1,8,0:0:0:0:
0,110,138303,6,0,P|42:111|72:85,1,77.0000023498536,2|2,1:2|0:0,0:0:0:0:
68,90,138651,1,10,0:0:0:0:
137,165,138825,1,2,0:0:0:0:
137,165,138912,1,2,0:0:0:0:
137,165,138999,2,0,P|184:176|204:189,3,38.5000011749268,2|2|2|2,1:2|0:0|1:2|0:0,0:0:0:0:
216,149,139346,2,0,P|224:122|245:54,1,77.0000023498536,10|2,0:0|0:0,0:0:0:0:
225,35,139607,1,2,0:0:0:0:
225,35,139694,6,0,P|266:19|316:37,1,77.0000023498536,2|2,1:2|0:0,0:0:0:0:
370,102,140041,2,0,P|388:96|406:91,3,38.5000011749268,10|2|2|10,0:0|0:0|0:0|0:0,0:0:0:0:
349,142,140389,2,0,P|364:198|372:234,1,77.0000023498536,2|2,1:2|1:2,0:0:0:0:
474,238,140737,2,0,P|494:273|479:309,1,77.0000023498536,10|2,0:0|0:0,0:0:0:0:
380,384,141084,6,0,P|343:373|338:372,3,38.5000011749268,2|2|2|2,1:2|0:0|0:0|0:0,0:0:0:0:
315,330,141432,2,0,P|278:341|273:342,3,38.5000011749268,10|2|2|2,0:0|0:0|0:0|0:0,0:0:0:0:
233,377,141780,2,0,P|189:351|190:271,1,115.50000352478,2|2,1:2|0:0,0:0:0:0:
202,269,142127,2,0,P|180:217|170:178,1,77.0000023498536,10|0,0:0|0:0,0:0:0:0:
269,98,142475,6,0,B|324:75|324:75|343:40|343:40|410:13,2,161.000003070831,2|10|2,1:2|0:0|1:2,0:0:0:0:
269,98,143344,1,0,1:0:0:0:
214,169,143518,2,0,B|141:160|184:121|82:114,1,120.750002303124,10|0,0:0|0:0,0:0:0:0:
70,86,143865,6,0,P|26:101|13:105,4,40.2500007677078,6|2|2|2|10,1:2|0:0|0:0|0:0|0:0,0:0:0:0:
70,86,144387,1,2,0:0:0:0:
131,12,144561,1,2,1:2:0:0:
131,12,144647,1,2,0:0:0:0:
131,12,144734,2,0,P|181:24|221:32,1,80.5000015354157,2|10,1:2|0:0,0:0:0:0:
269,98,145082,1,2,0:0:0:0:
388,54,145256,6,0,L|376:7,7,40.2500007677078,2|2|2|2|10|2|2|10,1:2|0:0|0:0|0:0|0:0|0:0|0:0|0:0,0:0:0:0:
422,74,145951,2,0,L|410:121,7,40.2500007677078,2|2|2|2|10|2|2|2,1:2|0:0|1:2|0:0|0:0|0:0|0:0|0:0,0:0:0:0:
469,63,146646,5,2,1:2:0:0:
469,63,146820,1,2,0:0:0:0:
512,155,146994,2,0,P|517:194|494:226,1,80.5000015354157,10|2,0:0|0:0,0:0:0:0:
454,235,147255,1,2,0:0:0:0:
454,235,147342,1,2,1:2:0:0:
489,331,147515,1,2,1:2:0:0:
362,365,147689,6,0,P|315:347|288:341,4,40.2500007677078,10|2|2|2|2,0:0|0:0|0:0|0:0|1:2,0:0:0:0:
275,263,148211,1,2,0:0:0:0:
275,263,148384,2,0,P|220:287|193:293,1,80.5000015354157,10|2,0:0|0:0,0:0:0:0:
135,364,148732,5,10,0:0:0:0:
98,347,148818,1,10,0:0:0:0:
74,315,148905,1,10,0:0:0:0:
68,276,148992,1,10,0:0:0:0:
81,238,149079,1,2,1:2:0:0:
0,166,149254,1,2,1:2:0:0:
116,91,149427,6,0,P|155:107|187:112,3,40.2500007677078,6|2|2|2,1:2|0:0|0:0|0:0,0:0:0:0:
181,137,149775,2,0,P|215:115|213:53,1,80.5000015354157,10|2,0:0|1:2,0:0:0:0:
293,0,150123,2,0,P|302:38|335:59,1,80.5000015354157,10|2,0:0|1:2,0:0:0:0:
366,38,150383,1,2,0:0:0:0:
366,38,150470,2,0,P|419:34|468:32,1,80.5000015354157,10|0,0:0|1:0,0:0:0:0:
474,168,150818,6,0,P|505:177|524:186,3,40.2500007677078,10|2|2|2,0:0|0:0|1:2|0:0,0:0:0:0:
435,200,151165,2,0,P|389:210|325:238,1,80.5000015354157,10|0,0:0|1:0,0:0:0:0:
268,172,151513,1,10,0:0:0:0:
268,172,151600,1,2,0:0:0:0:
268,172,151687,1,2,0:0:0:0:
210,256,151861,2,0,P|231:290|242:318,2,40.2500007677078,10|2|2,0:0|0:0|1:2,0:0:0:0:
72,213,152208,6,0,P|38:234|10:245,3,40.2500007677078,10|2|2|2,0:0|0:0|0:0|0:0,0:0:0:0:
8,269,152556,2,0,P|68:294|90:311,1,80.5000015354157,10|2,0:0|1:2,0:0:0:0:
165,369,152904,2,0,P|199:347|237:335,1,80.5000015354157,10|2,0:0|1:2,0:0:0:0:
249,301,153164,1,2,1:2:0:0:
249,301,153251,2,0,P|224:264|208:226,1,80.5000015354157,10|0,0:0|0:2,0:0:0:0:
242,99,153599,5,10,0:0:0:0:
259,62,153685,1,10,0:0:0:0:
291,38,153772,1,10,0:0:0:0:
330,32,153859,1,10,0:0:0:0:
368,45,153946,1,2,1:2:0:0:
351,143,154120,5,2,1:2:0:0:
425,207,154294,1,10,0:0:0:0:
425,207,154381,2,0,P|413:255|405:315,1,80.5000015354157,0|0,1:0|1:0,0:0:0:0:
385,296,154642,1,8,0:0:0:0:
229,215,154989,6,0,B|138:222|192:271|87:280,1,140,6|8,1:2|0:0,0:0:0:0:
15,333,155511,2,0,P|88:361|158:390,1,140,2|2,1:2|1:2,0:0:0:0:
228,333,156032,1,8,0:0:0:0:
228,333,156206,1,2,0:0:0:0:
319,263,156380,6,0,P|282:262|248:220,2,70,2|0|8,1:2|1:0|0:0,0:0:0:0:
356,363,156901,2,0,P|382:323|475:350,1,140,0|0,1:0|1:0,0:0:0:0:
506,241,157423,2,0,P|491:189|484:150,1,70,10|2,0:0|0:0,0:0:0:0:
386,73,157770,6,0,P|342:88|224:116,1,140,2|8,1:2|0:0,0:0:0:0:
214,213,158292,2,0,P|170:198|52:170,1,140,0|2,1:0|1:2,0:0:0:0:
18,101,158813,1,8,0:0:0:0:
18,101,158987,1,0,0:0:0:0:
93,33,159161,6,0,P|127:46|173:56,1,70,0|0,1:0|1:0,0:0:0:0:
230,192,159508,2,0,P|265:148|352:169,1,140,14|2,0:0|1:2,0:0:0:0:
341,157,160030,1,0,1:0:0:0:
411,71,160204,2,0,B|440:93|440:93|448:148,1,70,12|0,0:0|0:0,0:0:0:0:
512,209,160551,6,0,B|483:253|483:253|511:348,1,140,6|8,1:2|0:0,0:0:0:0:
404,297,161073,2,0,B|314:302|360:352|278:354,1,140,2|2,1:2|1:2,0:0:0:0:
226,279,161594,2,0,P|193:267|158:259,1,70,8|2,0:0|0:0,0:0:0:0:
52,341,161942,6,0,P|3:314|30:221,1,140,2|8,1:2|0:0,0:0:0:0:
106,187,162463,2,0,P|155:160|128:67,1,140,2|2,1:2|1:2,0:0:0:0:
75,6,162985,2,0,P|67:50|54:92,1,70,8|0,0:0|0:0,0:0:0:0:
0,155,163332,6,0,P|21:214|40:308,1,140,2|8,1:2|0:0,0:0:0:0:
125,340,163854,2,0,B|213:341|166:392|276:384,1,140,0|2,1:0|1:2,0:0:0:0:
319,313,164375,1,8,0:0:0:0:
319,313,164549,1,0,0:0:0:0:
223,218,164723,6,0,B|200:189|200:189|218:140,1,70,2|0,1:2|1:0,0:0:0:0:
266,75,165070,2,0,P|322:66|411:45,1,140,14|0,0:0|1:0,0:0:0:0:
486,117,165592,1,0,1:2:0:0:
486,117,165679,1,0,1:0:0:0:
486,117,165766,2,0,B|478:147|477:168,3,35,2|2|2|2,1:2|1:2|1:2|1:2,0:0:0:0:
442,189,166113,6,0,P|411:161|355:170,1,70,6|0,1:2|0:0,0:0:0:0:
329,223,166461,1,8,0:0:0:0:
329,223,166635,2,0,P|280:273|200:250,1,140,2|2,1:2|1:2,0:0:0:0:
175,182,167156,1,8,0:0:0:0:
61,262,167330,6,0,B|26:309|26:309|60:385,1,140,6|0,1:2|1:0,0:0:0:0:
60,383,167851,1,8,0:0:0:0:
146,316,168025,2,0,B|197:336|197:336|214:366|214:366|276:389,1,140,6|0,1:2|1:0,0:0:0:0:
303,297,168547,2,0,P|347:282|371:270,1,70,8|0,0:0|0:0,0:0:0:0:
470,352,168894,6,0,P|504:327|484:222,1,140,6|8,1:2|0:0,0:0:0:0:
417,203,169416,2,0,P|383:178|403:73,1,140,6|0,1:2|1:0,0:0:0:0:
385,87,169937,1,8,0:0:0:0:
331,166,170111,6,0,B|245:174|302:231|182:232,1,140,6|0,1:2|1:0,0:0:0:0:
141,163,170632,1,8,0:0:0:0:
54,232,170806,2,0,P|40:172|17:78,1,140,2|0,1:2|1:0,0:0:0:0:
42,70,171241,1,0,1:0:0:0:
42,70,171328,2,0,P|86:61|133:46,1,70,8|2,0:0|0:0,0:0:0:0:
248,31,171675,5,8,0:0:0:0:
248,31,171849,1,8,0:0:0:0:
342,114,172023,5,8,0:0:0:0:
342,114,172197,1,8,0:0:0:0:
452,0,172544,5,8,0:0:0:0:
452,0,172631,1,8,0:0:0:0:
452,0,172718,1,0,1:0:0:0:
511,72,172892,6,0,P|501:112|482:222,1,140,2|0,1:2|0:0,0:0:0:0:
397,327,173587,2,0,B|313:336|359:390|244:385,1,140,0|0,0:0|1:0,0:0:0:0:
247,355,174022,1,0,1:0:0:0:
247,355,174109,2,0,P|213:346|200:344,3,35,10|2|2|2,0:0|0:0|0:0|0:0,0:0:0:0:
187,301,174456,6,0,P|178:240|222:198,1,125.999996154785,2|0,1:2|1:0,0:0:0:0:
314,161,174978,2,0,P|322:100|278:58,1,125.999996154785,0|0,0:0|0:0,0:0:0:0:
278,58,175499,1,0,1:0:0:0:
192,6,175673,6,0,P|130:24|64:41,1,125.999996154785,2|0,0:0|0:0,0:0:0:0:
9,117,176194,2,0,P|27:179|44:245,2,125.999996154785,2|2|2,1:2|1:2|1:2,0:0:0:0:
171,181,177237,6,0,P|153:243|136:309,1,125.999996154785,2|0,1:2|1:0,0:0:0:0:
137,302,177759,1,0,0:0:0:0:
102,384,177933,2,0,P|147:343|212:366,1,125.999996154785,2|0,1:2|1:0,0:0:0:0:
296,257,178454,6,0,P|341:298|406:275,1,125.999996154785,10|8,0:0|0:0,0:0:0:0:
471,215,178975,2,0,P|456:187|446:157,1,62.9999980773926,2|0,0:0|1:0,0:0:0:0:
446,157,179323,1,8,0:0:0:0:
371,104,179497,1,8,0:0:0:0:
371,104,179584,1,8,0:0:0:0:
371,104,179671,2,0,P|382:81|390:57,3,31.4999990386963,8|8|8|8,0:0|0:0|0:0|0:0,0:0:0:0:
425,54,180018,6,0,P|388:-7|320:14,1,154.000004699707,6|8,1:2|0:0,0:0:0:0:
260,98,180539,2,0,B|164:109|214:163|124:171,1,154.000004699707,2|0,1:2|1:0,0:0:0:0:
50,114,181061,1,8,0:0:0:0:
0,243,181235,6,0,P|8:288|15:352,1,77.0000023498536,2|0,1:2|0:0,0:0:0:0:
105,384,181582,1,0,1:0:0:0:
105,384,181756,2,0,P|150:377|215:370,1,77.0000023498536,8|0,0:0|0:0,0:0:0:0:
243,281,182104,2,0,P|263:329|362:316,1,154.000004699707,2|8,1:2|0:0,0:0:0:0:
353,326,182625,1,0,0:0:0:0:
363,188,182799,6,0,P|383:140|482:153,1,154.000004699707,2|8,1:2|0:0,0:0:0:0:
512,231,183320,1,0,0:0:0:0:
512,231,183494,2,0,P|499:267|491:304,1,77.0000023498536,2|0,1:2|1:0,0:0:0:0:
435,376,183842,1,8,0:0:0:0:
315,311,184016,6,0,B|222:318|273:373|173:385,1,154.000004699707,2|0,1:2|1:0,0:0:0:0:
85,341,184537,2,0,P|74:304|60:268,1,77.0000023498536,8|0,0:0|0:0,0:0:0:0:
137,189,184885,2,0,P|157:195|185:199,3,38.5000011749268,8|8|8|8,0:0|0:0|0:0|0:0,0:0:0:0:
193,226,185233,2,0,P|213:220|241:216,3,38.5000011749268,2|2|2|2,1:2|1:2|1:2|1:2,0:0:0:0:
250,165,185580,6,0,P|287:161|315:186,1,77.0000023498536,6|0,1:2|0:0,0:0:0:0:
315,186,185928,1,8,0:0:0:0:
376,273,186102,2,0,P|413:277|441:252,1,77.0000023498536,0|8,1:0|0:0,0:0:0:0:
497,171,186449,2,0,P|481:134|467:98,1,77.0000023498536,0|8,1:0|0:0,0:0:0:0:
366,0,186797,6,0,B|307:14|307:14|291:46|291:46|230:65,1,154.000004699707,6|2,1:2|0:0,0:0:0:0:
214,170,187318,2,0,P|150:143|123:136,1,77.0000023498536,8|0,0:0|1:0,0:0:0:0:
103,50,187666,2,0,P|68:66|31:79,1,77.0000023498536,8|0,0:0|1:0,0:0:0:0:
0,167,188014,1,8,0:0:0:0:
0,167,188187,1,0,1:0:0:0:
89,271,188361,6,0,B|130:230|130:230|236:257,1,154.000004699707,6|8,1:2|0:0,0:0:0:0:
265,356,188883,1,8,0:0:0:0:
265,356,188970,1,8,0:0:0:0:
265,356,189057,2,0,P|298:337|336:339,1,77.0000023498536,2|0,1:2|1:0,0:0:0:0:
387,265,189404,1,8,0:0:0:0:
477,374,189578,6,0,P|522:336|492:242,1,154.000004699707,6|0,1:2|1:0,0:0:0:0:
463,148,190099,2,0,P|421:135|379:114,1,77.0000023498536,8|2,0:0|0:0,0:0:0:0:
319,199,190447,2,0,P|285:209|251:226,3,38.5000011749268,8|8|8|8,0:0|0:0|0:0|0:0,0:0:0:0:
263,164,190795,2,0,P|229:153|195:136,3,38.5000011749268,8|8|4|4,3:0|3:0|3:0|3:0,0:0:0:0:
204,179,191142,6,0,B|114:200|159:242|69:259,1,154.000004699707,6|8,1:2|0:0,0:0:0:0:
3,204,191664,2,0,P|-10:147|-25:114,1,77.0000023498536,2|8,1:2|0:0,0:0:0:0:
68,63,192011,1,0,1:0:0:0:
68,63,192185,1,8,0:0:0:0:
194,136,192359,6,0,P|223:105|279:123,1,77.0000023498536,6|8,1:2|0:0,0:0:0:0:
255,104,192707,1,2,0:0:0:0:
321,16,192880,2,0,P|350:47|406:29,1,77.0000023498536,10|0,0:0|1:0,0:0:0:0:
461,117,193228,2,0,P|447:160|436:200,1,77.0000023498536,10|0,0:0|1:0,0:0:0:0:
350,235,193576,2,0,P|364:278|375:318,1,77.0000023498536,10|0,0:2|1:0,0:0:0:0:
485,384,193923,6,0,P|465:350|358:359,1,154.000004699707,6|8,1:2|0:0,0:0:0:0:
266,298,194445,1,8,0:0:0:0:
266,298,194532,1,8,0:0:0:0:
266,298,194619,2,0,P|227:313|177:322,1,77.0000023498536,2|0,1:2|1:0,0:0:0:0:
134,384,194966,1,8,0:0:0:0:
32,289,195140,6,0,P|17:213|0:138,1,154.000004699707,6|0,1:2|1:0,0:0:0:0:
94,53,195661,2,0,P|102:98|113:143,1,77.0000023498536,10|0,0:0|0:0,0:0:0:0:
213,164,196009,1,8,0:0:0:0:
213,164,196096,1,2,0:0:0:0:
213,164,196183,2,0,P|246:156|280:150,5,38.5000011749268,8|10|10|10|10|10,0:0|0:0|0:0|0:0|0:0|0:0,0:0:0:0:
279,114,196704,6,0,B|372:126|315:174|418:193,1,154.000004699707,6|8,1:2|0:0,0:0:0:0:
405,190,197226,1,0,1:0:0:0:
487,268,197400,1,8,0:0:0:0:
487,268,197573,1,0,1:0:0:0:
401,311,197747,1,8,0:0:0:0:
401,311,197920,1,0,1:0:0:0:
512,384,198095,6,0,P|445:364|354:343,1,154.000004699707,8|8,0:0|0:0,0:0:0:0:
363,344,198616,1,0,1:0:0:0:
283,290,198790,2,0,P|260:298|222:308,3,38.5000011749268,8|8|8|8,0:0|0:0|0:0|0:0,0:0:0:0:
214,346,199138,2,0,P|191:338|153:328,3,38.5000011749268,8|8|8|0,0:0|0:0|0:0|1:0,0:0:0:0:
155,303,199485,5,0,0:0:0:0:
155,303,200876,6,0,P|171:244|187:149,1,154.000004699707,6|6,1:2|1:2,0:0:0:0:
349,38,201571,2,0,P|334:-7|332:-27,7,38.5000011749268,8|8|8|8|8|8|8|8,0:0|0:0|0:0|0:0|0:2|0:2|0:2|0:2,0:0:0:0:
382,60,202266,6,0,B|301:67|338:115|255:123,1,140,14|8,1:2|0:0,0:0:0:0:
261,122,202788,1,2,1:2:0:0:
175,58,202962,2,0,P|143:72|109:81,1,70,10|2,0:2|1:2,0:0:0:0:
103,124,203222,1,2,0:0:0:0:
103,124,203309,1,10,0:0:0:0:
41,191,203483,1,2,1:2:0:0:
146,279,203657,6,0,P|170:233|251:252,1,140,10|10,0:2|0:0,0:0:0:0:
308,159,204178,1,2,1:2:0:0:
394,219,204352,1,10,0:0:0:0:
471,152,204526,2,0,L|532:131,2,35,2|2|10,1:2|0:0|0:0,0:0:0:0:
426,321,205047,6,0,P|373:308|334:305,1,70,10|2,0:2|1:2,0:0:0:0:
280,365,205395,2,0,P|245:371|211:380,1,70,10|2,0:0|1:2,0:0:0:0:
132,318,205743,1,10,0:0:0:0:
132,318,205830,1,2,0:0:0:0:
132,318,205917,2,0,P|151:271|158:224,1,70,2|10,1:2|0:0,0:0:0:0:
155,252,206264,1,2,1:2:0:0:
290,207,206438,6,0,B|333:152|333:152|316:83,1,140,14|8,0:2|0:0,0:0:0:0:
175,7,207133,2,0,P|141:15|106:20,1,70,14|2,0:0|1:2,0:0:0:0:
56,111,207481,2,0,P|90:116|124:124,1,70,10|2,0:0|0:2,0:0:0:0:
214,248,207828,6,0,P|195:320|180:399,1,140,14|10,1:2|0:0,0:0:0:0:
182,384,208350,1,2,1:2:0:0:
78,361,208524,2,0,P|69:327|56:294,1,70,10|2,0:2|1:2,0:0:0:0:
77,277,208784,1,2,0:0:0:0:
77,277,208871,1,10,0:0:0:0:
142,201,209045,1,2,1:2:0:0:
32,110,209219,6,0,P|72:64|158:81,1,140,10|10,0:2|0:0,0:0:0:0:
145,70,209740,1,2,1:2:0:0:
224,0,209914,1,10,0:2:0:0:
301,76,210088,2,0,L|289:128,2,35,2|2|8,1:2|0:0|0:0,0:0:0:0:
451,0,210609,6,0,P|459:41|472:77,1,70,10|2,0:2|1:2,0:0:0:0:
382,137,210957,2,0,P|374:178|361:214,1,70,8|2,0:0|1:2,0:0:0:0:
441,278,211305,2,0,P|475:270|486:269,4,35,2|2|2|2|10,1:2|1:2|1:2|1:2|0:0,0:0:0:0:
441,278,211826,1,2,0:0:0:0:
338,368,212000,6,0,P|307:354|261:343,1,70,10|8,0:0|0:0,0:0:0:0:
253,302,212260,1,8,0:0:0:0:
253,302,212347,1,8,0:0:0:0:
334,247,212521,1,10,0:0:0:0:
279,160,212695,2,0,B|194:165|230:208|132:213,1,140,10|10,0:0|0:0,0:0:0:0:
151,211,213216,1,10,0:0:0:0:
60,323,213390,6,0,P|51:289|36:257,1,70,2|10,1:2|0:0,0:0:0:0:
8,243,213650,1,8,0:0:0:0:
8,243,213738,2,0,P|22:211|31:177,1,70,10|10,0:0|0:0,0:0:0:0:
121,126,214085,1,10,0:0:0:0:
121,126,214259,1,10,0:0:0:0:
62,38,214433,1,10,0:0:0:0:
62,38,214607,1,2,0:0:0:0:
201,3,214781,6,0,P|240:17|292:30,1,70,2|10,1:2|0:0,0:0:0:0:
289,56,215041,1,8,0:0:0:0:
289,56,215128,1,10,0:0:0:0:
225,136,215302,1,10,0:0:0:0:
313,198,215476,2,0,P|332:188|366:177,3,35,10|8|10|8,0:0|0:0|0:0|0:0,0:0:0:0:
358,132,215824,2,0,P|377:142|411:153,3,35,10|8|10|8,0:0|0:0|0:0|0:0,0:0:0:0:
430,172,216171,6,0,P|412:110|499:32,1,181.999991668702,6|2,1:2|0:0,0:0:0:0:
