osu file format v14

[General]
AudioFilename: audio.mp3
AudioLeadIn: 0
PreviewTime:57489
Countdown: 1
SampleSet: Drum
StackLeniency: 0.7
Mode: 0
LetterboxInBreaks: 0
WidescreenStoryboard: 1

[Editor]
DistanceSpacing: 1
BeatDivisor: 4
GridSize: 4
TimelineZoom: 2.5

[Metadata]
Title:Hibari Kochi (Cut Ver.)
TitleUnicode:雲雀東風 (Cut Ver.)
Artist:Asano Hayato
ArtistUnicode:浅野隼人
Creator:Tycani
Version:Never's Normal
Source:ソフィーのアトリエ ~不思議な本の錬金術士~
Tags:Fuiba Fuyu KayINeo -Nenu-_3 Fsjallink ShayKs Never4Ever Xahlt Kuon- Gweon Sua spring wind skylark atelier sophie sophie: the alchemist of mysterious book battle theme gust instrumental folk video game videogame rpg 2015 sony playstation ps3 ps4 psvita microsoft windows pc nintendo switch
BeatmapID:3883443
BeatmapSetID:1799538

[Difficulty]
HPDrainRate:3
CircleSize:3
OverallDifficulty:4
ApproachRate:5
SliderMultiplier:0.95
SliderTickRate:1

[Events]
//Background and Video events
0,0,"A17_CG_1.jpg",0,0
//Break Periods
//Storyboard Layer 0 (Background)
//Storyboard Layer 1 (Fail)
//Storyboard Layer 2 (Pass)
//Storyboard Layer 3 (Foreground)
//Storyboard Layer 4 (Overlay)
//Storyboard Sound Samples

[TimingPoints]
891,300,4,1,0,60,1,0
891,-100,4,1,0,60,0,0
10491,-105.263157894737,4,3,0,40,0,0
29691,-100,4,1,0,50,0,0
39291,-105.263157894737,4,3,0,50,0,0
48891,-105.263157894737,4,2,0,50,0,0
55491,-100,4,2,0,50,0,0
55791,-100,4,2,0,50,0,0
56091,-100,4,1,0,60,0,0
57141,-100,4,1,0,60,0,0
58491,-95.2380952380952,4,1,0,60,0,1
76641,-100,4,1,0,60,0,0
77691,-95.2380952380952,4,3,0,60,0,1
77991,-95.2380952380952,4,3,0,60,0,1
92091,-100,4,3,0,60,0,0
94491,-100,4,3,0,60,0,0
95841,-100,4,3,0,60,0,0
96891,-100,4,1,0,60,0,0
105291,-100,4,1,0,60,0,0
105891,-100,4,1,0,60,0,0
106491,-100,4,1,0,60,0,1
111141,-100,4,1,0,60,0,0
111741,-100,4,3,0,60,0,0
112191,-100,4,3,0,60,0,1
116091,-100,4,3,0,60,0,0
116166,-100,4,3,0,60,0,0
117291,-100,4,3,0,50,0,0
118491,-100,4,3,0,40,0,0
119691,-100,4,3,0,30,0,0
120891,-100,4,3,0,20,0,0

[Colours]
Combo1 : 245,224,71
Combo2 : 167,99,69
Combo3 : 0,128,128
Combo4 : 210,0,0

[HitObjects]
109,100,291,6,0,P|155:104|180:145,1,95,0|8,0:0|0:3,0:0:0:0:
162,235,891,2,0,P|143:299|138:338,1,95,4|8,0:0|0:0,0:2:0:0:
170,362,1341,1,4,3:0:0:0:
268,377,1641,1,4,3:0:0:0:
268,377,1791,2,0,L|370:358,1,95,8|4,0:0|3:0,0:0:0:0:
429,293,2391,2,0,B|478:311|460:329|504:348,2,95,8|4|8,0:0|3:0|0:0,0:0:0:0:
350,239,3291,6,0,P|362:201|393:148,1,95,4|8,3:0|0:0,0:0:0:0:
423,120,3741,1,4,3:0:0:0:
389,31,4041,2,0,P|365:31|341:33,1,47.5,4|8,3:0|0:0,0:0:0:0:
303,7,4341,2,0,P|262:8|228:49,1,95,4|4,0:0|3:0,0:0:0:0:
221,94,4791,1,8,0:0:0:0:
232,139,4941,1,4,0:0:0:0:
138,125,5241,2,0,L|123:74,1,47.5,4|8,3:0|0:0,0:0:0:0:
77,72,5541,6,0,B|47:113|47:113|70:201,1,142.5,4|8,1:0|0:0,0:0:0:0:
84,247,6141,1,4,3:0:0:0:
179,277,6441,1,4,3:0:0:0:
179,277,6591,2,0,L|158:372,1,95,8|4,0:0|3:0,0:0:0:0:
253,381,7191,1,8,0:0:0:0:
330,325,7491,2,0,P|359:286|329:234,1,95,4|8,3:0|0:0,0:0:0:0:
298,235,7941,6,0,L|277:126,1,95,4|4,3:0|3:0,0:0:0:0:
274,94,8391,1,8,0:0:0:0:
363,62,8691,2,0,P|398:69|420:83,1,47.5,4|4,3:0|3:0,0:0:0:0:
432,115,8991,1,8,0:0:0:0:
470,201,9291,2,0,P|426:229|416:277,1,95,4|8,0:0|0:0,0:0:0:0:
427,314,9741,2,0,L|332:299,1,95,4|4,0:0|3:0,0:0:0:0:
286,308,10191,1,4,3:0:0:0:
211,359,10491,6,0,P|148:341|140:280,1,135.374996385098,14|2,0:0|0:0,0:0:0:0:
208,161,11391,2,0,P|210:118|196:53,1,90.2499975900651,2|0,0:0|0:0,0:0:0:0:
181,31,11841,1,2,0:0:0:0:
97,13,12141,1,4,3:0:0:0:
97,13,12291,2,0,P|63:30|56:37,1,45.1249987950325,8|2,0:1|0:0,0:0:0:0:
16,51,12591,1,2,0:0:0:0:
22,141,12891,5,2,0:0:0:0:
91,258,13341,1,2,0:0:0:0:
216,307,13791,1,2,0:0:0:0:
345,266,14241,1,2,0:0:0:0:
402,196,14541,1,4,3:0:0:0:
402,196,14691,2,0,L|393:140,1,45.1249987950325,8|0,0:1|0:0,0:0:0:0:
418,113,14991,1,8,0:1:0:0:
372,34,15291,6,0,P|315:4|231:3,1,135.374996385098,4|4,3:0|0:0,0:0:0:0:
127,68,16191,2,0,P|111:110|109:154,1,90.2499975900651,4|0,0:0|0:0,0:0:0:0:
118,198,16641,1,12,3:0:0:0:
177,273,16941,1,4,3:0:0:0:
177,273,17091,2,0,L|221:277,1,45.1249987950325,8|0,0:1|0:0,0:0:0:0:
257,305,17391,1,4,3:0:0:0:
327,248,17691,6,0,P|327:199|301:164,1,90.2499975900651,4|0,3:0|0:0,0:0:0:0:
260,153,18141,1,0,0:0:0:0:
130,112,18591,2,0,P|137:68|172:38,1,90.2499975900651,4|0,0:0|0:0,0:0:0:0:
214,48,19041,1,4,0:0:0:0:
300,14,19341,1,0,0:0:0:0:
300,14,19491,2,0,P|334:24|362:27,1,45.1249987950325,8|4,0:1|0:0,0:0:0:0:
388,19,19791,1,8,0:1:0:0:
461,71,20091,5,4,1:0:0:0:
415,201,20541,1,4,3:0:0:0:
415,201,20691,2,0,P|427:221|438:252,2,45.1249987950325,2|2|4,0:2|0:2|0:0,0:0:0:0:
375,179,21141,2,0,P|336:181|288:202,1,90.2499975900651,2|4,0:2|0:0,0:0:0:0:
292,291,21741,1,2,0:2:0:0:
292,291,21891,2,0,L|249:281,1,45.1249987950325,8|2,0:1|0:2,0:0:0:0:
204,293,22191,1,12,0:0:0:0:
154,219,22491,6,0,P|152:157|164:115,1,90.2499975900651,4|2,0:0|0:2,0:0:0:0:
192,99,22941,1,4,0:0:0:0:
272,140,23241,1,2,0:2:0:0:
343,85,23541,2,0,P|354:33|322:1,1,90.2499975900651,2|4,0:2|0:0,0:0:0:0:
287,3,23991,1,2,0:2:0:0:
200,30,24291,1,8,0:1:0:0:
115,62,24591,1,12,0:1:0:0:
31,95,24891,6,0,P|27:138|37:186,1,90.2499975900651,12|2,0:0|0:2,0:0:0:0:
61,226,25341,1,4,0:0:0:0:
147,253,25641,1,2,0:2:0:0:
208,187,25941,2,0,B|254:161|299:183|286:201|338:217|389:194,1,180.49999518013,2|4,0:2|0:0,0:0:0:0:
414,166,26691,1,8,0:1:0:0:
414,75,26991,2,0,L|468:75,1,45.1249987950325,8|2,0:1|0:2,0:0:0:0:
491,103,27291,6,0,P|510:131|511:192,1,90.2499975900651,12|2,0:0|0:2,0:0:0:0:
491,225,27741,2,0,L|501:269,1,45.1249987950325,4|0,0:0|0:0,0:0:0:0:
468,300,28041,1,2,0:2:0:0:
383,321,28341,1,2,0:2:0:0:
383,321,28491,2,0,P|341:301|281:289,1,90.2499975900651,6|2,0:2|0:2,0:0:0:0:
208,284,29091,1,8,0:1:0:0:
163,205,29391,2,0,P|166:175|171:158,1,45.1249987950325,8|2,0:1|0:2,0:0:0:0:
188,116,29691,6,0,P|168:62|138:26,1,95,6|8,0:2|0:0,0:0:0:0:
100,38,30141,1,4,3:0:0:0:
13,83,30441,2,0,L|33:135,1,47.5,4|8,3:0|0:0,0:0:0:0:
17,173,30741,2,0,P|17:216|96:277,1,142.5,4|8,3:0|0:0,0:0:0:0:
134,267,31341,1,4,3:0:0:0:
206,336,31641,1,4,3:0:0:0:
206,336,31791,2,0,P|222:351|253:360,1,47.5,8|8,0:0|3:0,0:0:0:0:
288,337,32091,6,0,P|305:280|337:234,1,95,4|8,3:0|0:0,0:0:0:0:
361,221,32541,1,4,3:0:0:0:
454,238,32841,1,4,3:0:0:0:
509,156,33141,2,0,P|518:116|504:57,1,95,4|4,3:0|3:0,0:0:0:0:
474,28,33591,1,8,0:0:0:0:
380,10,33891,1,0,0:0:0:0:
303,66,34191,1,8,0:0:0:0:
294,156,34491,6,0,L|309:257,1,95,4|8,3:0|0:0,0:0:0:0:
289,293,34941,1,0,0:0:0:0:
206,340,35241,2,0,P|163:329|151:318,1,47.5,4|8,3:0|0:0,0:0:0:0:
132,289,35541,2,0,P|138:241|141:194,1,95,4|4,3:0|3:0,0:0:0:0:
149,147,35991,1,8,0:0:0:0:
57,121,36291,2,0,L|45:70,1,47.5,4|4,3:0|3:0,0:0:0:0:
66,31,36591,1,8,0:0:0:0:
156,0,36891,6,0,P|193:-2|238:41,1,95,4|8,3:0|0:0,0:0:0:0:
235,81,37341,1,8,0:1:0:0:
225,175,37641,1,8,0:1:0:0:
287,246,37941,2,0,P|336:248|385:217,1,95,12|4,3:0|3:0,0:0:0:0:
406,191,38391,2,0,L|402:127,1,47.5,8|0,0:0|0:0,0:0:0:0:
433,106,38691,1,8,0:0:0:0:
482,25,38991,2,0,P|462:11|439:4,1,47.5,8|8,0:0|0:0,0:0:0:0:
398,21,39291,6,0,P|329:39|262:19,1,135.374996385098,4|6,3:1|3:2,0:0:0:0:
133,8,40191,2,0,P|82:17|77:68,1,90.2499975900651,4|2,3:0|0:2,0:0:0:0:
90,89,40641,1,4,3:0:0:0:
203,163,41091,1,4,0:0:0:0:
208,253,41391,1,4,0:0:0:0:
216,343,41691,6,0,P|247:331|316:320,1,90.2499975900651,4|0,0:0|0:0,0:0:0:0:
340,345,42141,1,4,0:0:0:0:
465,294,42591,2,0,P|493:250|455:174,1,135.374996385098,4|4,0:0|0:0,0:0:0:0:
322,74,43641,1,4,0:0:0:0:
322,74,43791,1,12,0:0:0:0:
237,91,44091,5,4,0:0:0:0:
110,44,44541,1,4,0:0:0:0:
6,130,44991,1,4,3:0:0:0:
10,265,45441,1,4,0:0:0:0:
131,324,45891,2,0,P|150:309|183:301,1,45.1249987950325,4|0,0:0|0:0,0:0:0:0:
213,316,46191,1,4,0:0:0:0:
288,365,46491,6,0,L|390:378,1,90.2499975900651,0|2,0:0|0:2,0:0:0:0:
421,364,46941,1,4,0:0:0:0:
350,248,47391,2,0,P|371:205|414:186,1,90.2499975900651,4|2,0:0|0:2,0:0:0:0:
451,197,47841,1,12,0:0:0:0:
461,111,48141,1,4,0:0:0:0:
461,111,48291,2,0,P|444:95|423:87,1,45.1249987950325,4|4,0:0|0:0,0:0:0:0:
397,50,48591,2,0,P|374:51|352:63,1,45.1249987950325,8|4,0:0|0:0,0:0:0:0:
309,67,48891,5,4,0:0:0:0:
175,21,49341,1,2,0:0:0:0:
175,21,49491,2,0,P|152:59|156:112,1,90.2499975900651,10|0,0:0|0:0,0:0:0:0:
228,153,50091,2,0,P|257:157|278:167,1,45.1249987950325,8|0,3:0|0:0,0:0:0:0:
298,199,50391,1,4,3:0:0:0:
241,286,50691,2,0,L|155:314,1,90.2499975900651,8|2,0:0|0:0,0:0:0:0:
62,299,51291,6,0,P|25:243|58:137,1,180.49999518013,2|8,0:0|0:0,0:0:0:0:
92,115,52041,1,2,0:0:0:0:
160,174,52341,1,10,0:0:0:0:
253,75,52791,2,0,L|302:84,1,45.1249987950325,4|0,3:0|0:0,0:0:0:0:
340,68,53091,1,10,0:0:0:0:
438,101,53391,1,4,3:0:0:0:
438,101,53541,6,0,P|418:148|469:209,1,135.374996385098,10|4,0:0|3:0,0:0:0:0:
437,294,54291,2,0,P|377:303|339:316,1,90.2499975900651,10|2,0:0|0:0,0:0:0:0:
323,349,54741,1,10,0:0:0:0:
235,326,55041,2,0,L|180:310,2,45.1249987950325,2|2|2,0:0|0:0|0:0,0:0:0:0:
264,288,55491,1,10,0:0:0:0:
220,203,55791,2,0,P|206:160|203:142,1,47.5,8|4,0:0|3:0,0:0:0:0:
229,118,56091,5,8,0:0:0:0:
229,118,56241,1,8,0:0:0:0:
285,41,56541,1,8,0:0:0:0:
285,41,56691,1,8,0:0:0:0:
376,84,56991,1,8,0:0:0:0:
376,84,57141,1,12,0:0:0:0:
364,226,57591,2,0,B|317:229|332:254|277:259,2,95,2|2|10,0:0|0:0|0:0,0:0:0:0:
440,290,58491,6,0,P|434:337|396:383,1,99.7499969558717,6|8,0:0|0:0,0:0:0:0:
306,354,59091,1,0,0:0:0:0:
211,384,59391,2,0,L|156:362,1,49.8749984779358,10|0,0:0|0:0,0:0:0:0:
143,326,59691,2,0,P|156:280|120:225,1,99.7499969558717,2|8,0:0|0:0,0:0:0:0:
91,208,60141,1,2,0:0:0:0:
23,142,60441,1,4,3:0:0:0:
23,142,60591,2,0,L|8:84,1,49.8749984779358,10|0,0:0|0:0,0:0:0:0:
43,56,60891,6,0,P|93:62|142:41,1,99.7499969558717,2|10,0:0|0:0,0:0:0:0:
173,8,61341,1,2,0:0:0:0:
271,21,61641,2,0,P|292:38|305:69,1,49.8749984779358,2|8,0:0|0:0,0:0:0:0:
289,106,61941,2,0,L|272:221,1,99.7499969558717,2|4,0:0|3:0,0:0:0:0:
294,250,62391,6,0,B|320:257|336:281|328:284|339:305|366:313,2,99.7499969558717,10|2|10,0:0|0:0|0:0,0:0:0:0:
208,307,63291,2,0,P|136:304|111:268,1,99.7499969558717,2|8,0:0|0:0,0:0:0:0:
62,205,63891,1,4,3:0:0:0:
137,148,64191,2,0,L|121:94,1,49.8749984779358,10|2,0:0|0:0,0:0:0:0:
141,53,64491,2,0,P|174:14|232:10,1,99.7499969558717,2|8,0:0|0:0,0:0:0:0:
261,35,64941,1,2,0:0:0:0:
362,19,65241,1,4,3:0:0:0:
362,19,65391,2,0,P|356:45|349:80,1,49.8749984779358,10|4,0:0|3:0,0:0:0:0:
385,103,65691,6,0,P|396:144|410:207,1,99.7499969558717,2|10,0:0|0:0,0:0:0:0:
386,244,66141,1,2,0:0:0:0:
450,320,66441,1,2,0:0:0:0:
370,379,66741,1,6,0:0:0:0:
271,362,67041,1,6,0:0:0:0:
173,343,67341,2,0,P|148:329|128:309,1,49.8749984779358,6|0,0:0|0:0,0:0:0:0:
82,314,67641,2,0,P|76:283|78:258,1,49.8749984779358,6|8,0:0|0:0,0:0:0:0:
49,223,67941,6,0,P|68:175|115:148,1,99.7499969558717,6|4,0:0|3:0,0:0:0:0:
152,171,68391,1,10,0:0:0:0:
200,83,68691,2,0,L|258:90,1,49.8749984779358,2|2,0:0|0:0,0:0:0:0:
287,56,68991,1,10,0:0:0:0:
287,56,69141,2,0,P|321:20|371:30,1,99.7499969558717,2|4,0:0|3:0,0:0:0:0:
394,68,69591,2,0,B|375:109|398:114|371:163,2,99.7499969558717,10|2|10,0:0|0:0|0:0,0:0:0:0:
478,13,70491,5,2,0:0:0:0:
507,108,70791,1,8,0:0:0:0:
489,206,71091,2,0,L|465:262,1,49.8749984779358,2|2,0:0|0:0,0:0:0:0:
432,284,71391,1,10,0:0:0:0:
432,284,71541,2,0,P|395:264|337:272,1,99.7499969558717,2|4,0:0|3:0,0:0:0:0:
313,313,71991,1,10,0:0:0:0:
216,338,72291,1,2,0:0:0:0:
118,360,72591,1,10,0:0:0:0:
52,284,72891,6,0,P|67:221|97:187,1,99.7499969558717,6|10,0:0|0:0,0:0:0:0:
109,149,73341,2,0,L|92:87,1,49.8749984779358,2|0,0:0|0:0,0:0:0:0:
109,53,73641,1,2,0:0:0:0:
198,96,73941,2,0,P|257:99|304:70,1,99.7499969558717,2|4,0:0|3:0,0:0:0:0:
320,39,74391,1,8,0:0:0:0:
402,95,74691,2,0,P|419:138|421:194,1,99.7499969558717,2|10,0:0|0:0,0:0:0:0:
365,274,75291,6,0,P|318:289|261:284,1,99.7499969558717,6|10,0:0|0:0,0:0:0:0:
224,264,75741,1,6,0:0:0:0:
253,168,76041,1,6,0:0:0:0:
210,77,76341,1,2,3:0:0:0:
120,44,76641,1,4,3:0:0:0:
120,44,76791,2,0,P|91:55|77:68,1,47.5,8|8,3:0|3:0,0:0:0:0:
33,79,77091,2,0,P|29:114|33:134,1,47.5,8|8,3:0|0:0,0:0:0:0:
10,168,77391,2,0,P|18:191|33:210,1,47.5,8|8,0:0|0:0,0:0:0:0:
62,251,77691,6,0,P|98:249|153:299,1,99.7499969558717,6|8,0:1|0:1,0:0:0:0:
184,378,78291,1,0,0:0:0:0:
283,378,78591,2,0,P|295:357|304:334,1,49.8749984779358,8|0,0:1|0:0,0:0:0:0:
282,289,78891,2,0,L|263:177,1,99.7499969558717,2|8,0:2|0:1,0:0:0:0:
241,146,79341,1,2,0:2:0:0:
305,69,79641,1,2,0:2:0:0:
403,86,79941,1,2,0:2:0:0:
403,86,80091,6,0,P|428:113|442:176,1,99.7499969558717,4|8,0:0|0:1,0:0:0:0:
419,217,80541,1,2,0:2:0:0:
419,217,80691,1,2,0:2:0:0:
336,273,80991,2,0,L|271:279,1,49.8749984779358,8|4,0:1|3:0,0:0:0:0:
256,317,81291,1,0,0:0:0:0:
168,268,81591,2,0,B|156:216|181:222|169:169,2,99.7499969558717,10|2|10,0:1|0:1|0:1,0:0:0:0:
81,317,82491,6,0,P|50:290|30:229,1,99.7499969558717,2|8,0:1|0:1,0:0:0:0:
36,140,83091,1,4,0:0:0:0:
110,73,83391,2,0,L|129:20,1,49.8749984779358,8|2,0:1|0:2,0:0:0:0:
173,8,83691,2,0,P|210:22|237:73,1,99.7499969558717,2|8,0:2|0:1,0:0:0:0:
232,122,84141,1,8,0:1:0:0:
315,187,84441,1,4,0:0:0:0:
315,187,84591,2,0,P|339:196|363:198,1,49.8749984779358,8|0,0:1|0:0,0:0:0:0:
410,183,84891,6,0,P|395:232|388:286,1,99.7499969558717,4|8,3:0|0:1,0:0:0:0:
409,326,85341,1,2,0:2:0:0:
322,374,85641,1,2,0:2:0:0:
235,323,85941,2,0,B|212:324|190:342|197:345|174:362|146:364,2,99.7499969558717,6|6|2,1:0|1:0|0:0,0:0:0:0:
294,242,86841,1,8,1:1:0:0:
224,170,87141,6,0,P|199:101|195:59,1,99.7499969558717,6|0,1:0|0:0,0:0:0:0:
201,25,87591,1,8,0:1:0:0:
103,2,87891,2,0,P|71:14|53:28,1,49.8749984779358,2|2,0:2|0:2,0:0:0:0:
39,71,88191,1,8,0:1:0:0:
39,71,88341,2,0,P|52:113|60:171,1,99.7499969558717,2|0,0:2|0:0,0:0:0:0:
37,212,88791,1,8,0:1:0:0:
55,310,89091,1,2,0:2:0:0:
149,341,89391,1,8,0:1:0:0:
240,301,89691,6,0,P|268:301|328:355,1,99.7499969558717,4|8,0:0|0:1,0:0:0:0:
420,365,90291,2,0,P|432:326|436:298,1,49.8749984779358,2|2,0:2|0:2,0:0:0:0:
431,267,90591,1,8,0:1:0:0:
419,218,90741,2,0,P|414:180|467:130,1,99.7499969558717,12|4,0:0|0:0,0:0:0:0:
499,123,91191,1,8,0:1:0:0:
510,23,91491,2,0,P|491:9|467:2,1,49.8749984779358,8|8,0:1|0:0,0:0:0:0:
420,20,91791,1,4,0:0:0:0:
335,62,92091,6,0,P|263:70|238:48,1,95,4|2,0:2|0:2,0:0:0:0:
227,16,92541,1,0,0:0:0:0:
142,60,92841,1,2,0:2:0:0:
162,152,93141,2,0,L|183:249,1,95,2|0,0:2|0:0,0:0:0:0:
208,284,93591,1,4,0:0:0:0:
134,344,93891,1,8,0:1:0:0:
50,299,94191,1,8,0:1:0:0:
62,204,94491,6,0,L|69:97,1,95,6|8,0:2|0:1,0:0:0:0:
104,78,94941,2,0,P|131:67|165:62,1,47.5,2|0,0:0|0:0,0:0:0:0:
190,87,95241,2,0,P|217:98|251:103,1,47.5,2|0,0:0|0:0,0:0:0:0:
280,88,95541,1,2,0:0:0:0:
333,173,95841,1,8,1:1:0:0:
333,173,95991,2,0,B|378:191|361:212|406:230,2,95,8|8|8,0:1|0:1|1:1,0:0:0:0:
253,226,96891,6,0,P|237:273|249:328,1,95,4|8,0:1|0:0,0:0:0:0:
280,348,97341,1,4,3:0:0:0:
373,384,97641,1,4,3:0:0:0:
373,384,97791,2,0,L|466:349,1,95,8|4,0:0|3:0,0:0:0:0:
496,257,98391,2,0,B|517:216|490:210|516:165,2,95,8|4|8,0:0|3:0|0:0,0:0:0:0:
401,263,99291,6,0,P|344:241|318:208,1,95,4|8,3:0|0:0,0:0:0:0:
321,168,99741,1,4,3:0:0:0:
359,80,100041,1,4,3:0:0:0:
290,13,100341,2,0,P|245:11|195:53,1,95,4|4,0:0|3:0,0:0:0:0:
187,81,100791,1,8,0:0:0:0:
172,126,100941,1,4,3:0:0:0:
237,195,101241,2,0,P|255:222|267:251,1,47.5,4|8,3:0|0:0,0:0:0:0:
298,265,101541,6,0,P|336:212|413:158,1,142.5,4|8,0:0|0:0,0:0:0:0:
444,156,102141,1,4,3:0:0:0:
438,65,102441,1,4,3:0:0:0:
438,65,102591,2,0,P|398:39|352:27,1,95,8|8,0:0|0:0,0:0:0:0:
278,87,103191,1,8,0:0:0:0:
300,179,103491,1,4,3:0:0:0:
242,255,103791,1,8,0:0:0:0:
242,255,103941,6,0,P|202:277|146:285,1,95,4|4,3:0|3:0,0:0:0:0:
116,255,104391,1,8,0:0:0:0:
78,167,104691,2,0,L|95:115,1,47.5,4|4,3:0|3:0,0:0:0:0:
78,76,104991,1,8,0:0:0:0:
151,15,105291,2,0,P|178:32|201:104,1,95,4|8,0:0|0:0,0:0:0:0:
195,135,105741,2,0,L|165:240,1,95,4|4,0:0|3:0,0:0:0:0:
189,269,106191,1,8,0:0:0:0:
252,339,106491,5,12,0:0:0:0:
335,292,106791,2,0,L|322:228,1,47.5,8|4,0:0|3:0,0:0:0:0:
354,207,107091,1,8,0:0:0:0:
442,173,107391,2,0,P|455:128|427:80,1,95,8|8,0:0|0:0,0:0:0:0:
341,83,107991,2,0,B|323:66|322:37|332:42|330:13|314:-5,2,95,8|8|8,0:0|0:0|0:0,0:0:0:0:
305,171,108891,6,0,P|281:174|218:224,1,95,8|8,0:0|0:0,0:0:0:0:
199,254,109341,1,4,3:0:0:0:
231,343,109641,1,4,3:0:0:0:
144,379,109941,2,0,P|84:374|53:348,1,95,4|4,3:0|3:0,0:0:0:0:
50,308,110391,1,8,0:0:0:0:
77,268,110541,2,0,P|82:214|74:152,1,95,4|4,3:0|3:0,0:0:0:0:
25,94,111141,5,4,0:0:0:0:
76,13,111441,2,0,L|132:-3,1,47.5,8|8,0:0|0:0,0:0:0:0:
170,13,111741,1,4,0:0:0:0:
265,43,112041,1,4,3:0:0:0:
265,43,112191,2,0,P|276:107|348:151,1,142.5,12|4,0:1|3:0,0:0:0:0:
369,183,112791,2,0,L|354:229,1,47.5,8|2,0:1|0:0,0:0:0:0:
379,268,113091,1,2,0:0:0:0:
448,341,113391,1,4,3:0:0:0:
448,341,113541,6,0,P|396:372|348:365,1,95,4|4,0:2|0:0,0:0:0:0:
320,349,113991,1,8,0:1:0:0:
225,361,114291,2,0,P|225:332|221:304,1,47.5,4|4,0:0|0:0,0:0:0:0:
204,269,114591,1,8,0:1:0:0:
255,189,114891,2,0,P|289:149|328:147,1,95,4|8,0:2|0:1,0:0:0:0:
373,131,115341,2,0,P|373:94|316:52,1,95,4|4,0:2|0:0,0:0:0:0:
301,20,115791,2,0,L|240:19,1,47.5,2|0,0:2|0:0,0:0:0:0:
218,51,116091,1,10,0:0:0:0:
256,192,116166,12,0,120891,0:0:0:0:
