osu file format v14

[General]
AudioFilename: audio.mp3
AudioLeadIn: 0
PreviewTime: 57489
Countdown: 1
SampleSet: Normal
StackLeniency: 0.7
Mode: 0
LetterboxInBreaks: 0
WidescreenStoryboard: 1

[Editor]
DistanceSpacing: 1.3
BeatDivisor: 6
GridSize: 4
TimelineZoom: 2.5

[Metadata]
Title:Hibari Kochi (Cut Ver.)
TitleUnicode:雲雀東風 (Cut Ver.)
Artist:Asano Hayato
ArtistUnicode:浅野隼人
Creator:Tycani
Version:Mystery
Source:ソフィーのアトリエ ~不思議な本の錬金術士~
Tags:Fuiba Fuyu KayINeo -Nenu-_3 Fsjallink ShayKs Never4Ever Xahlt Kuon- Gweon Sua spring wind skylark atelier sophie sophie: the alchemist of mysterious book battle theme gust instrumental folk video game videogame rpg 2015 sony playstation ps3 ps4 psvita microsoft windows pc nintendo switch
BeatmapID:3689078
BeatmapSetID:1799538

[Difficulty]
HPDrainRate:5
CircleSize:4
OverallDifficulty:8.5
ApproachRate:9
SliderMultiplier:1.8
SliderTickRate:1

[Events]
//Background and Video events
0,0,"A17_CG_1.jpg",0,0
//Break Periods
//Storyboard Layer 0 (Background)
//Storyboard Layer 1 (Fail)
//Storyboard Layer 2 (Pass)
//Storyboard Layer 3 (Foreground)
//Storyboard Layer 4 (Overlay)
//Storyboard Sound Samples

[TimingPoints]
891,300,4,1,0,60,1,0
891,-100,4,1,0,60,0,0
10491,-125,4,3,0,40,0,0
15741,-100,4,3,0,40,0,0
29691,-90.9090909090909,4,1,0,50,0,0
39291,-117.647058823529,4,3,0,50,0,0
48891,-133.333333333333,4,2,0,50,0,0
55491,-117.647058823529,4,2,0,50,0,0
55791,-100,4,2,0,50,0,0
56091,-100,4,1,0,60,0,0
57141,-100,4,1,0,60,0,0
58491,-83.3333333333333,4,1,0,60,0,1
76641,-125,4,1,0,60,0,0
77691,-90.9090909090909,4,3,0,60,0,0
77991,-100,4,3,0,60,0,0
92091,-133.333333333333,4,3,0,60,0,0
94491,-83.3333333333333,4,3,0,60,0,0
95841,-133.333333333333,4,3,0,60,0,0
96891,-100,4,1,0,60,0,0
105291,-125,4,1,0,60,0,0
105891,-125,4,1,0,60,0,0
106491,-71.4285714285714,4,1,0,60,0,1
111741,-86.9565217391304,4,3,0,60,0,0
117291,-86.9565217391304,4,3,0,50,0,0
118491,-86.9565217391304,4,3,0,40,0,0
119691,-86.9565217391304,4,3,0,30,0,0
120891,-86.9565217391304,4,3,0,20,0,0

[Colours]
Combo1 : 245,224,71
Combo2 : 167,99,69
Combo3 : 0,128,128
Combo4 : 210,0,0

[HitObjects]
34,156,441,6,0,L|45:202,2,30,0|0|0,1:0|1:0|1:0,0:0:0:0:
74,92,591,1,8,0:0:0:0:
64,82,891,6,0,P|133:71|207:52,1,135,4|0,0:0|2:0,0:2:0:0:
249,1,1191,1,8,0:0:0:0:
192,211,1341,2,0,P|234:219|291:239,1,90,4|0,3:0|0:0,0:0:0:0:
278,233,1641,1,4,3:0:0:0:
497,151,1791,1,8,0:0:0:0:
394,52,1941,1,4,3:0:0:0:
394,52,2016,1,8,3:1:0:0:
394,52,2091,6,0,P|385:87|378:152,1,90,4|4,3:0|3:0,0:0:0:0:
477,303,2391,2,0,P|446:305|355:363,1,135,8|0,0:0|2:0,0:0:0:0:
340,380,2691,2,0,P|287:367|243:350,1,90,4|0,3:0|0:0,0:0:0:0:
97,369,2991,2,0,P|81:316|74:269,1,90,8|0,0:0|0:0,0:0:0:0:
108,14,3291,6,0,P|66:77|24:196,1,180,4|8,3:0|0:0,0:0:0:0:
246,50,3741,2,0,P|195:74|159:94,1,90,4|0,3:0|0:0,0:0:0:0:
322,217,4041,2,0,P|275:184|240:163,1,90,4|8,3:0|0:0,0:0:0:0:
444,3,4341,6,0,P|462:64|510:190,1,180,4|4,0:0|3:0,0:0:0:0:
452,240,4791,1,8,0:0:0:0:
137,193,4941,6,0,P|180:239|265:343,1,180,4|4,0:0|3:0,0:0:0:0:
339,318,5391,1,8,0:0:0:0:
437,80,5541,6,0,P|392:53|257:31,1,180,4|4,1:0|3:0,0:0:0:0:
49,132,5991,1,8,0:0:0:0:
148,1,6141,2,0,P|129:62|121:103,1,90,4|0,3:0|0:0,0:0:0:0:
123,87,6441,1,4,3:0:0:0:
11,215,6591,1,8,0:0:0:0:
58,308,6741,1,4,3:0:0:0:
58,308,6816,1,8,0:0:0:0:
58,308,6891,6,0,P|87:302|156:277,1,90,4|0,3:0|0:0,0:0:0:0:
354,367,7191,2,0,P|339:316|260:311,1,135,8|0,0:0|2:0,0:0:0:0:
251,322,7491,2,0,P|232:262|228:220,1,90,4|4,3:0|3:0,0:0:0:0:
451,193,7791,1,8,0:0:0:0:
361,0,7941,6,0,P|351:65|307:179,1,180,4|4,3:0|3:0,0:0:0:0:
79,141,8391,1,8,0:0:0:0:
125,68,8541,1,0,0:0:0:0:
199,121,8691,1,4,3:0:0:0:
199,121,8841,1,4,3:0:0:0:
172,292,8991,2,0,P|160:247|153:195,1,90,8|0,0:0|0:0,0:0:0:0:
499,153,9291,5,4,0:0:0:0:
280,70,9516,1,8,0:0:0:0:
280,70,9591,1,8,0:0:0:0:
352,318,9741,6,0,P|383:212|400:133,1,180,4|4,0:0|3:0,0:0:0:0:
430,0,10191,2,0,P|442:60|453:99,1,90,4|4,3:0|3:0,0:0:0:0:
342,332,10491,5,14,0:0:0:0:
415,341,10941,1,2,0:0:0:0:
459,280,11391,1,2,0:0:0:0:
426,214,11841,1,2,0:0:0:0:
414,219,12141,1,4,3:0:0:0:
265,377,12291,1,8,0:1:0:0:
204,323,12441,2,0,L|158:312,1,36,2|0,0:0|2:0,0:0:0:0:
99,347,12591,2,0,P|143:319|212:290,1,108,2|0,0:0|0:0,0:0:0:0:
229,227,12891,5,2,0:0:0:0:
229,149,13341,1,2,0:0:0:0:
304,129,13791,1,2,0:0:0:0:
341,198,14241,1,2,0:0:0:0:
334,206,14541,1,4,3:0:0:0:
93,79,14691,1,8,0:1:0:0:
59,159,14841,1,0,0:0:0:0:
240,4,14991,2,0,P|256:51|267:95,1,72,8|0,0:1|0:0,0:0:0:0:
234,182,15291,5,4,3:0:0:0:
244,196,15741,1,4,0:0:0:0:
406,158,15891,1,2,0:2:0:0:
380,259,16041,2,0,P|386:208|393:166,1,90,2|4,0:2|0:0,0:0:0:0:
474,0,16341,2,0,P|482:74|493:136,1,135,2|0,0:2|2:0,0:0:0:0:
492,133,16641,1,12,3:0:0:0:
311,87,16791,2,0,P|369:72|406:62,1,90,2|4,0:2|3:0,0:0:0:0:
147,240,17091,5,8,0:1:0:0:
163,248,17391,1,4,3:0:0:0:
242,0,17691,6,0,P|219:48|182:173,1,180,4|0,3:0|0:0,0:0:0:0:
255,355,18141,1,0,0:0:0:0:
322,289,18291,1,2,0:2:0:0:
159,337,18441,2,0,P|111:317|67:303,1,90,2|4,0:2|0:0,0:0:0:0:
356,375,18741,2,0,P|407:358|449:241,1,180,2|4,0:2|0:0,0:0:0:0:
389,186,19191,1,2,0:2:0:0:
478,38,19416,5,8,0:1:0:0:
478,38,19491,1,8,0:1:0:0:
407,161,19641,1,4,0:0:0:0:
150,53,19791,1,8,0:1:0:0:
162,40,20091,6,0,P|198:72|216:212,1,180,4|0,1:0|0:0,0:0:0:0:
105,347,20541,2,0,L|113:299,1,45,4|0,3:0|2:0,0:0:0:0:
133,223,20691,1,2,0:2:0:0:
127,210,20841,1,2,0:2:0:0:
203,384,20991,1,4,0:0:0:0:
264,318,21141,6,0,P|335:324|402:339,1,135,2|0,0:2|2:0,0:0:0:0:
408,349,21441,1,4,0:0:0:0:
368,77,21741,1,2,0:2:0:0:
503,219,21891,1,8,0:1:0:0:
488,212,22041,1,2,0:2:0:0:
257,136,22191,1,12,0:0:0:0:
434,24,22341,1,2,0:2:0:0:
454,53,22416,1,2,0:2:0:0:
453,88,22491,6,0,P|346:47|284:17,1,180,4|2,0:0|0:2,0:0:0:0:
100,115,22941,2,0,P|147:86|185:71,1,90,4|0,0:0|0:0,0:0:0:0:
211,5,23241,1,2,0:2:0:0:
295,229,23391,1,4,0:0:0:0:
226,268,23541,1,2,0:2:0:0:
218,284,23616,1,2,0:2:0:0:
217,301,23691,6,0,P|193:234|182:210,1,90,2|4,0:2|0:0,0:0:0:0:
311,374,23991,1,2,0:2:0:0:
326,364,24141,1,4,0:0:0:0:
47,265,24291,2,0,P|103:281|140:299,1,90,8|4,0:1|0:0,0:0:0:0:
313,23,24591,2,0,P|280:77|250:158,1,135,12|0,0:1|2:0,0:0:0:0:
211,45,24891,6,0,P|351:15|402:-2,1,180,12|2,0:0|0:2,0:0:0:0:
481,196,25341,2,0,P|502:149|511:104,1,90,4|0,0:0|0:0,0:0:0:0:
369,244,25641,1,2,0:2:0:0:
361,229,25791,1,4,0:0:0:0:
511,321,25941,2,0,P|462:345|323:367,1,180,2|4,0:2|0:0,0:0:0:0:
509,303,26541,1,4,0:0:0:0:
378,127,26691,2,0,P|363:171|350:223,1,90,8|0,0:1|0:0,0:0:0:0:
166,368,26991,1,8,0:1:0:0:
243,324,27141,1,2,0:2:0:0:
0,171,27291,6,0,P|76:199|129:226,1,135,12|0,0:0|2:0,0:0:0:0:
124,223,27591,1,2,0:2:0:0:
227,15,27741,2,0,P|249:59|265:113,1,90,4|0,0:0|0:0,0:0:0:0:
447,32,28041,2,0,P|425:76|409:130,1,90,2|4,0:2|0:0,0:0:0:0:
396,304,28341,1,2,0:2:0:0:
364,286,28416,1,2,0:2:0:0:
356,250,28491,5,6,0:2:0:0:
462,208,28641,1,4,0:0:0:0:
305,355,28791,5,2,0:2:0:0:
263,289,28941,1,4,0:0:0:0:
211,67,29091,5,8,0:1:0:0:
165,324,29241,1,4,0:0:0:0:
165,324,29316,1,4,0:0:0:0:
165,324,29391,1,8,0:1:0:0:
1,131,29541,5,2,0:2:0:0:
39,108,29616,1,2,0:2:0:0:
82,119,29691,2,0,P|179:142|237:151,1,148.50000453186,6|0,0:2|2:0,0:0:0:0:
296,108,29991,1,8,0:0:0:0:
165,324,30141,6,0,P|188:338|216:341,1,49.5000015106202,4|0,3:0|0:0,0:0:0:0:
286,283,30291,1,4,3:0:0:0:
273,293,30441,1,4,3:0:0:0:
462,372,30591,1,8,0:0:0:0:
404,308,30741,6,0,P|371:243|385:116,1,198.000006042481,4|4,3:0|3:0,0:0:0:0:
508,5,31191,1,8,0:0:0:0:
488,103,31341,2,0,P|464:76|445:62,1,49.5000015106202,4|0,3:0|0:0,0:0:0:0:
387,11,31491,1,4,3:0:0:0:
374,18,31641,1,4,3:0:0:0:
276,172,31791,1,8,0:0:0:0:
82,43,31941,1,8,3:0:0:0:
113,18,32016,1,8,3:0:0:0:
152,24,32091,6,0,P|134:53|118:120,1,99.0000030212403,4|0,3:0|0:0,0:0:0:0:
199,304,32391,1,8,0:0:0:0:
29,201,32541,2,0,P|78:229|125:242,1,99.0000030212403,4|0,3:0|0:0,0:0:0:0:
280,362,32841,2,0,P|329:334|376:321,1,99.0000030212403,4|8,3:0|0:0,0:0:0:0:
512,142,33141,6,0,P|465:188|322:225,1,198.000006042481,4|4,3:0|3:0,0:0:0:0:
203,36,33591,2,0,P|223:95|255:134,1,99.0000030212403,8|4,0:0|3:0,0:0:0:0:
432,17,33891,1,0,0:0:0:0:
398,37,33966,1,0,0:0:0:0:
364,58,34041,1,4,3:0:0:0:
106,12,34191,1,8,0:0:0:0:
95,2,34491,6,0,P|42:39|2:172,1,198.000006042481,4|8,3:0|0:0,0:0:0:0:
105,322,34941,2,0,P|82:268|69:220,1,99.0000030212403,0|4,0:0|3:0,0:0:0:0:
126,171,35241,1,4,3:0:0:0:
55,384,35391,1,8,0:0:0:0:
226,284,35541,6,0,P|279:306|431:346,1,198.000006042481,4|4,3:0|3:0,0:0:0:0:
462,152,35991,1,8,0:0:0:0:
471,165,36291,2,0,P|455:211|441:270,1,99.0000030212403,4|4,3:0|3:0,0:0:0:0:
374,75,36591,1,8,0:0:0:0:
413,5,36741,1,0,0:0:0:0:
272,139,36891,6,0,P|206:156|122:182,1,148.50000453186,4|0,3:0|2:0,0:0:0:0:
129,179,37191,1,8,0:0:0:0:
26,36,37341,1,8,0:1:0:0:
99,68,37491,1,0,3:0:0:0:
8,279,37641,1,8,0:1:0:0:
81,247,37791,1,0,3:0:0:0:
230,17,37941,6,0,P|308:58|352:167,1,198.000006042481,12|4,3:0|3:0,0:0:0:0:
274,371,38391,1,8,0:0:0:0:
197,246,38616,1,8,0:0:0:0:
197,246,38691,1,8,0:0:0:0:
375,338,38841,1,8,0:0:0:0:
397,305,38916,1,8,0:0:0:0:
391,265,38991,1,8,0:0:0:0:
114,339,39141,1,8,0:0:0:0:
313,81,39291,6,0,P|299:172|291:246,1,153.000002918243,4|0,3:1|0:0,0:0:0:0:
446,165,39741,1,6,3:2:0:0:
435,176,39816,1,2,0:2:0:0:
420,181,39891,2,0,P|363:160|346:150,1,76.5000014591217
156,0,40191,6,0,P|163:67|159:158,1,153.000002918243,4|2,3:0|0:2,0:0:0:0:
6,197,40641,1,4,3:0:0:0:
56,122,40791,2,0,P|30:166|19:198,1,76.5000014591217,2|0,0:2|0:0,0:0:0:0:
68,338,41091,1,4,0:0:0:0:
150,384,41391,5,4,0:0:0:0:
179,383,41466,1,2,0:2:0:0:
205,372,41541,1,2,0:2:0:0:
225,352,41616,1,2,0:2:0:0:
237,326,41691,6,0,P|289:356|382:371,1,153.000002918243,4|0,0:0|0:0,0:0:0:0:
484,160,42141,2,0,P|459:226|435:316,1,153.000002918243,4|0,0:0|0:0,0:0:0:0:
212,219,42591,1,4,0:0:0:0:
292,279,42741,1,2,0:2:0:0:
308,262,42816,1,2,0:2:0:0:
311,239,42891,5,2,0:2:0:0:
246,38,43041,1,4,0:0:0:0:
368,125,43191,2,0,P|330:118|287:102,1,76.5000014591217,2|0,0:2|0:0,0:0:0:0:
149,156,43491,2,0,P|111:163|68:179,1,76.5000014591217,2|4,0:2|0:0,0:0:0:0:
482,75,43791,2,0,P|439:110|376:142,1,114.750002188683,12|0,0:0|2:0,0:0:0:0:
368,125,44091,6,0,P|308:151|288:242,1,153.000002918243,4|2,0:0|0:2,0:0:0:0:
446,364,44541,2,0,P|398:342|367:317,1,76.5000014591217,4|0,0:0|0:0,0:0:0:0:
191,373,44841,2,0,P|234:342|271:328,1,76.5000014591217,2|4,3:2|3:0,3:0:0:0:
497,200,45141,2,0,P|463:227|343:252,1,153.000002918243,2|4,0:2|0:0,0:0:0:0:
40,50,45891,5,4,0:0:0:0:
124,23,46041,1,0,0:0:0:0:
161,158,46191,1,4,0:0:0:0:
78,186,46341,1,2,0:2:0:0:
60,160,46416,1,2,0:2:0:0:
67,130,46491,6,0,P|140:119|215:81,1,153.000002918243,0|2,0:0|0:2,0:0:0:0:
343,230,46941,2,0,P|327:189|314:141,1,76.5000014591217,4|0,0:0|0:0,0:0:0:0:
385,30,47241,1,2,0:2:0:0:
379,44,47391,1,4,0:0:0:0:
239,193,47541,1,2,0:2:0:0:
248,222,47616,1,2,0:2:0:0:
257,251,47691,1,2,0:2:0:0:
426,361,47841,6,0,P|446:291|495:216,1,153.000002918243,12|4,0:0|0:0,0:0:0:0:
335,94,48291,5,4,0:0:0:0:
361,183,48441,1,4,0:0:0:0:
350,202,48591,5,8,0:0:0:0:
385,30,48741,1,4,0:0:0:0:
319,348,48891,5,4,0:0:0:0:
313,356,49341,5,2,0:0:0:0:
286,360,49416,1,2,0:0:0:0:
264,343,49491,2,0,P|213:358|61:357,1,202.500007724762,10|0,0:0|0:0,0:0:0:0:
71,139,50091,5,8,3:0:0:0:
101,180,50191,1,8,3:0:0:0:
86,199,50291,1,4,3:0:0:0:
93,214,50391,2,0,P|96:245|101:282,1,67.5000025749208,4|0,3:0|0:0,0:0:0:0:
215,72,50691,2,0,P|189:90|160:112,1,67.5000025749208,8|0,0:0|0:0,0:0:0:0:
84,49,50991,1,2,0:0:0:0:
81,36,51141,1,2,0:0:0:0:
192,211,51291,5,2,0:0:0:0:
192,211,51366,2,0,P|234:199|297:184,1,101.250003862381,2|4,0:0|3:0,0:0:0:0:
422,74,51741,2,0,P|401:108|371:131,1,67.5000025749208,2|8,0:0|0:0,0:0:0:0:
494,240,52041,2,0,P|454:217|425:207,1,67.5000025749208,2|0,0:0|0:0,0:0:0:0:
260,344,52341,6,0,P|305:337|387:281,1,135.000005149842,10|0,0:0|0:0,0:0:0:0:
245,356,52791,2,0,P|205:340|183:324,1,67.5000025749208,4|0,3:0|0:0,0:0:0:0:
54,204,53091,1,10,0:0:0:0:
61,221,53166,1,2,0:0:0:0:
76,231,53241,1,2,0:0:0:0:
157,88,53391,1,4,3:0:0:0:
116,11,53541,1,10,0:0:0:0:
76,231,53691,6,0,P|62:275|56:303,1,67.5000025749208,4|8,0:0|0:0,0:0:0:0:
161,184,53991,2,0,P|219:169|286:132,1,135.000005149842,4|10,3:0|0:0,0:0:0:0:
309,44,54441,1,2,0:0:0:0:
357,220,54591,1,2,0:0:0:0:
351,198,54741,6,0,P|391:210|496:221,1,135.000005149842,10|2,0:0|0:0,0:0:0:0:
462,102,55191,1,2,0:0:0:0:
468,120,55341,1,2,0:0:0:0:
394,363,55491,1,10,0:0:0:0:
403,325,55566,1,2,0:0:0:0:
412,288,55641,1,2,0:0:0:0:
372,49,55791,5,8,0:0:0:0:
431,268,55941,1,4,3:0:0:0:
323,340,56091,5,8,0:0:0:0:
458,27,56241,1,8,0:0:0:0:
315,106,56391,5,4,3:0:0:0:
315,106,56466,1,4,3:0:0:0:
315,106,56541,1,8,0:0:0:0:
483,384,56691,1,8,0:0:0:0:
431,268,56841,5,4,3:0:0:0:
509,300,56991,5,8,0:0:0:0:
201,195,57141,2,0,P|148:150|151:47,1,180,12|4,0:0|3:0,0:0:0:0:
269,331,57591,1,2,0:0:0:0:
251,336,57891,1,2,0:0:0:0:
233,341,58191,1,10,0:0:0:0:
193,333,58266,1,8,0:0:0:0:
153,325,58341,1,8,0:0:0:0:
113,317,58416,1,8,0:0:0:0:
74,306,58491,6,0,P|61:229|51:184,1,107.999996704102,6|0,0:0|0:0,0:0:0:0:
131,9,58791,1,8,0:0:0:0:
20,66,58941,2,0,P|80:48|122:19,1,107.999996704102,4|0,3:0|0:0,0:0:0:0:
194,79,59241,1,4,3:0:0:0:
416,15,59391,1,10,0:0:0:0:
399,36,59466,1,0,0:0:0:0:
373,46,59541,1,0,0:0:0:0:
290,249,59691,6,0,P|297:228|302:190,1,53.9999983520508,2|0,0:0|2:0,0:0:0:0:
265,126,59841,1,2,0:0:0:0:
335,314,59991,1,8,0:0:0:0:
379,128,60141,2,0,P|306:156|156:199,1,215.999993408203,2|4,0:0|3:0,0:0:0:0:
45,374,60591,1,10,0:0:0:0:
126,337,60741,1,0,0:0:0:0:
74,48,60891,6,0,P|29:87|21:200,1,161.999995056153,2|0,0:0|2:0,0:0:0:0:
14,184,61191,1,10,0:0:0:0:
264,33,61341,2,0,P|214:54|154:75,1,107.999996704102,2|0,0:0|0:0,0:0:0:0:
363,281,61641,2,0,P|313:260|253:239,1,107.999996704102,2|8,0:0|0:0,0:0:0:0:
499,87,61941,6,0,P|431:102|263:147,1,215.999993408203,2|4,0:0|3:0,0:0:0:0:
68,361,62391,2,0,P|126:348|173:252,1,161.999995056153,10|0,0:0|2:0,0:0:0:0:
151,240,62691,1,2,0:0:0:0:
198,156,62841,1,4,3:0:0:0:
474,336,62991,1,10,0:0:0:0:
458,351,63291,6,0,P|413:303|383:155,1,215.999993408203,2|8,0:0|0:0,0:0:0:0:
494,13,63741,1,4,3:0:0:0:
494,13,63816,1,8,0:0:0:0:
494,13,63891,2,0,P|461:61|444:116,1,107.999996704102,4|4,3:0|3:0,0:0:0:0:
333,309,64191,1,10,0:0:0:0:
408,277,64341,1,2,0:0:0:0:
205,384,64491,5,2,0:0:0:0:
139,330,64641,2,0,P|109:284|92:223,1,107.999996704102,2|8,0:0|0:0,0:0:0:0:
151,6,64941,2,0,P|101:97|15:186,1,215.999993408203,2|4,0:0|3:0,0:0:0:0:
284,297,65391,2,0,P|224:274|176:248,1,107.999996704102,10|4,0:0|3:0,0:0:0:0:
179,221,65616,1,8,0:0:0:0:
172,189,65691,6,0,P|197:113|208:67,1,107.999996704102,2|0,0:0|0:0,0:0:0:0:
482,19,65991,1,10,0:0:0:0:
411,208,66141,2,0,P|371:163|346:100,1,107.999996704102,2|0,0:0|0:0,0:0:0:0:
148,16,66441,1,2,0:0:0:0:
77,54,66591,1,8,0:0:0:0:
53,338,66741,5,6,0:0:0:0:
75,257,66891,1,0,3:0:0:0:
389,370,67041,5,6,0:0:0:0:
367,289,67191,1,0,3:0:0:0:
234,64,67341,5,6,0:0:0:0:
231,76,67641,1,6,0:0:0:0:
275,318,67791,1,8,0:0:0:0:
507,123,67941,6,0,P|443:142|285:180,1,215.999993408203,6|4,0:0|3:0,0:0:0:0:
163,309,68391,2,0,P|85:286|42:280,1,107.999996704102,10|0,0:0|0:0,0:0:0:0:
11,128,68691,1,2,0:0:0:0:
86,101,68841,1,2,0:0:0:0:
97,83,68991,1,10,0:0:0:0:
226,243,69141,6,0,P|300:259|439:298,1,215.999993408203,2|4,0:0|3:0,0:0:0:0:
321,134,69591,1,10,0:0:0:0:
409,63,69741,1,4,3:0:0:0:
423,91,69816,1,8,0:0:0:0:
419,123,69891,1,2,0:0:0:0:
253,68,70041,1,4,3:0:0:0:
348,333,70191,2,0,P|338:259|324:217,1,107.999996704102,10|0,0:0|0:0,0:0:0:0:
134,8,70491,6,0,P|59:57|42:179,1,215.999993408203,2|8,0:0|0:0,0:0:0:0:
236,372,71091,1,2,0:0:0:0:
194,274,71241,1,2,0:0:0:0:
203,258,71391,1,10,0:0:0:0:
225,0,71541,6,0,P|170:108|135:220,1,215.999993408203,2|4,0:0|3:0,0:0:0:0:
241,382,71991,2,0,P|186:369|127:343,1,107.999996704102,10|4,0:0|3:0,0:0:0:0:
379,284,72291,1,2,0:0:0:0:
319,338,72441,1,4,3:0:0:0:
49,266,72591,1,10,0:0:0:0:
42,281,72891,6,0,P|113:254|259:205,1,215.999993408203,6|10,0:0|0:0,0:0:0:0:
385,22,73341,2,0,P|341:73|318:120,1,107.999996704102,2|0,0:0|0:0,0:0:0:0:
451,320,73641,1,2,0:0:0:0:
373,268,73791,1,8,0:0:0:0:
453,53,73941,6,0,P|347:84|233:112,1,215.999993408203,2|4,0:0|3:0,0:0:0:0:
21,31,74391,1,8,0:0:0:0:
68,150,74541,1,0,0:0:0:0:
93,130,74616,1,0,0:0:0:0:
99,98,74691,1,2,0:0:0:0:
14,219,74841,1,4,3:0:0:0:
108,373,74991,2,0,P|184:351|224:342,1,107.999996704102,10|0,0:0|0:0,0:0:0:0:
497,211,75291,6,0,P|448:256|355:265,1,161.999995056153,6|0,0:0|2:0,0:0:0:0:
355,265,75591,1,10,0:0:0:0:
213,28,75741,5,6,0:0:0:0:
228,108,75891,1,0,3:0:0:0:
481,5,76041,5,6,0:0:0:0:
466,85,76191,1,0,3:0:0:0:
106,16,76341,1,2,3:0:0:0:
228,108,76641,5,4,3:0:0:0:
224,129,76716,1,4,3:0:0:0:
220,150,76791,1,8,3:0:0:0:
74,267,76941,5,8,3:0:0:0:
100,255,77016,1,8,3:0:0:0:
126,243,77091,1,8,3:0:0:0:
232,337,77241,5,8,0:0:0:0:
279,345,77316,1,8,0:0:0:0:
326,354,77391,1,8,0:0:0:0:
373,363,77466,1,8,0:0:0:0:
420,372,77541,1,8,0:0:0:0:
512,136,77691,6,0,P|457:154|371:198,1,148.50000453186,6|0,0:1|2:0,0:0:0:0:
363,218,77991,1,8,0:1:0:0:
271,152,78141,2,0,P|245:101|241:62,1,90
307,16,78441,1,4,0:0:0:0:
201,204,78591,5,8,0:1:0:0:
165,183,78691,1,2,0:2:0:0:
144,195,78791,1,2,0:2:0:0:
131,187,78891,2,0,P|79:202|36:212,1,90,2|4,0:2|0:0,0:0:0:0:
66,94,79191,1,8,0:1:0:0:
32,288,79341,1,2,0:2:0:0:
37,305,79416,1,2,0:2:0:0:
50,317,79491,1,2,0:2:0:0:
143,370,79641,2,0,P|197:347|233:336,1,90,2|8,0:2|0:1,0:0:0:0:
286,276,79941,1,2,0:2:0:0:
482,369,80091,6,0,P|441:312|414:198,1,180,4|8,0:0|0:1,0:0:0:0:
483,64,80541,1,2,0:2:0:0:
473,79,80616,1,2,0:2:0:0:
467,96,80691,1,2,0:2:0:0:
327,171,80841,1,2,0:2:0:0:
290,167,80916,1,2,0:2:0:0:
265,142,80991,1,8,0:1:0:0:
306,5,81141,6,0,P|320:54|328:98,1,90,4|0,3:0|0:0,0:0:0:0:
290,167,81441,1,2,0:2:0:0:
88,0,81591,2,0,P|30:68|42:117,1,135,10|0,0:1|2:0,0:0:0:0:
36,106,81891,1,2,0:1:0:0:
17,189,82041,1,4,0:0:0:0:
77,376,82191,2,0,P|54:333|46:284,1,90,10|0,0:1|0:0,0:0:0:0:
395,292,82491,6,0,P|342:313|234:380,1,180,2|8,0:1|0:1,0:0:0:0:
410,305,83091,1,4,0:0:0:0:
458,239,83241,2,0,P|472:169|476:141,1,90,2|8,0:2|0:1,0:0:0:0:
369,17,83541,1,2,0:2:0:0:
449,60,83691,5,2,0:2:0:0:
364,183,83841,2,0,P|311:201|263:215,1,90,2|8,0:2|0:1,0:0:0:0:
244,196,84066,1,8,0:1:0:0:
210,181,84141,2,0,P|161:167|114:160,1,90,8|4,0:1|3:0,0:0:0:0:
61,103,84441,1,4,0:0:0:0:
180,358,84591,2,0,P|136:328|124:246,1,135,8|0,0:1|2:0,0:0:0:0:
122,251,84891,5,4,3:0:0:0:
41,283,85041,1,0,0:0:0:0:
298,339,85191,1,8,0:1:0:0:
210,181,85341,2,0,P|223:240|242:273,1,90,2|0,0:2|0:0,0:0:0:0:
414,343,85641,1,2,0:2:0:0:
395,330,85716,1,0,0:0:0:0:
381,311,85791,1,8,0:1:0:0:
469,48,85941,5,6,1:0:0:0:
444,138,86091,1,0,0:0:0:0:
210,6,86241,5,6,1:0:0:0:
235,96,86391,1,0,0:0:0:0:
484,32,86541,5,2,0:0:0:0:
115,127,86841,1,8,1:1:0:0:
120,141,86991,1,8,1:1:0:0:
26,372,87141,6,0,P|85:339|205:288,1,180,6|0,1:0|0:0,0:0:0:0:
424,384,87591,2,0,P|359:358|329:347,1,90,8|0,0:1|0:0,0:0:0:0:
293,130,87891,1,2,0:2:0:0:
266,206,88041,1,2,0:2:0:0:
348,363,88191,1,8,0:1:0:0:
481,239,88341,1,2,0:2:0:0:
469,258,88416,1,8,0:1:0:0:
449,269,88491,6,0,P|390:249|257:215,1,180,4|8,0:0|0:1,0:0:0:0:
106,110,88941,1,8,0:1:0:0:
95,139,89016,1,8,0:1:0:0:
107,167,89091,2,0,P|162:143|201:130,1,90,2|0,0:2|0:0,0:0:0:0:
449,58,89391,1,8,0:1:0:0:
365,83,89541,1,2,0:0:0:0:
228,305,89691,6,0,P|138:280|39:262,1,180,4|8,0:0|0:1,0:0:0:0:
244,324,90291,1,2,0:2:0:0:
316,283,90441,1,2,0:2:0:0:
507,364,90591,1,8,0:1:0:0:
461,302,90741,6,0,P|428:270|408:136,1,180,12|4,0:0|0:0,0:0:0:0:
209,47,91191,1,8,0:1:0:0:
296,13,91341,1,8,0:1:0:0:
311,40,91416,1,8,0:1:0:0:
312,71,91491,1,8,0:1:0:0:
221,176,91641,1,8,0:0:0:0:
131,121,91791,1,4,0:0:0:0:
69,167,91941,1,4,0:0:0:0:
58,153,92091,6,0,P|121:176|197:197,1,135.000005149842,4|2,0:2|0:2,0:0:0:0:
222,230,92491,1,0,0:0:0:0:
255,205,92591,1,0,0:0:0:0:
267,214,92691,1,12,0:1:0:0:
181,330,92841,6,0,P|143:341|108:355,1,67.5000025749208,2|0,0:2|0:0,0:0:0:0:
343,306,93141,2,0,P|414:327|501:345,1,135.000005149842,2|0,0:2|0:0,0:0:0:0:
278,384,93591,2,0,P|265:338|262:315,1,67.5000025749208,4|0,0:0|0:0,0:0:0:0:
377,150,93891,5,8,0:1:0:0:
420,59,94041,1,4,0:0:0:0:
174,171,94191,5,8,0:1:0:0:
131,80,94341,1,4,0:0:0:0:
194,383,94491,6,0,P|220:314|253:166,1,215.999993408203,6|8,0:2|0:1,0:0:0:0:
338,17,94941,1,2,0:0:0:0:
95,172,95241,1,2,0:0:0:0:
383,374,95541,1,2,0:0:0:0:
459,226,95841,5,8,1:1:0:0:
439,239,95916,1,8,0:1:0:0:
418,251,95991,1,8,0:1:0:0:
316,233,96141,5,8,1:1:0:0:
288,217,96216,1,8,0:1:0:0:
261,201,96291,1,8,0:1:0:0:
181,260,96441,5,8,1:1:0:0:
155,238,96516,1,8,0:1:0:0:
136,210,96591,1,8,1:1:0:0:
126,178,96666,1,8,0:1:0:0:
125,144,96741,1,8,1:1:0:0:
133,111,96816,1,8,0:1:0:0:
150,82,96891,6,0,P|219:112|295:128,1,135,4|0,0:1|2:0,0:0:0:0:
337,70,97191,1,8,0:0:0:0:
470,253,97341,2,0,P|446:207|429:153,1,90,4|0,3:0|0:0,0:0:0:0:
433,171,97641,1,4,3:0:0:0:
390,334,97791,2,0,P|342:349|259:381,1,135,8|0,0:0|0:0,0:0:0:0:
234,362,98091,5,4,3:0:0:0:
234,362,98241,1,4,3:0:0:0:
109,267,98391,2,0,P|71:234|85:139,1,135,8|0,0:0|2:0,0:0:0:0:
72,154,98691,5,4,3:0:0:0:
166,125,98841,1,4,3:0:0:0:
297,289,98991,1,8,0:0:0:0:
330,259,99066,1,2,0:2:0:0:
352,220,99141,1,2,0:2:0:0:
358,176,99216,1,2,0:2:0:0:
348,132,99291,6,0,P|299:155|254:167,1,90,4|0,3:0|0:0,0:0:0:0:
377,28,99591,1,8,0:0:0:0:
512,262,99741,2,0,P|463:243|421:220,1,90,4|0,3:0|0:0,0:0:0:0:
232,0,100041,2,0,P|240:51|241:99,1,90,4|8,3:0|0:0,0:0:0:0:
501,121,100341,6,0,P|424:163|345:226,1,180,4|4,0:0|3:0,0:0:0:0:
236,382,100791,2,0,P|226:363|221:338,1,45,8|0,0:0|2:0,0:0:0:0:
263,206,100941,1,4,3:0:0:0:
278,233,101016,1,8,0:0:0:0:
264,261,101091,1,4,3:0:0:0:
44,298,101241,1,4,3:0:0:0:
46,285,101391,1,8,0:0:0:0:
12,42,101541,6,0,P|49:117|147:98,1,180,4|4,0:0|3:0,0:0:0:0:
301,7,101991,1,8,0:0:0:0:
218,65,102141,2,0,P|285:89|396:137,1,180,4|4,3:0|3:0,0:0:0:0:
423,343,102591,1,8,0:0:0:0:
342,273,102741,1,8,0:0:0:0:
373,256,102816,1,8,0:0:0:0:
386,222,102891,2,0,P|326:206|288:190,1,90,8|4,0:0|3:0,0:0:0:0:
109,344,103191,2,0,P|149:313|186:218,1,135,8|0,0:0|2:0,0:0:0:0:
184,237,103491,5,4,3:0:0:0:
112,68,103641,1,4,3:0:0:0:
105,81,103791,1,8,0:0:0:0:
437,28,103941,6,0,P|362:56|267:110,1,180,4|4,3:0|3:0,0:0:0:0:
232,327,104391,2,0,P|192:285|170:252,1,90,8|0,0:0|0:0,0:0:0:0:
348,358,104691,2,0,P|385:320|415:292,1,90,4|4,3:0|3:0,0:0:0:0:
377,122,104991,1,8,0:0:0:0:
454,167,105141,1,4,3:0:0:0:
458,184,105216,1,8,0:0:0:0:
452,197,105291,5,4,0:0:0:0:
232,88,105441,1,8,0:0:0:0:
259,69,105516,1,8,0:0:0:0:
292,71,105591,1,8,0:0:0:0:
242,315,105741,2,0,P|257:269|274:160,1,144,4|4,0:0|3:0,0:0:0:0:
57,15,106191,1,8,0:0:0:0:
92,17,106266,1,8,0:0:0:0:
121,37,106341,1,8,0:0:0:0:
135,70,106416,1,8,0:0:0:0:
130,105,106491,6,0,P|69:124|10:149,1,125.999996154785,12|4,0:0|3:0,0:0:0:0:
222,17,106791,1,8,0:0:0:0:
231,31,106941,1,4,3:0:0:0:
171,284,107091,5,8,0:0:0:0:
227,118,107241,1,4,3:0:0:0:
135,70,107391,5,8,0:0:0:0:
237,355,107541,1,4,3:0:0:0:
301,288,107691,5,8,0:0:0:0:
388,337,107841,1,4,3:0:0:0:
388,337,107916,1,4,3:0:0:0:
388,337,107991,5,8,0:0:0:0:
412,251,108141,1,4,3:0:0:0:
493,197,108291,5,8,0:0:0:0:
439,59,108441,1,4,3:0:0:0:
504,1,108591,5,8,0:0:0:0:
254,85,108741,1,4,3:0:0:0:
191,217,108891,6,0,P|178:278|161:339,1,125.999996154785,8|4,0:0|3:0,0:0:0:0:
161,339,109191,1,8,0:0:0:0:
36,141,109341,2,0,P|116:117|166:96,1,125.999996154785,4|8,3:0|0:0,0:0:0:0:
254,300,109641,2,0,P|334:324|384:345,1,125.999996154785,4|8,3:0|0:0,0:0:0:0:
465,135,109941,5,4,3:0:0:0:
489,186,110016,1,4,3:0:0:0:
453,230,110091,1,8,0:0:0:0:
338,163,110241,1,4,3:0:0:0:
81,257,110391,5,8,0:0:0:0:
163,299,110541,1,4,3:0:0:0:
218,230,110691,5,8,0:0:0:0:
6,317,110841,1,4,3:0:0:0:
25,67,110991,1,8,0:0:0:0:
7,120,111066,1,8,0:0:0:0:
42,164,111141,6,0,P|129:128|230:97,1,188.999994232178,4|0,0:0|2:0,0:0:0:0:
219,99,111441,1,8,0:0:0:0:
474,178,111591,1,8,0:0:0:0:
424,96,111741,5,4,0:0:0:0:
385,364,112041,1,4,3:0:0:0:
405,347,112116,1,4,3:0:0:0:
410,322,112191,6,0,P|318:353|201:376,1,207.000003948212,12|0,0:1|0:0,0:0:0:0:
136,322,112641,1,4,3:0:0:0:
92,93,112791,1,8,0:1:0:0:
9,180,112941,1,2,0:0:0:0:
35,196,113016,1,2,0:0:0:0:
66,194,113091,2,0,P|117:167|167:155,1,103.500001974106,2|0,0:0|0:0,0:0:0:0:
216,87,113391,1,4,3:0:0:0:
489,267,113541,6,0,P|437:181|414:62,1,207.000003948212,4|4,0:2|0:0,0:0:0:0:
304,279,113991,1,8,0:1:0:0:
269,193,114141,1,0,0:0:0:0:
287,168,114216,1,0,0:0:0:0:
317,165,114291,2,0,P|296:235|290:272,1,103.500001974106,4|4,0:0|0:0,0:0:0:0:
115,336,114591,1,8,0:1:0:0:
126,349,114891,6,0,P|162:293|181:146,1,207.000003948212,4|8,0:2|0:1,0:0:0:0:
2,22,115341,2,0,P|70:57|96:74,1,103.500001974106,4|0,0:2|0:0,0:0:0:0:
92,71,115641,1,4,0:0:0:0:
182,156,115791,2,0,P|239:146|284:121,1,103.500001974106,2|0,0:2|0:0,0:0:0:0:
71,196,116091,5,10,0:0:0:0:
256,192,116166,12,0,120891,0:0:0:0:
