osu file format v14

[General]
AudioFilename: audio.mp3
AudioLeadIn: 0
PreviewTime:57489
Countdown: 1
SampleSet: Drum
StackLeniency: 0.7
Mode: 0
LetterboxInBreaks: 0
WidescreenStoryboard: 1

[Editor]
Bookmarks: 17091,95541,106491,107691,107841,107991,108141,108291,108441,108591,108741,108891,116091
DistanceSpacing: 1
BeatDivisor: 4
GridSize: 4
TimelineZoom: 2.5

[Metadata]
Title:Hibari Kochi (Cut Ver.)
TitleUnicode:雲雀東風 (Cut Ver.)
Artist:Asano Hayato
ArtistUnicode:浅野隼人
Creator:Tycani
Version:Fsjallink's Insane
Source:ソフィーのアトリエ ~不思議な本の錬金術士~
Tags:Fuiba Fuyu KayINeo -Nenu-_3 Fsjallink ShayKs Never4Ever Xahlt Kuon- Gweon Sua spring wind skylark atelier sophie sophie: the alchemist of mysterious book battle theme gust instrumental folk video game videogame rpg 2015 sony playstation ps3 ps4 psvita microsoft windows pc nintendo switch
BeatmapID:3926673
BeatmapSetID:1799538

[Difficulty]
HPDrainRate:5
CircleSize:4
OverallDifficulty:8
ApproachRate:8.5
SliderMultiplier:1.8
SliderTickRate:1

[Events]
//Background and Video events
0,0,"A17_CG_1.jpg",0,0
//Break Periods
//Storyboard Layer 0 (Background)
//Storyboard Layer 1 (Fail)
//Storyboard Layer 2 (Pass)
//Storyboard Layer 3 (Foreground)
//Storyboard Layer 4 (Overlay)
//Storyboard Sound Samples

[TimingPoints]
891,300,4,1,0,60,1,0
10491,-117.647058823529,4,3,0,40,0,0
29691,-100,4,1,0,50,0,0
39291,-117.647058823529,4,3,0,50,0,0
48891,-117.647058823529,4,2,0,50,0,0
56091,-117.647058823529,4,1,0,60,0,0
58491,-100,4,1,0,60,0,0
77691,-100,4,3,0,60,0,0
96891,-100,4,1,0,60,0,0
111741,-100,4,3,0,60,0,0
117291,-86.9565217391304,4,3,0,50,0,0
118491,-86.9565217391304,4,3,0,40,0,0
119691,-86.9565217391304,4,3,0,30,0,0
120891,-86.9565217391304,4,3,0,20,0,0

[Colours]
Combo1 : 245,224,71
Combo2 : 167,99,69
Combo3 : 0,128,128
Combo4 : 210,0,0

[HitObjects]
86,88,891,6,0,P|172:68|295:56,1,180,4|8,0:0|0:0,0:2:0:0:
344,96,1341,1,4,3:0:0:0:
224,230,1641,1,4,3:0:0:0:
306,194,1791,2,0,P|326:271|335:374,2,180,8|4|8,0:0|3:0|0:0,0:0:0:0:
173,72,2691,1,4,3:0:0:0:
89,231,2991,2,0,P|93:287|102:334,1,90,8|0,0:0|0:0,0:0:0:0:
171,266,3291,6,0,P|263:245|366:200,1,180,4|8,3:0|0:0,0:0:0:0:
430,231,3741,1,4,3:0:0:0:
250,217,4041,2,0,P|226:150|219:98,1,90,4|8,3:0|0:0,0:0:0:0:
259,48,4341,6,0,P|350:19|456:12,1,180,4|4,0:0|3:0,0:0:0:0:
494,78,4791,1,8,0:0:0:0:
407,103,4941,2,0,P|426:186|438:219,1,90,4|0,0:0|0:0,0:0:0:0:
493,252,5241,1,4,3:0:0:0:
380,341,5391,1,8,0:0:0:0:
309,215,5541,2,0,P|251:230|192:251,1,90,4|0,1:0|0:0,0:0:0:0:
147,288,5841,2,0,P|64:311|23:318,2,90,4|8|4,3:0|0:0|3:0,0:0:0:0:
386,242,6441,1,4,3:0:0:0:
296,206,6591,6,0,P|274:131|257:18,1,180,8|4,0:0|3:0,0:0:0:0:
168,19,7041,2,0,P|111:21|59:36,1,90,0|8,0:0|0:0,0:0:0:0:
199,149,7416,1,0,2:0:0:0:
199,149,7491,2,0,P|307:132|402:105,1,180,4|8,3:0|0:0,0:0:0:0:
460,142,7941,2,0,P|494:233|510:336,1,180,4|4,3:0|3:0,0:0:0:0:
435,368,8391,1,8,0:0:0:0:
264,237,8691,6,0,P|315:226|365:221,2,90,4|4|8,3:0|3:0|0:0,0:0:0:0:
203,304,9141,1,0,0:0:0:0:
110,137,9291,1,4,0:0:0:0:
287,134,9441,1,0,0:0:0:0:
287,134,9516,1,8,0:0:0:0:
287,134,9591,1,8,0:0:0:0:
221,195,9741,2,0,P|161:227|43:264,1,180,4|4,0:0|3:0,0:0:0:0:
18,178,10191,2,0,P|11:115|0:80,1,90,4|4,3:0|3:0,0:0:0:0:
67,19,10491,6,0,P|146:22|237:46,1,153.000002918243,14|0,0:0|0:0,0:0:0:0:
209,130,10941,2,0,P|283:149|316:151,2,76.5000014591217,2|0|0,0:0|0:0|0:0,0:0:0:0:
147,61,11391,2,0,P|124:113|104:241,1,153.000002918243,2|0,0:0|0:0,0:0:0:0:
148,288,11841,2,0,P|227:287|258:281,1,76.5000014591217,2|0,0:0|0:0,0:0:0:0:
301,322,12141,1,4,3:0:0:0:
354,195,12291,1,8,0:1:0:0:
207,210,12441,1,2,0:0:0:0:
354,195,12591,2,0,P|346:135|344:92,1,76.5000014591217,2|0,0:0|0:0,0:0:0:0:
426,0,12891,6,0,P|439:62|446:165,1,153.000002918243,2|0,0:0|0:0,0:0:0:0:
433,234,13341,2,0,P|496:263|526:271,2,76.5000014591217,2|0|0,0:0|0:0|0:0,0:0:0:0:
406,314,13791,2,0,P|348:293|251:277,1,153.000002918243,2|0,0:0|0:0,0:0:0:0:
258,362,14241,2,0,P|196:355|157:348,1,76.5000014591217,2|0,0:0|0:0,0:0:0:0:
121,293,14541,1,4,3:0:0:0:
247,224,14691,1,8,0:1:0:0:
115,170,14841,1,0,0:0:0:0:
205,140,14991,2,0,P|262:134|298:133,1,76.5000014591217,8|0,0:1|0:0,0:0:0:0:
244,57,15291,6,0,P|336:38|414:34,1,153.000002918243,4|0,3:0|0:0,0:0:0:0:
468,84,15741,1,4,0:0:0:0:
468,84,15891,2,0,P|480:27|482:-6,1,76.5000014591217,2|2,0:2|0:2,0:0:0:0:
369,68,16191,1,4,0:0:0:0:
369,68,16341,2,0,P|357:125|347:227,1,153.000002918243,2|12,0:2|3:0,0:0:0:0:
284,275,16791,1,2,0:2:0:0:
146,212,16941,1,4,3:0:0:0:
160,359,17091,1,8,0:1:0:0:
76,319,17241,1,0,0:0:0:0:
145,262,17391,1,4,3:0:0:0:
84,67,17691,6,0,P|169:41|249:36,1,153.000002918243,4|0,3:0|0:0,0:0:0:0:
300,84,18141,1,0,0:0:0:0:
224,120,18291,1,2,0:2:0:0:
295,164,18441,1,2,0:2:0:0:
221,205,18591,1,4,0:0:0:0:
221,205,18741,6,0,P|237:278|270:377,1,153.000002918243,2|4,0:2|0:0,0:0:0:0:
343,363,19191,1,2,0:2:0:0:
330,279,19341,1,0,0:0:0:0:
330,279,19416,1,8,0:1:0:0:
330,279,19491,1,8,0:1:0:0:
444,218,19641,1,4,0:0:0:0:
388,93,19791,1,8,0:1:0:0:
330,279,20091,6,0,P|244:276|171:261,1,153.000002918243,4|0,1:0|0:0,0:0:0:0:
94,264,20541,2,0,P|104:218|120:181,1,76.5000014591217,4|2,3:0|0:2,0:0:0:0:
149,114,20841,2,0,P|162:78|169:40,2,76.5000014591217,2|4|2,0:2|0:0|0:2,0:0:0:0:
236,318,21441,1,4,0:0:0:0:
367,143,21741,1,2,0:2:0:0:
393,222,21891,2,0,P|467:246|488:249,2,76.5000014591217,8|2|12,0:1|0:2|0:0,0:0:0:0:
309,244,22341,1,2,0:2:0:0:
309,244,22416,1,2,0:2:0:0:
309,244,22491,6,0,P|244:219|135:197,1,153.000002918243,4|2,0:0|0:2,0:0:0:0:
76,167,22941,2,0,P|88:111|107:68,1,76.5000014591217,4|0,0:0|0:0,0:0:0:0:
185,29,23241,2,0,P|197:65|203:102,1,76.5000014591217,2|4,0:2|0:0,0:0:0:0:
311,55,23541,2,0,P|307:115|278:241,1,153.000002918243,2|4,0:2|0:0,0:0:0:0:
216,232,23991,1,2,0:2:0:0:
141,247,24141,1,4,0:0:0:0:
106,315,24291,1,8,0:1:0:0:
259,300,24441,1,4,0:0:0:0:
162,176,24591,1,12,0:1:0:0:
276,17,24891,6,0,P|332:25|442:57,1,153.000002918243,12|2,0:0|0:2,0:0:0:0:
481,144,25341,2,0,P|443:136|407:124,2,76.5000014591217,4|0|2,0:0|0:0|0:2,0:0:0:0:
425,212,25791,1,4,0:0:0:0:
425,212,25941,2,0,P|338:189|259:179,1,153.000002918243,2|4,0:2|0:0,0:0:0:0:
204,238,26391,1,0,0:0:0:0:
204,238,26541,1,4,0:0:0:0:
141,171,26691,2,0,P|151:110|163:60,1,76.5000014591217,8|0,0:1|0:0,0:0:0:0:
62,103,26991,2,0,P|59:53|57:8,1,76.5000014591217,8|2,0:1|0:2,0:0:0:0:
8,176,27291,6,0,P|9:229|21:335,1,153.000002918243,12|2,0:0|0:2,0:0:0:0:
107,358,27741,2,0,P|166:350|207:340,1,76.5000014591217,4|0,0:0|0:0,0:0:0:0:
280,244,28041,2,0,P|242:248|204:255,1,76.5000014591217,2|4,0:2|0:0,0:0:0:0:
121,200,28341,1,2,0:2:0:0:
121,200,28416,1,2,0:2:0:0:
121,200,28491,6,0,P|101:148|84:38,1,153.000002918243,6|2,0:2|0:2,0:0:0:0:
170,19,28941,2,0,P|186:74|192:114,1,76.5000014591217,4|8,0:0|0:1,0:0:0:0:
258,152,29241,1,4,0:0:0:0:
258,152,29316,1,4,0:0:0:0:
258,152,29391,1,8,0:1:0:0:
185,267,29541,1,2,0:2:0:0:
185,267,29616,1,2,0:2:0:0:
185,267,29691,6,0,P|264:288|363:293,1,180,6|8,0:2|0:0,0:0:0:0:
464,256,30141,2,0,P|464:332|458:363,1,90,4|4,3:0|3:0,0:0:0:0:
354,271,30441,2,0,P|354:195|360:160,1,90,4|8,3:0|0:0,0:0:0:0:
310,83,30741,2,0,P|235:53|131:43,1,180,4|4,3:0|3:0,0:0:0:0:
65,97,31191,1,8,0:0:0:0:
151,121,31341,2,0,P|144:168|135:211,1,90,4|4,3:0|3:0,0:0:0:0:
111,296,31641,1,4,3:0:0:0:
32,339,31791,1,8,0:0:0:0:
111,381,31941,6,0,P|144:326|231:250,1,180,8|0,3:0|0:0,0:0:0:0:
312,210,32391,1,8,0:0:0:0:
312,210,32541,2,0,P|300:152|281:101,1,90,4|0,3:0|0:0,0:0:0:0:
192,17,32841,2,0,P|202:72|212:106,1,90,4|8,3:0|0:0,0:0:0:0:
211,195,33141,2,0,P|154:211|28:226,1,180,4|4,3:0|3:0,0:0:0:0:
47,136,33591,2,0,P|83:102|109:63,1,90,8|4,0:0|3:0,0:0:0:0:
210,13,33891,1,0,0:0:0:0:
299,101,34041,1,4,3:0:0:0:
219,203,34191,1,8,0:0:0:0:
362,348,34491,6,0,P|370:272|392:169,1,180,4|8,3:0|0:0,0:0:0:0:
473,134,34941,1,0,0:0:0:0:
259,279,35241,1,4,3:0:0:0:
247,25,35541,2,0,P|282:108|302:197,1,180,4|4,3:0|3:0,0:0:0:0:
387,224,35991,1,8,0:0:0:0:
256,100,36291,6,0,P|194:114|155:125,1,90,4|4,3:0|3:0,0:0:0:0:
80,144,36591,1,8,0:0:0:0:
32,67,36741,1,0,0:0:0:0:
120,50,36891,2,0,P|159:104|221:208,1,180,4|8,3:0|0:0,0:0:0:0:
182,284,37341,1,8,0:1:0:0:
304,63,37641,1,8,0:1:0:0:
490,206,37941,6,0,P|401:222|312:232,1,180,12|4,3:0|3:0,0:0:0:0:
189,253,38391,2,0,P|195:312|206:368,1,90,8|0,0:0|0:0,0:0:0:0:
200,342,38616,1,8,0:0:0:0:
200,342,38691,1,8,0:0:0:0:
299,260,38841,1,8,0:0:0:0:
299,260,38916,1,8,0:0:0:0:
299,260,38991,1,8,0:0:0:0:
380,322,39141,1,8,0:0:0:0:
475,285,39291,6,0,P|466:218|466:108,1,153.000002918243,4|0,3:1|0:0,0:0:0:0:
424,61,39741,1,6,3:2:0:0:
424,61,39816,1,2,0:2:0:0:
424,61,39891,2,0,P|352:59|315:50,1,76.5000014591217
262,29,40191,2,0,P|335:69|397:141,1,153.000002918243,4|2,3:0|0:2,0:0:0:0:
379,216,40641,2,0,P|366:281|363:309,2,76.5000014591217,4|2|0,3:0|0:2|0:0,0:0:0:0:
303,169,41091,6,0,P|283:234|244:339,1,153.000002918243,4|4,0:0|0:0,0:0:0:0:
168,347,41541,1,2,0:2:0:0:
168,347,41616,1,2,0:2:0:0:
168,347,41691,2,0,P|122:326|75:301,1,76.5000014591217,4|0,0:0|0:0,0:0:0:0:
75,229,41991,1,0,0:0:0:0:
73,137,42141,2,0,P|31:127|-12:120,2,76.5000014591217,4|0|0,0:0|0:0|0:0,0:0:0:0:
157,172,42591,1,4,0:0:0:0:
233,121,42741,1,2,0:2:0:0:
233,121,42816,1,2,0:2:0:0:
233,121,42891,6,0,P|292:110|343:106,1,76.5000014591217,2|4,0:2|0:0,0:0:0:0:
290,198,43191,2,0,P|295:254|321:364,1,153.000002918243,2|2,0:2|0:2,0:0:0:0:
408,350,43641,1,4,0:0:0:0:
388,260,43791,2,0,P|343:270|284:293,1,76.5000014591217,12|0,0:0|0:0,0:0:0:0:
210,254,44091,6,0,P|227:191|237:88,1,153.000002918243,4|2,0:0|0:2,0:0:0:0:
190,23,44541,2,0,P|292:19|375:27,1,153.000002918243,4|2,0:0|3:2,0:0:0:0:
437,12,44991,1,4,3:0:0:0:
437,12,45141,2,0,P|433:83|439:118,1,76.5000014591217,2|0,0:2|0:0,0:0:0:0:
466,178,45441,2,0,P|489:225|503:262,2,76.5000014591217,4|0|0,0:0|0:0|0:0,0:0:0:0:
409,250,45891,2,0,P|371:271|257:301,1,153.000002918243,4|4,0:0|0:0,0:0:0:0:
200,236,46341,1,2,0:2:0:0:
200,236,46416,1,2,0:2:0:0:
200,236,46491,6,0,P|136:216|99:214,2,76.5000014591217,0|0|2,0:0|0:0|0:2,0:0:0:0:
290,217,46941,2,0,P|315:176|327:133,1,76.5000014591217,4|0,0:0|0:0,0:0:0:0:
300,60,47241,1,2,0:2:0:0:
217,19,47391,1,4,0:0:0:0:
219,110,47541,2,0,P|156:131|58:141,2,153.000002918243,2|12|4,0:2|0:0|0:0,0:0:0:0:
301,68,48291,1,4,0:0:0:0:
355,131,48441,1,4,0:0:0:0:
315,205,48591,1,8,0:0:0:0:
146,147,48741,1,4,0:0:0:0:
157,329,48891,1,4,0:0:0:0:
190,52,49341,5,2,0:0:0:0:
190,52,49416,1,2,0:0:0:0:
190,52,49491,2,0,P|101:67|25:98,1,153.000002918243,10|0,0:0|0:0,0:0:0:0:
276,102,50091,2,0,P|283:32|286:21,3,51.0000009727478,8|8|4|4,3:0|3:0|3:0|3:0,0:0:0:0:
446,29,50691,2,0,P|444:107|434:204,1,153.000002918243,8|2,0:0|0:0,0:0:0:0:
372,248,51141,1,2,0:0:0:0:
347,159,51291,6,0,P|287:171|251:187,1,76.5000014591217,2|0,0:0|0:0,0:0:0:0:
203,223,51591,1,4,3:0:0:0:
120,206,51741,1,2,0:0:0:0:
175,142,51891,2,0,P|184:87|187:50,2,76.5000014591217,8|2|0,0:0|0:0|0:0,0:0:0:0:
210,238,52341,6,0,P|248:268|370:323,1,153.000002918243,10|0,0:0|0:0,0:0:0:0:
412,269,52791,2,0,P|471:239|506:229,1,76.5000014591217,4|0,3:0|0:0,0:0:0:0:
492,151,53091,1,10,0:0:0:0:
492,151,53166,1,2,0:0:0:0:
492,151,53241,1,2,0:0:0:0:
419,107,53391,1,4,3:0:0:0:
373,36,53541,1,10,0:0:0:0:
327,106,53691,5,4,0:0:0:0:
327,106,53841,2,0,P|261:135|161:153,1,153.000002918243,8|0,0:0|0:0,0:0:0:0:
142,77,54291,1,10,0:0:0:0:
62,50,54441,1,2,0:0:0:0:
73,133,54591,2,0,P|18:165|-15:176,2,76.5000014591217,2|10|0,0:0|0:0|0:0,0:0:0:0:
152,161,55041,1,2,0:0:0:0:
207,224,55191,6,0,P|219:288|219:336,1,76.5000014591217,2|2,0:0|0:0,0:0:0:0:
154,352,55491,1,10,0:0:0:0:
154,352,55566,1,2,0:0:0:0:
154,352,55641,1,2,0:0:0:0:
126,258,55791,1,8,0:0:0:0:
51,213,55941,1,4,3:0:0:0:
43,347,56091,5,8,0:0:0:0:
205,282,56241,1,8,0:0:0:0:
469,347,56541,5,8,0:0:0:0:
307,282,56691,1,8,0:0:0:0:
256,24,56991,5,8,0:0:0:0:
256,192,57141,1,12,0:0:0:0:
92,27,57441,1,4,3:0:0:0:
71,107,57591,2,0,P|59:167|54:217,1,76.5000014591217,2|0,0:0|0:0,0:0:0:0:
148,274,57891,2,0,P|160:214|165:164,1,76.5000014591217,2|0,0:0|0:0,0:0:0:0:
186,75,58191,1,10,0:0:0:0:
186,75,58266,1,8,0:0:0:0:
186,75,58341,1,8,0:0:0:0:
186,75,58416,1,8,0:0:0:0:
186,75,58491,6,0,P|250:90|398:89,1,180,6|8,0:0|0:0,0:0:0:0:
465,57,58941,1,4,3:0:0:0:
440,162,59091,2,0,P|446:237|460:280,1,90,0|4,0:0|3:0,0:0:0:0:
402,328,59391,1,10,0:0:0:0:
318,361,59541,1,0,0:0:0:0:
333,272,59691,6,0,P|269:264|149:260,1,180,2|8,0:0|0:0,0:0:0:0:
86,199,60141,1,2,0:0:0:0:
86,199,60216,1,0,0:0:0:0:
86,199,60291,1,0,0:0:0:0:
189,122,60441,1,4,3:0:0:0:
278,212,60591,2,0,P|339:200|387:184,1,90,10|0,0:0|0:0,0:0:0:0:
281,114,60891,6,0,P|212:93|64:67,1,180,2|10,0:0|0:0,0:0:0:0:
46,139,61341,2,0,P|33:208|27:259,1,90,2|0,0:0|0:0,0:0:0:0:
94,303,61641,1,2,0:0:0:0:
94,303,61716,1,0,0:0:0:0:
94,303,61791,1,8,0:0:0:0:
117,206,61941,2,0,P|186:189|305:179,1,180,2|4,0:0|3:0,0:0:0:0:
393,185,62391,5,10,0:0:0:0:
262,263,62541,1,0,0:0:0:0:
262,263,62616,1,0,2:0:0:0:
262,263,62691,1,2,0:0:0:0:
405,302,62841,1,4,3:0:0:0:
310,348,62991,2,0,P|241:356|209:359,1,90,10|0,0:0|0:0,0:0:0:0:
164,275,63291,6,0,P|174:183|182:64,1,180,2|8,0:0|0:0,0:0:0:0:
85,64,63741,1,4,3:0:0:0:
76,162,63891,2,0,P|168:153|180:150,1,90,4|4,3:0|3:0,0:0:0:0:
260,123,64191,1,10,0:0:0:0:
356,205,64341,1,2,0:0:0:0:
414,84,64491,1,2,0:0:0:0:
469,150,64641,2,0,P|489:205|499:250,1,90,2|8,0:0|0:0,0:0:0:0:
494,335,64941,2,0,P|435:353|318:376,1,180,2|4,0:0|3:0,0:0:0:0:
233,324,65391,1,10,0:0:0:0:
320,277,65541,1,4,3:0:0:0:
320,277,65616,1,8,0:0:0:0:
320,277,65691,6,0,P|311:207|282:81,1,180,2|10,0:0|0:0,0:0:0:0:
208,40,66141,2,0,P|136:26|80:21,1,90,2|0,0:0|0:0,0:0:0:0:
39,81,66441,1,2,0:0:0:0:
167,141,66591,1,8,0:0:0:0:
97,258,66741,5,6,0:0:0:0:
429,163,67041,1,6,0:0:0:0:
125,67,67341,1,6,0:0:0:0:
405,260,67641,2,0,P|399:306|388:355,1,90,6|8,0:0|0:0,0:0:0:0:
313,284,67941,6,0,P|325:203|345:100,1,180,6|4,0:0|3:0,0:0:0:0:
387,182,68391,2,0,P|303:183|266:179,1,90,10|0,0:0|0:0,0:0:0:0:
237,113,68691,1,2,0:0:0:0:
145,154,68841,1,2,0:0:0:0:
286,261,68991,1,10,0:0:0:0:
127,294,69141,2,0,P|114:246|102:81,1,180,2|4,0:0|3:0,0:0:0:0:
210,212,69591,6,0,P|266:205|329:190,1,90,10|4,0:0|3:0,0:0:0:0:
387,153,69891,1,2,0:0:0:0:
315,84,70041,1,4,3:0:0:0:
404,42,70191,2,0,P|460:34|503:33,1,90,10|0,0:0|0:0,0:0:0:0:
468,119,70491,6,0,P|473:182|496:299,1,180,2|8,0:0|0:0,0:0:0:0:
495,296,70941,1,0,0:0:0:0:
406,292,71091,1,2,0:0:0:0:
437,96,71241,1,2,0:0:0:0:
512,204,71391,1,10,0:0:0:0:
334,241,71541,6,0,P|285:237|142:211,1,180,2|4,0:0|3:0,0:0:0:0:
73,248,71991,1,10,0:0:0:0:
259,22,72291,2,0,P|255:86|241:142,1,90,2|4,0:0|3:0,0:0:0:0:
156,174,72591,2,0,P|91:162|32:142,1,90,10|0,0:0|0:0,0:0:0:0:
156,79,72891,6,0,P|219:73|348:69,1,180,6|10,0:0|0:0,0:0:0:0:
293,171,73341,2,0,P|372:182|421:192,1,90,2|0,0:0|0:0,0:0:0:0:
473,288,73641,2,0,P|394:277|345:267,1,90,2|8,0:0|0:0,0:0:0:0:
276,258,73941,2,0,P|262:319|256:366,2,90,2|0|4,0:0|0:0|3:0,0:0:0:0:
281,158,74391,1,8,0:0:0:0:
281,158,74541,1,0,0:0:0:0:
200,116,74691,6,0,P|133:127|89:141,1,90,2|4,0:0|3:0,0:0:0:0:
38,238,74991,2,0,P|105:227|149:213,1,90,10|0,0:0|0:0,0:0:0:0:
211,199,75291,1,6,0:0:0:0:
358,289,75441,1,0,0:0:0:0:
358,289,75516,1,0,2:0:0:0:
358,289,75591,1,10,0:0:0:0:
216,364,75741,5,6,0:0:0:0:
321,86,76041,1,6,0:0:0:0:
47,150,76341,1,2,3:0:0:0:
265,279,76641,1,4,3:0:0:0:
265,279,76716,1,4,3:0:0:0:
265,279,76791,2,0,P|275:216|280:163,1,90,8|8,3:0|3:0,0:0:0:0:
197,48,77091,2,0,P|189:92|184:137,1,90,8|8,3:0|0:0,0:0:0:0:
174,245,77391,1,8,0:0:0:0:
174,245,77466,1,8,0:0:0:0:
174,245,77541,1,8,0:0:0:0:
174,245,77616,1,0,0:0:0:0:
174,245,77691,6,0,P|261:238|380:209,1,180,6|8,0:1|0:1,0:0:0:0:
428,142,78141,1,0,0:0:0:0:
326,105,78291,1,0,0:0:0:0:
326,105,78366,1,0,0:0:0:0:
326,105,78441,2,0,P|343:167|373:225,1,90,4|8,0:0|0:1,0:0:0:0:
418,276,78741,1,0,0:0:0:0:
324,329,78891,2,0,P|265:349|212:362,2,90,2|4|8,0:2|0:0|0:1,0:0:0:0:
281,228,79341,2,0,P|196:243|96:278,1,180,2|2,0:2|0:2,0:0:0:0:
19,209,79791,1,8,0:1:0:0:
48,105,79941,1,2,0:2:0:0:
153,130,80091,6,0,P|206:117|249:102,1,90,4|0,0:0|0:0,0:0:0:0:
332,48,80391,1,8,0:1:0:0:
266,122,80541,2,0,P|280:186|313:304,1,180,2|2,0:2|0:2,0:0:0:0:
331,375,80991,1,8,0:1:0:0:
270,250,81141,1,4,3:0:0:0:
171,281,81291,2,0,P|116:298|83:314,1,90,0|2,0:0|0:2,0:0:0:0:
8,266,81591,5,10,0:1:0:0:
96,213,81741,1,0,0:0:0:0:
96,213,81816,1,0,2:0:0:0:
96,213,81891,1,2,0:1:0:0:
5,165,82041,1,4,0:0:0:0:
113,48,82191,2,0,P|188:64|236:89,1,90,10|0,0:1|0:0,0:0:0:0:
137,143,82491,6,0,P|137:213|160:330,1,180,2|8,0:1|0:1,0:0:0:0:
245,367,82941,1,0,0:0:0:0:
245,367,83091,1,4,0:0:0:0:
281,233,83241,1,2,0:2:0:0:
382,325,83391,1,8,0:1:0:0:
382,325,83541,1,2,0:2:0:0:
477,330,83691,1,2,0:2:0:0:
438,248,83841,2,0,P|425:198|417:137,1,90,2|8,0:2|0:1,0:0:0:0:
371,72,84141,6,0,P|297:63|165:60,1,180,8|4,0:1|0:0,0:0:0:0:
116,159,84591,2,0,P|186:159|225:156,1,90,8|0,0:1|0:0,0:0:0:0:
300,199,84891,2,0,P|325:249|353:293,2,90,4|0|8,3:0|0:0|0:1,0:0:0:0:
286,110,85341,2,0,P|300:47|309:-3,1,90,2|0,0:2|0:0,0:0:0:0:
397,5,85641,1,2,0:2:0:0:
442,141,85791,1,8,0:1:0:0:
305,217,85941,5,6,1:0:0:0:
81,38,86241,1,6,1:0:0:0:
356,88,86541,1,2,0:0:0:0:
55,132,86841,2,0,P|45:193|35:237,1,90,8|8,1:1|1:1,0:0:0:0:
82,310,87141,6,0,P|147:294|280:275,1,180,6|0,1:0|0:0,0:0:0:0:
347,320,87591,2,0,P|347:252|334:190,1,90,8|0,0:1|0:0,0:0:0:0:
267,166,87891,1,2,0:2:0:0:
432,225,88041,1,2,0:2:0:0:
380,46,88191,1,8,0:1:0:0:
420,125,88341,2,0,P|467:136|523:136,2,90,2|4|0,0:2|0:0|0:0,0:0:0:0:
321,128,88791,6,0,P|250:111|203:110,1,90,8|8,0:1|0:1,0:0:0:0:
154,155,89091,1,2,0:2:0:0:
88,93,89241,1,0,0:0:0:0:
163,44,89391,2,0,P|151:91|115:147,1,90,8|2,0:1|0:0,0:0:0:0:
88,227,89691,6,0,P|170:247|269:298,1,180,4|8,0:0|0:1,0:0:0:0:
255,288,90141,1,0,0:0:0:0:
189,349,90291,1,2,0:2:0:0:
272,186,90441,1,2,0:2:0:0:
392,346,90591,1,8,0:1:0:0:
465,280,90741,6,0,P|468:219|465:97,1,180,12|4,0:0|0:0,0:0:0:0:
395,29,91191,1,8,0:1:0:0:
364,123,91341,1,8,0:1:0:0:
364,123,91416,1,8,0:1:0:0:
364,123,91491,1,8,0:1:0:0:
261,23,91641,1,8,0:0:0:0:
222,167,91791,2,0,P|170:161|117:149,1,90,4|4,0:0|0:0,0:0:0:0:
194,80,92091,6,0,P|180:157|166:273,1,180,4|2,0:2|0:2,0:0:0:0:
240,363,92541,2,0,P|250:304|254:246,1,90,0|12,0:0|0:1,0:0:0:0:
361,145,92841,2,0,P|351:204|347:262,1,90,2|0,0:2|0:0,0:0:0:0:
398,319,93141,2,0,P|462:334|494:338,2,90,2|0|0,0:2|0:0|0:0,0:0:0:0:
300,337,93591,2,0,P|233:325|182:318,1,90,4|0,0:0|0:0,0:0:0:0:
113,301,93891,5,8,0:1:0:0:
113,301,94041,1,4,0:0:0:0:
151,209,94191,2,0,P|157:154|154:101,1,90,8|4,0:1|0:0,0:0:0:0:
109,40,94491,1,6,0:2:0:0:
73,157,94641,1,0,0:0:0:0:
7,73,94791,1,8,0:1:0:0:
194,152,94941,5,2,0:0:0:0:
12,275,95241,1,2,0:0:0:0:
425,219,95541,1,2,0:0:0:0:
256,192,95691,12,8,96741,1:1:0:0:
192,293,96891,6,0,P|175:222|172:90,1,180,4|8,0:1|0:0,0:0:0:0:
239,44,97341,1,4,3:0:0:0:
381,181,97641,1,4,3:0:0:0:
292,168,97791,2,0,P|283:235|295:354,2,180,8|4|8,0:0|3:0|0:0,0:0:0:0:
252,71,98541,1,0,0:0:0:0:
252,71,98616,1,0,2:0:0:0:
252,71,98691,2,0,P|192:57|120:52,1,90,4|4,3:0|3:0,0:0:0:0:
33,119,98991,2,0,P|93:133|165:138,1,90,8|2,0:0|0:2,0:0:0:0:
217,159,99291,6,0,P|238:229|258:345,1,180,4|8,3:0|0:0,0:0:0:0:
167,378,99741,1,4,3:0:0:0:
337,224,100041,1,4,3:0:0:0:
110,192,100341,2,0,P|121:114|153:4,1,180,4|4,0:0|3:0,0:0:0:0:
247,18,100791,1,8,0:0:0:0:
213,111,100941,2,0,P|267:125|335:130,1,90,4|4,3:0|3:0,0:0:0:0:
369,70,101241,1,4,3:0:0:0:
487,151,101391,1,8,0:0:0:0:
406,270,101541,6,0,P|334:242|220:225,1,180,4|4,0:0|3:0,0:0:0:0:
136,250,101991,2,0,P|106:316|91:353,1,90,8|4,0:0|3:0,0:0:0:0:
77,71,102441,1,4,3:0:0:0:
113,153,102591,2,0,P|174:139|308:87,1,180,8|8,0:0|0:0,0:0:0:0:
286,8,103041,1,4,3:0:0:0:
200,35,103191,2,0,P|213:106|263:221,1,180,8|4,0:0|3:0,0:0:0:0:
338,235,103641,1,4,3:0:0:0:
338,235,103791,1,8,0:0:0:0:
406,176,103941,6,0,P|481:156|517:150,2,90,4|0|4,3:0|0:0|3:0,0:0:0:0:
329,128,104391,1,8,0:0:0:0:
244,287,104691,2,0,P|156:319|62:337,2,180,4|8|4,3:0|0:0|0:0,0:0:0:0:
181,222,105441,1,8,0:0:0:0:
181,222,105516,1,8,0:0:0:0:
181,222,105591,1,8,0:0:0:0:
100,181,105741,2,0,P|101:114|124:1,1,180,4|4,0:0|3:0,0:0:0:0:
206,68,106191,1,8,0:0:0:0:
206,68,106266,1,8,0:0:0:0:
206,68,106341,1,8,0:0:0:0:
206,68,106416,1,8,0:0:0:0:
206,68,106491,6,0,P|261:64|307:55,1,90,12|4,0:0|3:0,0:0:0:0:
384,71,106791,1,8,0:0:0:0:
440,140,106941,2,0,P|459:183|472:239,2,90,4|8|4,3:0|0:0|3:0,0:0:0:0:
351,155,107391,2,0,P|254:177|152:226,1,180,8|8,0:0|0:0,0:0:0:0:
124,280,107841,1,4,3:0:0:0:
124,280,107916,1,4,3:0:0:0:
124,280,107991,2,0,P|62:301|19:309,2,90,8|4|8,0:0|3:0|0:0,0:0:0:0:
159,197,108441,1,4,3:0:0:0:
35,128,108591,1,8,0:0:0:0:
166,83,108741,1,4,3:0:0:0:
107,17,108891,6,0,P|46:19|-5:23,2,90,8|4|8,0:0|3:0|0:0,0:0:0:0:
188,56,109341,2,0,P|266:63|289:70,1,90,4|8,3:0|0:0,0:0:0:0:
416,150,109641,2,0,P|338:143|315:136,1,90,4|8,3:0|0:0,0:0:0:0:
219,138,109941,2,0,P|207:198|197:329,1,180,4|4,3:0|3:0,0:0:0:0:
294,364,110391,1,8,0:0:0:0:
294,364,110541,2,0,P|296:293|295:246,1,90,4|8,3:0|0:0,0:0:0:0:
234,208,110841,1,4,3:0:0:0:
376,285,110991,1,8,0:0:0:0:
460,166,111141,6,0,P|470:223|473:271,1,90,4|0,0:0|0:0,0:0:0:0:
444,340,111441,1,8,0:0:0:0:
321,216,111591,1,8,0:0:0:0:
416,87,111741,1,4,0:0:0:0:
248,274,112041,1,4,3:0:0:0:
248,274,112116,1,4,3:0:0:0:
248,274,112191,6,0,P|236:200|233:86,1,180,12|0,0:1|0:0,0:0:0:0:
317,4,112641,2,0,P|322:79|317:122,1,90,4|8,3:0|0:1,0:0:0:0:
276,174,112941,1,2,0:0:0:0:
276,174,113016,1,2,0:0:0:0:
276,174,113091,2,0,P|211:193|150:199,1,90,2|0,0:0|0:0,0:0:0:0:
128,129,113391,1,4,3:0:0:0:
47,169,113541,6,0,P|35:241|29:357,1,180,4|4,0:2|0:0,0:0:0:0:
117,366,113991,1,8,0:1:0:0:
155,284,114141,1,0,0:0:0:0:
155,284,114216,1,0,0:0:0:0:
155,284,114291,1,4,0:0:0:0:
242,263,114441,1,4,0:0:0:0:
186,192,114591,2,0,P|169:126|168:81,1,90,8|0,0:1|0:0,0:0:0:0:
255,121,114891,6,0,P|335:103|440:99,1,180,4|8,0:2|0:1,0:0:0:0:
389,180,115341,2,0,P|418:241|489:336,1,180,4|4,0:2|0:0,0:0:0:0:
393,372,115791,1,2,0:2:0:0:
256,192,116091,5,10,0:0:0:0:
256,192,116166,12,0,118491,0:0:0:0:
