osu file format v14

[General]
AudioFilename: audio.mp3
AudioLeadIn: 0
PreviewTime: 58491
Countdown: 0
SampleSet: Soft
StackLeniency: 0.7
Mode: 3
LetterboxInBreaks: 0
SpecialStyle: 0
WidescreenStoryboard: 0

[Editor]
DistanceSpacing: 1.3
BeatDivisor: 4
GridSize: 4
TimelineZoom: 1.2

[Metadata]
Title:Hibari Kochi (Cut Ver.)
TitleUnicode:雲雀東風 (Cut Ver.)
Artist:Asano Hayato
ArtistUnicode:浅野隼人
Creator:Syrion-
Version:Normal
Source:ソフィーのアトリエ ~不思議な本の錬金術士~
Tags:syadow- ainer spring wind skylark atelier sophie alchemist mysterious book battle theme video game Instrumental KECH-8049 KECH-8051 不思議な本の錬金術士~オリジナルサウンドトラック fushigina hon no renkinjutsushi BGM background music
BeatmapID:3021069
BeatmapSetID:1471618

[Difficulty]
HPDrainRate:7.5
CircleSize:4
OverallDifficulty:7
ApproachRate:10
SliderMultiplier:1.4
SliderTickRate:1

[Events]
//Background and Video events
0,0,"bg.jpg",0,0
//Break Periods
//Storyboard Layer 0 (Background)
//Storyboard Layer 1 (Fail)
//Storyboard Layer 2 (Pass)
//Storyboard Layer 3 (Foreground)
//Storyboard Layer 4 (Overlay)
//Storyboard Sound Samples

[TimingPoints]
891,300.0,4,2,2,50,1,0
58491,-100.0,4,2,2,50,0,1
76641,-100.0,4,2,2,50,0,0

[HitObjects]
64,192,291,128,0,441:0:0:0:0:
192,192,441,128,0,591:0:0:0:0:
320,192,591,128,0,741:0:0:0:0:
448,192,741,128,0,891:0:0:0:0:
64,192,891,128,2,1191:0:0:0:0:
192,192,891,1,4,0:0:0:0:
448,192,1191,1,8,0:0:0:0:
192,192,1341,1,2,0:0:0:0:
320,192,1341,1,0,0:0:0:0:
64,192,1641,1,2,0:0:0:0:
192,192,1791,128,8,2241:0:0:0:0:
320,192,1791,1,0,0:0:0:0:
448,192,2091,1,0,0:0:0:0:
64,192,2241,1,2,0:0:0:0:
320,192,2391,128,8,2691:0:0:0:0:
448,192,2391,1,0,0:0:0:0:
64,192,2691,128,2,2991:0:0:0:0:
320,192,2841,1,2,0:0:0:0:
192,192,2991,1,8,0:0:0:0:
448,192,2991,128,0,3291:0:0:0:0:
320,192,3291,128,2,3591:0:0:0:0:
64,192,3441,1,2,0:0:0:0:
192,192,3591,1,8,0:0:0:0:
448,192,3591,1,0,0:0:0:0:
320,192,3741,1,2,0:0:0:0:
192,192,4041,1,2,0:0:0:0:
320,192,4191,1,8,0:0:0:0:
448,192,4191,1,0,0:0:0:0:
64,192,4341,128,6,4641:0:0:0:0:
192,192,4641,128,2,4791:0:0:0:0:
320,192,4791,128,8,4941:0:0:0:0:
448,192,4791,1,0,0:0:0:0:
64,192,4941,128,0,5241:0:0:0:0:
448,192,5091,1,2,0:0:0:0:
320,192,5241,128,8,5391:0:0:0:0:
192,192,5391,128,8,5541:0:0:0:0:
64,192,5541,1,2,0:0:0:0:
448,192,5541,128,4,5991:0:0:0:0:
320,192,5841,1,2,0:0:0:0:
64,192,5991,1,8,0:0:0:0:
192,192,6141,1,2,0:0:0:0:
320,192,6141,1,0,0:0:0:0:
448,192,6441,1,2,0:0:0:0:
64,192,6591,128,8,7191:0:0:0:0:
320,192,6591,1,0,0:0:0:0:
192,192,6891,1,2,0:0:0:0:
448,192,7041,1,2,0:0:0:0:
192,192,7191,1,8,0:0:0:0:
320,192,7191,128,0,7491:0:0:0:0:
448,192,7491,128,2,7791:0:0:0:0:
192,192,7641,1,2,0:0:0:0:
64,192,7791,128,8,7941:0:0:0:0:
320,192,7791,1,0,0:0:0:0:
192,192,7941,128,2,8691:0:0:0:0:
320,192,8241,1,2,0:0:0:0:
64,192,8391,1,8,0:0:0:0:
64,192,8691,1,2,0:0:0:0:
448,192,8691,128,0,9291:0:0:0:0:
192,192,8841,1,2,0:0:0:0:
320,192,8991,1,8,0:0:0:0:
64,192,9291,128,6,9741:0:0:0:0:
320,192,9441,1,8,0:0:0:0:
448,192,9591,1,8,0:0:0:0:
192,192,9741,128,6,10191:0:0:0:0:
448,192,10041,1,2,0:0:0:0:
320,192,10191,128,2,10491:0:0:0:0:
64,192,10491,1,2,0:0:0:0:
448,192,10491,128,4,12891:0:0:0:0:
192,192,10941,1,2,0:0:0:0:
320,192,11391,1,2,0:0:0:0:
192,192,11841,1,2,0:0:0:0:
64,192,12141,1,2,0:0:0:0:
320,192,12291,1,8,0:0:0:0:
64,192,12441,1,2,0:0:0:0:
320,192,12591,1,8,0:0:0:0:
192,192,12891,1,2,0:0:0:0:
320,192,13341,1,2,0:0:0:0:
64,192,13791,1,2,0:0:0:0:
320,192,14241,1,2,0:0:0:0:
192,192,14541,1,2,0:0:0:0:
448,192,14541,1,0,0:0:0:0:
64,192,14691,1,8,0:0:0:0:
192,192,14841,1,2,0:0:0:0:
448,192,14841,1,0,0:0:0:0:
64,192,14991,1,8,0:0:0:0:
320,192,15291,1,2,0:0:0:0:
64,192,15741,1,2,0:0:0:0:
448,192,16191,1,2,0:0:0:0:
192,192,16641,1,2,0:0:0:0:
64,192,16941,1,2,0:0:0:0:
320,192,17091,1,8,0:0:0:0:
448,192,17091,1,0,0:0:0:0:
64,192,17241,1,2,0:0:0:0:
320,192,17391,1,8,0:0:0:0:
448,192,17391,1,0,0:0:0:0:
192,192,17691,1,2,0:0:0:0:
64,192,18141,1,2,0:0:0:0:
320,192,18591,1,2,0:0:0:0:
448,192,19041,1,2,0:0:0:0:
320,192,19341,1,2,0:0:0:0:
64,192,19491,1,8,0:0:0:0:
192,192,19491,1,0,0:0:0:0:
320,192,19641,1,2,0:0:0:0:
64,192,19791,1,8,0:0:0:0:
448,192,19791,1,0,0:0:0:0:
192,192,20091,1,2,0:0:0:0:
320,192,20091,1,4,0:0:0:0:
448,192,20541,1,2,0:0:0:0:
64,192,20991,1,2,0:0:0:0:
320,192,21441,1,2,0:0:0:0:
192,192,21741,1,2,0:0:0:0:
64,192,21891,1,8,0:0:0:0:
448,192,21891,1,0,0:0:0:0:
192,192,22041,1,2,0:0:0:0:
64,192,22191,1,8,0:0:0:0:
448,192,22191,1,0,0:0:0:0:
320,192,22491,1,2,0:0:0:0:
64,192,22941,1,2,0:0:0:0:
448,192,23391,1,2,0:0:0:0:
192,192,23841,1,2,0:0:0:0:
448,192,24141,1,2,0:0:0:0:
64,192,24291,1,8,0:0:0:0:
320,192,24291,1,0,0:0:0:0:
448,192,24441,1,2,0:0:0:0:
64,192,24591,1,8,0:0:0:0:
320,192,24591,1,0,0:0:0:0:
192,192,24891,1,2,0:0:0:0:
448,192,25341,1,2,0:0:0:0:
320,192,25791,1,2,0:0:0:0:
192,192,26241,1,2,0:0:0:0:
64,192,26541,1,2,0:0:0:0:
320,192,26691,1,8,0:0:0:0:
448,192,26691,1,0,0:0:0:0:
64,192,26841,1,2,0:0:0:0:
320,192,26991,1,8,0:0:0:0:
448,192,26991,1,0,0:0:0:0:
192,192,27291,1,2,0:0:0:0:
448,192,27741,1,2,0:0:0:0:
64,192,28191,1,2,0:0:0:0:
192,192,28641,1,2,0:0:0:0:
320,192,28941,1,2,0:0:0:0:
192,192,29091,1,8,0:0:0:0:
448,192,29091,1,0,0:0:0:0:
64,192,29241,1,2,0:0:0:0:
320,192,29391,1,8,0:0:0:0:
448,192,29391,1,0,0:0:0:0:
192,192,29541,1,8,0:0:0:0:
64,192,29691,1,2,0:0:0:0:
448,192,29691,1,4,0:0:0:0:
64,192,29991,1,8,0:0:0:0:
192,192,29991,1,0,0:0:0:0:
320,192,30291,1,2,0:0:0:0:
448,192,30441,1,2,0:0:0:0:
192,192,30591,1,8,0:0:0:0:
320,192,30591,1,0,0:0:0:0:
64,192,30741,1,2,0:0:0:0:
448,192,31041,1,2,0:0:0:0:
64,192,31191,1,8,0:0:0:0:
320,192,31191,1,0,0:0:0:0:
192,192,31491,1,2,0:0:0:0:
320,192,31641,1,2,0:0:0:0:
64,192,31791,1,8,0:0:0:0:
448,192,31791,1,0,0:0:0:0:
192,192,32091,1,2,0:0:0:0:
64,192,32391,1,8,0:0:0:0:
320,192,32391,1,0,0:0:0:0:
320,192,32691,1,2,0:0:0:0:
192,192,32841,1,2,0:0:0:0:
64,192,32991,1,8,0:0:0:0:
448,192,32991,1,0,0:0:0:0:
320,192,33141,1,2,0:0:0:0:
64,192,33441,1,2,0:0:0:0:
192,192,33591,1,8,0:0:0:0:
448,192,33591,1,0,0:0:0:0:
320,192,33891,1,0,0:0:0:0:
192,192,34041,1,2,0:0:0:0:
64,192,34191,1,8,0:0:0:0:
448,192,34191,1,0,0:0:0:0:
320,192,34491,1,2,0:0:0:0:
192,192,34791,1,8,0:0:0:0:
448,192,34791,1,0,0:0:0:0:
192,192,35241,1,2,0:0:0:0:
64,192,35391,1,8,0:0:0:0:
448,192,35391,1,0,0:0:0:0:
320,192,35541,1,2,0:0:0:0:
448,192,35841,1,2,0:0:0:0:
64,192,35991,1,8,0:0:0:0:
320,192,35991,1,0,0:0:0:0:
192,192,36291,1,2,0:0:0:0:
320,192,36441,1,2,0:0:0:0:
64,192,36591,1,8,0:0:0:0:
448,192,36591,1,0,0:0:0:0:
320,192,36741,1,0,0:0:0:0:
64,192,36891,1,2,0:0:0:0:
192,192,36891,1,0,0:0:0:0:
64,192,37191,1,8,0:0:0:0:
448,192,37191,1,0,0:0:0:0:
192,192,37341,1,2,0:0:0:0:
320,192,37341,1,0,0:0:0:0:
64,192,37641,1,2,0:0:0:0:
448,192,37641,1,0,0:0:0:0:
192,192,37941,128,4,38241:0:0:0:0:
320,192,37941,1,8,0:0:0:0:
64,192,38241,1,2,0:0:0:0:
320,192,38391,1,8,0:0:0:0:
448,192,38391,1,0,0:0:0:0:
192,192,38541,1,0,0:0:0:0:
64,192,38691,1,2,0:0:0:0:
320,192,38841,1,2,0:0:0:0:
64,192,38991,1,8,0:0:0:0:
192,192,38991,1,0,0:0:0:0:
320,192,39141,1,8,0:0:0:0:
448,192,39141,1,0,0:0:0:0:
64,192,39291,128,2,40791:0:0:0:0:
192,192,39291,1,4,0:0:0:0:
448,192,39591,1,2,0:0:0:0:
320,192,39741,1,10,0:0:0:0:
192,192,40041,1,2,0:0:0:0:
320,192,40191,1,10,0:0:0:0:
448,192,40491,1,2,0:0:0:0:
320,192,40641,1,10,0:0:0:0:
320,192,40941,1,0,0:0:0:0:
192,192,41091,1,2,0:0:0:0:
448,192,41091,1,0,0:0:0:0:
64,192,41391,1,8,0:0:0:0:
320,192,41391,1,0,0:0:0:0:
192,192,41691,1,8,0:0:0:0:
448,192,41691,1,2,0:0:0:0:
320,192,41991,1,2,0:0:0:0:
192,192,42141,1,8,0:0:0:0:
448,192,42141,1,2,0:0:0:0:
64,192,42441,1,2,0:0:0:0:
192,192,42591,1,8,0:0:0:0:
448,192,42591,1,2,0:0:0:0:
448,192,42891,1,2,0:0:0:0:
64,192,43041,1,8,0:0:0:0:
320,192,43041,1,2,0:0:0:0:
192,192,43341,1,0,0:0:0:0:
320,192,43491,1,0,0:0:0:0:
64,192,43641,1,2,0:0:0:0:
192,192,43791,1,8,0:0:0:0:
448,192,43791,1,0,0:0:0:0:
64,192,44091,1,8,0:0:0:0:
448,192,44091,1,2,0:0:0:0:
192,192,44391,1,0,0:0:0:0:
64,192,44541,1,8,0:0:0:0:
320,192,44541,1,2,0:0:0:0:
448,192,44841,1,0,0:0:0:0:
64,192,44991,1,8,0:0:0:0:
320,192,44991,1,2,0:0:0:0:
192,192,45291,1,0,0:0:0:0:
64,192,45441,1,8,0:0:0:0:
448,192,45441,1,2,0:0:0:0:
320,192,45741,1,0,0:0:0:0:
192,192,45891,1,8,0:0:0:0:
448,192,45891,1,2,0:0:0:0:
64,192,46191,1,8,0:0:0:0:
320,192,46191,1,2,0:0:0:0:
192,192,46491,1,8,0:0:0:0:
448,192,46491,1,2,0:0:0:0:
64,192,46791,1,0,0:0:0:0:
192,192,46941,1,8,0:0:0:0:
448,192,46941,1,2,0:0:0:0:
320,192,47241,1,0,0:0:0:0:
64,192,47391,1,8,0:0:0:0:
448,192,47391,1,2,0:0:0:0:
192,192,47691,1,0,0:0:0:0:
64,192,47841,1,8,0:0:0:0:
448,192,47841,1,2,0:0:0:0:
192,192,48141,1,2,0:0:0:0:
320,192,48291,1,2,0:0:0:0:
448,192,48441,1,2,0:0:0:0:
64,192,48591,1,2,0:0:0:0:
192,192,48591,1,0,0:0:0:0:
320,192,48741,1,2,0:0:0:0:
64,192,48891,1,12,0:0:0:0:
448,192,48891,1,2,0:0:0:0:
320,192,49341,1,0,0:0:0:0:
192,192,49491,1,8,0:0:0:0:
192,192,50091,128,8,50391:0:0:0:0:
64,192,50391,1,2,0:0:0:0:
320,192,50691,1,8,0:0:0:0:
448,192,50691,1,0,0:0:0:0:
320,192,50991,1,0,0:0:0:0:
192,192,51141,1,0,0:0:0:0:
64,192,51291,1,8,0:0:0:0:
320,192,51591,1,0,0:0:0:0:
64,192,51741,1,0,0:0:0:0:
448,192,51891,1,8,0:0:0:0:
192,192,52041,1,0,0:0:0:0:
192,192,52341,1,8,0:0:0:0:
448,192,52791,1,2,0:0:0:0:
64,192,53091,1,8,0:0:0:0:
320,192,53091,1,0,0:0:0:0:
192,192,53241,1,0,0:0:0:0:
448,192,53391,1,2,0:0:0:0:
320,192,53541,1,8,0:0:0:0:
64,192,53691,1,4,0:0:0:0:
192,192,53691,1,2,0:0:0:0:
320,192,53841,1,8,0:0:0:0:
448,192,53841,1,0,0:0:0:0:
64,192,53991,1,2,0:0:0:0:
192,192,54291,1,8,0:0:0:0:
320,192,54291,1,0,0:0:0:0:
320,192,54591,1,2,0:0:0:0:
192,192,54741,1,8,0:0:0:0:
448,192,54741,1,0,0:0:0:0:
64,192,55041,1,0,0:0:0:0:
320,192,55191,1,2,0:0:0:0:
192,192,55341,1,0,0:0:0:0:
320,192,55491,1,8,0:0:0:0:
448,192,55491,1,0,0:0:0:0:
64,192,55641,1,2,0:0:0:0:
192,192,55791,1,8,0:0:0:0:
448,192,55791,1,0,0:0:0:0:
320,192,55941,1,8,0:0:0:0:
64,192,56091,1,2,0:0:0:0:
192,192,56091,1,4,0:0:0:0:
320,192,56241,1,4,0:0:0:0:
448,192,56241,1,8,0:0:0:0:
320,192,56541,1,2,0:0:0:0:
448,192,56541,1,4,0:0:0:0:
64,192,56691,1,4,0:0:0:0:
192,192,56691,1,8,0:0:0:0:
64,192,56991,1,4,0:0:0:0:
192,192,56991,1,8,0:0:0:0:
320,192,57141,1,4,0:0:0:0:
448,192,57141,1,8,0:0:0:0:
64,192,57441,1,2,0:0:0:0:
320,192,57591,1,4,0:0:0:0:
448,192,57591,1,8,0:0:0:0:
64,192,57891,1,8,0:0:0:0:
192,192,57891,1,0,0:0:0:0:
64,192,58191,1,8,0:0:0:0:
448,192,58191,1,0,0:0:0:0:
192,192,58341,1,8,0:0:0:0:
320,192,58491,1,2,0:0:0:0:
448,192,58491,128,4,59091:0:0:0:0:
64,192,58791,1,8,0:0:0:0:
192,192,59091,1,2,0:0:0:0:
320,192,59241,1,2,0:0:0:0:
64,192,59391,128,8,59691:0:0:0:0:
448,192,59391,1,0,0:0:0:0:
320,192,59691,128,0,59841:0:0:0:0:
192,192,59841,128,2,59991:0:0:0:0:
320,192,59991,1,8,0:0:0:0:
448,192,59991,1,0,0:0:0:0:
64,192,60141,128,0,60591:0:0:0:0:
320,192,60291,1,2,0:0:0:0:
448,192,60441,1,2,0:0:0:0:
192,192,60591,1,8,0:0:0:0:
320,192,60591,128,0,60891:0:0:0:0:
192,192,60891,128,2,61191:0:0:0:0:
64,192,61191,1,8,0:0:0:0:
448,192,61191,128,0,61341:0:0:0:0:
320,192,61341,128,0,61491:0:0:0:0:
192,192,61491,1,2,0:0:0:0:
64,192,61641,128,2,61791:0:0:0:0:
448,192,61791,1,8,0:0:0:0:
320,192,61941,128,2,62391:0:0:0:0:
192,192,62241,1,2,0:0:0:0:
64,192,62391,1,8,0:0:0:0:
448,192,62391,128,0,62691:0:0:0:0:
192,192,62691,128,2,62991:0:0:0:0:
64,192,62841,1,2,0:0:0:0:
320,192,62991,128,8,63291:0:0:0:0:
448,192,62991,1,0,0:0:0:0:
64,192,63291,128,2,64191:0:0:0:0:
448,192,63591,1,8,0:0:0:0:
320,192,63891,1,2,0:0:0:0:
192,192,64041,1,2,0:0:0:0:
320,192,64191,1,8,0:0:0:0:
448,192,64191,128,0,64341:0:0:0:0:
192,192,64341,128,2,64491:0:0:0:0:
64,192,64491,128,0,64641:0:0:0:0:
320,192,64641,128,2,64791:0:0:0:0:
192,192,64791,1,8,0:0:0:0:
448,192,64941,128,0,65391:0:0:0:0:
192,192,65091,1,2,0:0:0:0:
64,192,65241,1,2,0:0:0:0:
192,192,65391,1,8,0:0:0:0:
320,192,65391,128,0,65691:0:0:0:0:
64,192,65691,128,2,65991:0:0:0:0:
192,192,65991,128,8,66141:0:0:0:0:
320,192,65991,1,0,0:0:0:0:
448,192,66141,128,2,66291:0:0:0:0:
64,192,66441,1,2,0:0:0:0:
320,192,66441,128,0,66591:0:0:0:0:
192,192,66591,1,8,0:0:0:0:
320,192,66741,1,2,0:0:0:0:
448,192,66741,128,4,66891:0:0:0:0:
64,192,67041,128,2,67191:0:0:0:0:
192,192,67041,1,0,0:0:0:0:
448,192,67191,1,8,0:0:0:0:
192,192,67341,128,2,67491:0:0:0:0:
320,192,67341,1,0,0:0:0:0:
320,192,67641,128,8,67791:0:0:0:0:
448,192,67641,1,0,0:0:0:0:
192,192,67791,1,8,0:0:0:0:
64,192,67941,1,2,0:0:0:0:
448,192,67941,128,4,68391:0:0:0:0:
192,192,68241,1,2,0:0:0:0:
64,192,68391,1,8,0:0:0:0:
320,192,68391,1,0,0:0:0:0:
64,192,68691,128,2,68841:0:0:0:0:
192,192,68841,128,2,68991:0:0:0:0:
64,192,68991,1,8,0:0:0:0:
320,192,68991,128,0,69141:0:0:0:0:
448,192,69141,128,2,69591:0:0:0:0:
64,192,69441,1,2,0:0:0:0:
192,192,69591,128,8,69891:0:0:0:0:
320,192,69591,1,0,0:0:0:0:
448,192,69891,128,2,70191:0:0:0:0:
320,192,70041,1,2,0:0:0:0:
64,192,70191,128,8,70491:0:0:0:0:
192,192,70191,1,0,0:0:0:0:
320,192,70491,128,2,71091:0:0:0:0:
192,192,70791,1,8,0:0:0:0:
448,192,71091,128,2,71241:0:0:0:0:
192,192,71241,128,2,71391:0:0:0:0:
64,192,71391,1,8,0:0:0:0:
320,192,71391,128,0,71541:0:0:0:0:
448,192,71541,128,2,71991:0:0:0:0:
320,192,71841,1,2,0:0:0:0:
64,192,71991,1,8,0:0:0:0:
192,192,71991,128,0,72291:0:0:0:0:
320,192,72291,128,2,72591:0:0:0:0:
448,192,72441,1,2,0:0:0:0:
64,192,72591,128,8,72891:0:0:0:0:
192,192,72591,1,0,0:0:0:0:
320,192,72891,128,2,73191:0:0:0:0:
448,192,72891,1,4,0:0:0:0:
64,192,73191,1,8,0:0:0:0:
192,192,73191,128,0,73341:0:0:0:0:
448,192,73341,128,0,73491:0:0:0:0:
64,192,73491,1,2,0:0:0:0:
320,192,73641,128,2,73791:0:0:0:0:
192,192,73791,1,8,0:0:0:0:
448,192,73791,1,0,0:0:0:0:
64,192,73941,128,2,74691:0:0:0:0:
320,192,74241,1,2,0:0:0:0:
192,192,74391,1,8,0:0:0:0:
320,192,74691,128,2,74991:0:0:0:0:
448,192,74841,1,2,0:0:0:0:
64,192,74991,1,8,0:0:0:0:
192,192,74991,128,0,75291:0:0:0:0:
320,192,75291,128,2,75591:0:0:0:0:
448,192,75291,1,4,0:0:0:0:
64,192,75441,1,8,0:0:0:0:
192,192,75591,1,8,0:0:0:0:
448,192,75591,128,0,75741:0:0:0:0:
64,192,75741,128,2,75891:0:0:0:0:
320,192,75741,1,4,0:0:0:0:
192,192,76041,1,2,0:0:0:0:
320,192,76041,128,4,76191:0:0:0:0:
64,192,76341,128,6,76491:0:0:0:0:
448,192,76341,1,8,0:0:0:0:
192,192,76641,1,2,0:0:0:0:
320,192,76791,128,8,77091:0:0:0:0:
448,192,76791,1,0,0:0:0:0:
64,192,77091,128,8,77391:0:0:0:0:
192,192,77091,1,0,0:0:0:0:
320,192,77391,1,8,0:0:0:0:
448,192,77391,1,0,0:0:0:0:
192,192,77541,1,8,0:0:0:0:
64,192,77691,1,2,0:0:0:0:
448,192,77691,128,4,79041:0:0:0:0:
192,192,77991,1,8,0:0:0:0:
320,192,78291,1,2,0:0:0:0:
64,192,78441,1,2,0:0:0:0:
192,192,78591,1,8,0:0:0:0:
320,192,78741,1,2,0:0:0:0:
64,192,79041,1,2,0:0:0:0:
192,192,79191,1,8,0:0:0:0:
320,192,79191,1,0,0:0:0:0:
448,192,79491,1,0,0:0:0:0:
320,192,79641,1,2,0:0:0:0:
64,192,79791,1,8,0:0:0:0:
192,192,79791,1,0,0:0:0:0:
320,192,80091,1,2,0:0:0:0:
192,192,80391,1,8,0:0:0:0:
448,192,80391,1,0,0:0:0:0:
64,192,80691,1,0,0:0:0:0:
448,192,80841,1,2,0:0:0:0:
64,192,80991,1,8,0:0:0:0:
320,192,80991,1,0,0:0:0:0:
192,192,81141,1,2,0:0:0:0:
320,192,81441,1,2,0:0:0:0:
64,192,81591,128,8,81891:0:0:0:0:
448,192,81591,1,0,0:0:0:0:
320,192,81891,128,2,82191:0:0:0:0:
448,192,82041,1,2,0:0:0:0:
64,192,82191,1,8,0:0:0:0:
192,192,82191,128,0,82491:0:0:0:0:
448,192,82491,128,2,83391:0:0:0:0:
64,192,82791,1,8,0:0:0:0:
192,192,83091,1,2,0:0:0:0:
320,192,83241,1,2,0:0:0:0:
64,192,83391,128,8,83541:0:0:0:0:
192,192,83391,1,0,0:0:0:0:
320,192,83541,128,2,83691:0:0:0:0:
192,192,83691,128,0,83841:0:0:0:0:
448,192,83841,128,2,83991:0:0:0:0:
192,192,83991,1,8,0:0:0:0:
320,192,83991,1,0,0:0:0:0:
64,192,84141,128,0,84591:0:0:0:0:
320,192,84291,1,2,0:0:0:0:
192,192,84441,1,2,0:0:0:0:
320,192,84591,128,8,84891:0:0:0:0:
448,192,84591,1,0,0:0:0:0:
192,192,84891,128,2,85191:0:0:0:0:
320,192,85191,128,2,85341:0:0:0:0:
64,192,85341,128,8,85491:0:0:0:0:
448,192,85341,1,0,0:0:0:0:
320,192,85641,128,2,85791:0:0:0:0:
192,192,85791,1,8,0:0:0:0:
64,192,85941,1,2,0:0:0:0:
448,192,85941,128,4,86091:0:0:0:0:
192,192,86241,128,2,86391:0:0:0:0:
320,192,86391,1,8,0:0:0:0:
448,192,86391,1,0,0:0:0:0:
64,192,86541,128,2,86691:0:0:0:0:
64,192,86841,1,2,0:0:0:0:
320,192,86841,128,0,86991:0:0:0:0:
192,192,86991,1,8,0:0:0:0:
64,192,87141,128,2,87891:0:0:0:0:
448,192,87141,128,4,87441:0:0:0:0:
320,192,87441,1,2,0:0:0:0:
192,192,87591,1,8,0:0:0:0:
320,192,87891,128,0,88041:0:0:0:0:
192,192,88041,128,2,88191:0:0:0:0:
64,192,88191,1,8,0:0:0:0:
320,192,88191,128,0,88341:0:0:0:0:
448,192,88341,128,2,88791:0:0:0:0:
320,192,88641,1,2,0:0:0:0:
64,192,88791,1,8,0:0:0:0:
192,192,88791,128,0,89091:0:0:0:0:
320,192,89091,128,2,89391:0:0:0:0:
448,192,89241,1,2,0:0:0:0:
64,192,89391,128,8,89691:0:0:0:0:
192,192,89391,1,0,0:0:0:0:
320,192,89691,128,2,90291:0:0:0:0:
448,192,89991,1,8,0:0:0:0:
64,192,90291,128,2,90441:0:0:0:0:
448,192,90441,128,2,90591:0:0:0:0:
192,192,90591,1,8,0:0:0:0:
320,192,90591,128,0,90741:0:0:0:0:
64,192,90741,128,2,91191:0:0:0:0:
320,192,90891,1,0,0:0:0:0:
192,192,91041,1,2,0:0:0:0:
320,192,91191,128,8,91491:0:0:0:0:
448,192,91191,1,0,0:0:0:0:
64,192,91341,1,2,0:0:0:0:
192,192,91491,128,8,91791:0:0:0:0:
448,192,91491,1,0,0:0:0:0:
64,192,91791,1,2,0:0:0:0:
448,192,91791,128,0,92091:0:0:0:0:
320,192,91941,1,2,0:0:0:0:
64,192,92091,1,2,0:0:0:0:
192,192,92091,128,4,92391:0:0:0:0:
320,192,92391,128,0,92541:0:0:0:0:
64,192,92541,128,2,92691:0:0:0:0:
192,192,92691,1,4,0:0:0:0:
448,192,92691,1,8,0:0:0:0:
320,192,92841,128,0,92991:0:0:0:0:
64,192,93141,1,2,0:0:0:0:
448,192,93141,128,0,93891:0:0:0:0:
192,192,93441,1,8,0:0:0:0:
320,192,93591,1,2,0:0:0:0:
64,192,93891,1,8,0:0:0:0:
192,192,93891,128,0,94191:0:0:0:0:
320,192,94191,128,0,94491:0:0:0:0:
64,192,94491,128,2,94791:0:0:0:0:
448,192,94491,1,4,0:0:0:0:
192,192,94791,128,8,94941:0:0:0:0:
448,192,94791,1,0,0:0:0:0:
64,192,94941,1,2,0:0:0:0:
320,192,94941,128,4,95091:0:0:0:0:
320,192,95241,128,2,95391:0:0:0:0:
448,192,95241,1,4,0:0:0:0:
64,192,95541,128,2,95691:0:0:0:0:
192,192,95541,1,4,0:0:0:0:
192,192,95841,1,2,0:0:0:0:
320,192,95841,1,0,0:0:0:0:
448,192,95991,1,2,0:0:0:0:
64,192,96141,1,8,0:0:0:0:
192,192,96291,1,8,0:0:0:0:
320,192,96291,1,0,0:0:0:0:
448,192,96441,1,8,0:0:0:0:
64,192,96591,1,8,0:0:0:0:
192,192,96591,1,0,0:0:0:0:
320,192,96741,1,8,0:0:0:0:
64,192,96891,1,2,0:0:0:0:
448,192,96891,128,4,97341:0:0:0:0:
320,192,97191,1,8,0:0:0:0:
192,192,97341,128,2,97791:0:0:0:0:
64,192,97791,128,8,98391:0:0:0:0:
448,192,97791,1,0,0:0:0:0:
320,192,98091,1,0,0:0:0:0:
192,192,98241,1,2,0:0:0:0:
320,192,98391,128,8,98691:0:0:0:0:
448,192,98391,1,0,0:0:0:0:
192,192,98691,128,2,98991:0:0:0:0:
64,192,98991,1,8,0:0:0:0:
448,192,98991,128,0,99291:0:0:0:0:
320,192,99291,128,2,99591:0:0:0:0:
64,192,99591,128,8,99741:0:0:0:0:
448,192,99591,1,0,0:0:0:0:
192,192,99741,128,2,99891:0:0:0:0:
448,192,100041,128,2,100191:0:0:0:0:
64,192,100191,1,8,0:0:0:0:
320,192,100191,1,0,0:0:0:0:
192,192,100341,128,2,100491:0:0:0:0:
320,192,100641,128,2,100791:0:0:0:0:
192,192,100791,1,8,0:0:0:0:
448,192,100791,128,0,100941:0:0:0:0:
64,192,100941,128,2,101091:0:0:0:0:
192,192,101091,1,0,0:0:0:0:
320,192,101241,128,8,101391:0:0:0:0:
448,192,101241,1,0,0:0:0:0:
64,192,101391,128,8,101541:0:0:0:0:
192,192,101541,128,2,101991:0:0:0:0:
448,192,101541,1,4,0:0:0:0:
64,192,101991,1,8,0:0:0:0:
320,192,101991,1,0,0:0:0:0:
448,192,102141,128,2,102291:0:0:0:0:
192,192,102441,1,2,0:0:0:0:
64,192,102591,128,8,103191:0:0:0:0:
448,192,102591,1,0,0:0:0:0:
320,192,102891,1,0,0:0:0:0:
192,192,103041,1,2,0:0:0:0:
320,192,103191,128,8,103491:0:0:0:0:
448,192,103191,1,0,0:0:0:0:
192,192,103491,128,2,103791:0:0:0:0:
320,192,103641,1,2,0:0:0:0:
64,192,103791,1,8,0:0:0:0:
448,192,103791,128,0,103941:0:0:0:0:
320,192,103941,128,2,104691:0:0:0:0:
192,192,104391,1,8,0:0:0:0:
64,192,104691,128,2,105291:0:0:0:0:
448,192,104691,1,0,0:0:0:0:
192,192,104841,1,2,0:0:0:0:
320,192,104991,1,8,0:0:0:0:
320,192,105291,128,2,105741:0:0:0:0:
448,192,105291,128,4,105741:0:0:0:0:
64,192,105741,128,2,106191:0:0:0:0:
192,192,105741,128,4,106191:0:0:0:0:
320,192,106191,128,8,106491:0:0:0:0:
192,192,106491,1,2,0:0:0:0:
448,192,106491,128,4,106941:0:0:0:0:
64,192,106791,1,8,0:0:0:0:
192,192,106941,128,2,107091:0:0:0:0:
320,192,107091,1,8,0:0:0:0:
448,192,107091,1,0,0:0:0:0:
64,192,107391,1,8,0:0:0:0:
320,192,107391,128,0,107991:0:0:0:0:
448,192,107691,1,8,0:0:0:0:
64,192,107991,128,8,108291:0:0:0:0:
192,192,107991,1,0,0:0:0:0:
320,192,108291,1,8,0:0:0:0:
448,192,108291,128,0,108591:0:0:0:0:
64,192,108591,1,8,0:0:0:0:
192,192,108591,128,0,108891:0:0:0:0:
320,192,108891,128,8,109191:0:0:0:0:
448,192,108891,1,0,0:0:0:0:
64,192,109191,128,8,109341:0:0:0:0:
192,192,109191,1,0,0:0:0:0:
448,192,109341,128,2,109491:0:0:0:0:
64,192,109491,1,8,0:0:0:0:
320,192,109491,1,0,0:0:0:0:
192,192,109641,128,2,109791:0:0:0:0:
64,192,109791,1,8,0:0:0:0:
320,192,109791,1,0,0:0:0:0:
448,192,109941,128,2,110241:0:0:0:0:
320,192,110091,1,8,0:0:0:0:
64,192,110241,128,2,110391:0:0:0:0:
192,192,110391,128,8,110541:0:0:0:0:
320,192,110391,1,0,0:0:0:0:
64,192,110541,128,2,110841:0:0:0:0:
448,192,110691,1,8,0:0:0:0:
320,192,110841,128,2,110991:0:0:0:0:
192,192,110991,1,8,0:0:0:0:
448,192,110991,128,0,111141:0:0:0:0:
64,192,111141,128,2,111441:0:0:0:0:
320,192,111141,1,4,0:0:0:0:
192,192,111441,1,8,0:0:0:0:
320,192,111591,1,8,0:0:0:0:
64,192,111741,1,2,0:0:0:0:
448,192,111741,1,4,0:0:0:0:
192,192,112041,1,2,0:0:0:0:
320,192,112191,1,8,0:0:0:0:
448,192,112191,128,4,112791:0:0:0:0:
320,192,112641,1,2,0:0:0:0:
64,192,112791,1,8,0:0:0:0:
192,192,112791,128,0,113091:0:0:0:0:
448,192,112941,1,2,0:0:0:0:
320,192,113091,128,0,113391:0:0:0:0:
64,192,113241,1,2,0:0:0:0:
448,192,113391,128,2,113541:0:0:0:0:
64,192,113541,1,8,0:0:0:0:
192,192,113541,128,4,114291:0:0:0:0:
320,192,113841,1,2,0:0:0:0:
448,192,113991,1,8,0:0:0:0:
448,192,114291,128,2,114891:0:0:0:0:
320,192,114441,1,2,0:0:0:0:
64,192,114591,1,8,0:0:0:0:
192,192,114891,1,2,0:0:0:0:
320,192,114891,128,4,115341:0:0:0:0:
64,192,115191,1,8,0:0:0:0:
192,192,115341,1,2,0:0:0:0:
448,192,115341,128,4,115791:0:0:0:0:
64,192,115641,1,2,0:0:0:0:
192,192,115791,128,2,116091:0:0:0:0:
320,192,116091,128,2,119841:0:0:0:0:
448,192,116091,1,4,0:0:0:0:
64,192,116541,1,2,0:0:0:0:
192,192,116991,1,2,0:0:0:0:
448,192,117441,1,2,0:0:0:0:
64,192,117741,1,2,0:0:0:0:
192,192,117891,1,8,0:0:0:0:
64,192,118041,1,2,0:0:0:0:
192,192,118191,1,8,0:0:0:0:
448,192,118491,1,2,0:0:0:0:
64,192,118941,1,2,0:0:0:0:
448,192,119391,1,2,0:0:0:0:
192,192,119841,1,2,0:0:0:0:
448,192,120141,1,2,0:0:0:0:
64,192,120291,1,8,0:0:0:0:
320,192,120291,1,0,0:0:0:0:
448,192,120441,1,2,0:0:0:0:
64,192,120591,1,8,0:0:0:0:
320,192,120591,1,0,0:0:0:0:
192,192,120891,1,2,0:0:0:0:
