osu file format v14

[General]
AudioFilename: audio.mp3
AudioLeadIn: 0
PreviewTime: 26838
Countdown: 0
SampleSet: Soft
StackLeniency: 0.7
Mode: 0
LetterboxInBreaks: 0
WidescreenStoryboard: 1

[Editor]
DistanceSpacing: 1.7
BeatDivisor: 16
GridSize: 4
TimelineZoom: 1.2

[Metadata]
Title:CODE:002
TitleUnicode:CODE:002
Artist:Asami Tachibana
ArtistUnicode:Asami Tachibana
Creator:Explain
Version:Normal
Source:Darling in the franxx
Tags:02 darling franxx zerotsu zerotwo 16 hiro ost anime
BeatmapID:1895499
BeatmapSetID:882897

[Difficulty]
HPDrainRate:4
CircleSize:4
OverallDifficulty:3
ApproachRate:5
SliderMultiplier:0.7
SliderTickRate:1

[Events]
//Background and Video events
0,0,"02.png",0,0
//Break Periods
2,22049,25742
2,87081,91308
//Storyboard Layer 0 (Background)
//Storyboard Layer 1 (Fail)
//Storyboard Layer 2 (Pass)
//Storyboard Layer 3 (Foreground)
//Storyboard Sound Samples

[TimingPoints]
7787,937.5,4,2,2,40,1,0
13529,-100,4,2,2,5,0,0
15287,-100,4,2,2,40,0,0
21029,-100,4,2,2,5,0,0
26942,967.741935483871,4,2,2,40,1,0
26942,-33.3333333333333,4,2,2,40,0,0
56942,-33.3333333333333,4,2,2,5,0,0
57909,-33.3333333333333,4,2,2,40,0,0
124683,-33.3333333333333,4,2,2,5,0,0
125107,-50,4,2,2,40,0,0
131579,-50,4,2,2,5,0,0
133393,-50,4,2,2,40,0,0
139321,-50,4,2,2,5,0,0
141091,967.741935483871,4,2,2,40,1,0
142542,1000,4,2,2,40,1,0
143045,967.741935483871,4,2,2,40,1,0
144980,937.5,4,2,2,40,1,0
145445,1034.48275862069,4,2,2,40,1,0
146479,1071.42857142857,4,2,2,40,1,0
147014,1132.07547169811,4,2,2,40,1,0
148146,1200,4,2,2,40,1,0
148746,937.5,4,2,2,40,1,0
148746,-50,4,2,2,40,0,0

[Colours]
Combo1 : 255,255,128
Combo2 : 255,128,128
Combo3 : 0,128,255

[HitObjects]
95,26,7787,6,0,P|92:74|111:104,1,70,2|2,0:0|0:0,0:0:0:0:
135,206,9662,2,0,P|156:249|187:265,1,70,2|2,0:0|0:0,0:0:0:0:
287,294,11537,2,0,P|327:320|362:319,1,70,2|2,0:0|0:0,0:0:0:0:
379,207,13412,2,0,P|338:180|303:181,1,70,2|0,0:0|0:0,0:0:0:0:
417,358,15287,6,0,P|420:310|401:280,1,70,2|2,0:0|0:0,0:0:0:0:
377,178,17162,2,0,P|356:135|325:119,1,70,2|2,0:0|0:0,0:0:0:0:
225,90,19037,2,0,P|185:64|150:65,1,70,2|2,0:0|0:0,0:0:0:0:
133,177,20912,2,0,P|174:204|209:203,1,70,2|0,0:0|0:0,0:0:0:0:
165,128,26942,6,0,B|158:196|224:229,1,118.125004506111,2|0,0:0|0:0,0:0:0:0:
364,344,27970,1,0,0:0:0:0:
378,155,28454,2,0,P|365:93|234:33,1,210.000008010865
70,168,29905,1,0,0:0:0:0:
198,311,30329,1,0,0:0:0:0:
164,154,30812,2,0,B|197:51|322:36,1,210.000008010865,2|0,0:0|0:0,0:0:0:0:
64,177,32748,2,0,B|82:299|210:302,1,210.000008010865,2|2,0:0|0:0,0:0:0:0:
344,96,34683,5,2,0:0:0:0:
416,231,35288,2,0,P|371:264|317:265,1,105.000004005432
475,153,36256,2,0,P|435:105|311:75,1,183.750007009506
132,64,37587,2,0,P|143:127|186:137,1,105.000004005432
339,63,38554,2,0,P|331:127|226:229,1,210.000008010865,2|0,0:0|0:0,0:0:0:0:
314,285,40248,1,0,0:0:0:0:
371,211,40490,2,0,P|379:147|186:59,1,315.000012016297,2|0,0:0|0:0,0:0:0:0:
65,201,42425,6,0,P|89:297|281:333,1,315.000012016297,2|0,0:0|0:0,0:0:0:0:
218,261,44119,1,0,0:0:0:0:
243,170,44361,1,2,0:0:0:0:
107,148,45087,2,0,P|146:81|225:62,1,157.500006008148
380,159,46296,2,0,P|396:215|274:274,1,210.000008010865,2|0,0:0|0:0,0:0:0:0:
142,76,47748,5,0,0:0:0:0:
235,48,47990,1,0,0:0:0:0:
329,90,48232,2,0,P|283:128|38:129,1,315.000012016297,2|0,0:0|0:0,0:0:0:0:
432,227,50167,2,0,P|394:268|338:274,1,105.000004005432,2|0,0:0|0:0,0:0:0:0:
160,246,51135,1,0,0:0:0:0:
90,58,51619,2,0,P|99:124|198:154,1,170.625006508827
426,40,53071,6,0,P|411:100|324:128,1,157.500006008148,2|0,0:0|0:0,0:0:0:0:
411,157,54038,2,0,P|161:358|6:166,1,630.000024032594,2|0,0:0|0:0,0:0:0:0:
344,73,57909,6,0,P|391:86|431:125,1,105.000004005432,2|2,0:0|0:0,0:0:0:0:
336,288,58877,1,2,0:0:0:0:
93,143,59361,2,0,P|109:207|223:294,1,210.000008010865
390,216,60812,1,0,0:0:0:0:
447,35,61296,1,0,0:0:0:0:
262,75,61780,6,0,P|194:48|58:31,1,210.000008010865,2|2,0:0|0:0,0:0:0:0:
243,351,63716,6,0,P|310:324|446:307,1,210.000008010865,2|0,0:0|0:0,0:0:0:0:
97,160,65651,5,2,0:0:0:0:
181,252,66135,2,0,P|193:295|242:327,1,105.000004005432
170,112,67103,2,0,P|241:41|352:40,1,210.000008010865
428,210,68554,2,0,P|396:186|381:123,1,105.000004005432
210,42,69522,2,0,P|202:106|86:194,1,210.000008010865,2|2,0:0|0:0,0:0:0:0:
344,327,71216,1,0,0:0:0:0:
429,287,71458,2,0,P|437:223|244:115,1,315.000012016297,2|0,0:0|0:0,0:0:0:0:
74,177,73393,6,0,P|119:283|263:287,1,262.500010013581,2|0,0:0|0:0,0:0:0:0:
292,231,74845,1,0,0:0:0:0:
241,177,75087,1,0,0:0:0:0:
170,151,75329,1,0,0:0:0:0:
38,113,76054,2,0,P|94:73|182:44,1,157.500006008148
421,98,77264,2,0,P|348:46|245:56,1,196.875007510186,2|2,0:0|0:0,0:0:0:0:
77,189,78595,2,0,P|85:165|116:135,1,65.6250025033952
113,255,79200,2,0,P|145:287|289:247,1,210.000008010865,2|2,0:0|0:0,0:0:0:0:
431,332,81135,6,0,P|407:292|361:251,1,105.000004005432,2|0,0:0|0:0,0:0:0:0:
319,172,82103,1,0,0:0:0:0:
196,143,82587,2,0,P|220:191|220:241,1,105.000004005432,0|2,0:0|0:0,0:0:0:0:
153,313,83554,1,0,0:0:0:0:
339,283,84038,2,0,P|395:299|481:249,1,157.500006008148,2|0,0:0|0:0,0:0:0:0:
406,184,85006,2,0,B|307:101|124:92|26:199,1,406.87501552105,2|2,0:0|0:0,0:0:0:0:
238,43,92748,5,2,0:0:0:0:
49,60,93232,2,0,P|57:108|103:161,1,118.125004506111
258,109,94200,1,0,0:0:0:0:
444,139,94683,2,0,P|459:216|292:352,1,315.000012016297,2|0,0:0|0:0,0:0:0:0:
297,44,96619,2,0,P|345:84|360:224,1,210.000008010865,2|0,0:0|0:0,0:0:0:0:
169,167,98312,1,0,0:0:0:0:
204,254,98554,2,0,P|196:294|48:331,1,210.000008010865,2|2,0:0|0:0,0:0:0:0:
125,97,100490,1,2,0:0:0:0:
309,56,100974,1,2,0:0:0:0:
165,179,101458,6,0,P|345:232|317:307,1,315.000012016297,2|0,0:0|0:0,0:0:0:0:
446,153,103393,2,0,P|390:105|314:67,1,157.500006008148
222,84,104361,2,0,P|198:140|236:223,1,157.500006008148,2|0,0:0|0:0,0:0:0:0:
417,98,105812,1,2,0:0:0:0:
471,192,106296,2,0,P|450:274|336:324,1,210.000008010865,2|2,0:0|0:0,0:0:0:0:
438,59,108232,2,0,B|420:142|316:223|277:126|196:70|132:96|79:166,1,420.000016021729,2|2,0:0|0:0,0:0:0:0:
364,321,110651,6,0,P|405:310|447:275,1,91.8750035047532
286,180,111619,1,0,0:0:0:0:
194,345,112103,2,0,P|140:343|51:228,1,210.000008010865,2|2,0:0|0:0,0:0:0:0:
445,30,114038,2,0,P|377:134|266:27,1,315.000012016297
42,311,115974,2,0,P|204:197|368:316,1,420.000016021729,2|2,0:0|0:0,0:0:0:0:
279,65,118393,6,0,P|316:99|302:148,1,105.000004005432
219,144,119361,2,0,P|238:183|206:231,1,105.000004005432,0|2,0:0|0:0,0:0:0:0:
297,240,120450,2,0,P|332:233|342:191,1,78.7500030040742,0|2,0:0|0:0,0:0:0:0:
431,134,121780,2,0,P|140:137|169:84,1,630.000024032594,2|0,0:0|0:0,0:0:0:0:
292,107,125651,5,2,0:0:0:0:
167,219,126619,1,2,0:0:0:0:
334,207,127587,1,2,0:0:0:0:
215,88,128554,1,2,0:0:0:0:
365,163,129522,1,2,0:0:0:0:
206,218,130490,1,2,0:0:0:0:
319,94,131458,2,0,P|356:167|350:222,1,140,2|0,0:0|0:0,0:0:0:0:
282,295,133393,5,2,0:0:0:0:
166,172,134361,1,2,0:0:0:0:
288,56,135329,1,2,0:0:0:0:
281,223,136296,1,2,0:0:0:0:
361,75,137264,1,2,0:0:0:0:
194,94,138232,1,2,0:0:0:0:
223,259,139200,2,0,P|299:268|358:241,1,140,2|0,0:0|0:0,0:0:0:0:
230,132,141091,5,2,0:0:0:0:
263,185,141575,1,2,0:0:0:0:
304,137,142058,1,2,0:0:0:0:
241,131,142542,1,2,0:0:0:0:
273,185,143045,1,2,0:0:0:0:
213,204,143528,1,2,0:0:0:0:
250,254,144012,1,2,0:0:0:0:
290,205,144496,1,2,0:0:0:0:
262,148,144980,5,2,0:0:0:0:
206,177,145445,1,2,0:0:0:0:
181,118,145962,1,2,0:0:0:0:
232,81,146479,1,2,0:0:0:0:
259,154,147014,5,2,0:0:0:0:
218,212,147580,1,2,0:0:0:0:
274,254,148146,1,2,0:0:0:0:
333,191,148746,2,0,L|388:192,1,35,2|2,0:0|0:0,0:0:0:0:
