osu file format v14

[General]
AudioFilename: audio.mp3
AudioLeadIn: 0
PreviewTime: 26838
Countdown: 0
SampleSet: Soft
StackLeniency: 0.7
Mode: 0
LetterboxInBreaks: 0
WidescreenStoryboard: 1

[Editor]
DistanceSpacing: 0.9
BeatDivisor: 8
GridSize: 4
TimelineZoom: 1.2

[Metadata]
Title:CODE:002
TitleUnicode:CODE:002
Artist:Asami Tachibana
ArtistUnicode:Asami Tachibana
Creator:Explain
Version:Easy
Source:Darling in the franxx
Tags:02 darling franxx zerotsu zerotwo 16 hiro ost anime
BeatmapID:1845782
BeatmapSetID:882897

[Difficulty]
HPDrainRate:2
CircleSize:3
OverallDifficulty:2
ApproachRate:3
SliderMultiplier:0.7
SliderTickRate:1

[Events]
//Background and Video events
0,0,"02.png",0,0
//Break Periods
2,22049,25502
2,87141,91308
//Storyboard Layer 0 (Background)
//Storyboard Layer 1 (Fail)
//Storyboard Layer 2 (Pass)
//Storyboard Layer 3 (Foreground)
//Storyboard Sound Samples

[TimingPoints]
7787,937.5,4,2,2,40,1,0
13529,-100,4,2,2,5,0,0
15287,-100,4,2,2,40,0,0
21029,-100,4,2,2,5,0,0
26942,967.741935483871,4,2,2,40,1,0
26942,-50,4,2,2,40,0,0
56942,-50,4,2,2,5,0,0
57909,-50,4,2,2,40,0,0
124683,-50,4,2,2,5,0,0
125651,-50,4,2,2,40,0,0
139321,-50,4,2,2,5,0,0

[Colours]
Combo1 : 255,255,128
Combo2 : 255,128,128
Combo3 : 0,128,255

[HitObjects]
65,260,7787,6,0,L|135:260,1,70,2|2,0:0|0:0,0:0:0:0:
130,197,9662,2,0,L|201:197,1,70,2|2,0:0|0:0,0:0:0:0:
195,134,11537,2,0,L|269:134,1,70,2|2,0:0|0:0,0:0:0:0:
244,193,13412,2,0,L|167:193,1,70,2|0,0:0|0:0,0:0:0:0:
447,193,15287,6,0,L|377:193,1,70,2|2,0:0|0:0,0:0:0:0:
382,130,17162,2,0,L|311:130,1,70,2|2,0:0|0:0,0:0:0:0:
317,67,19037,2,0,L|243:67,1,70,2|2,0:0|0:0,0:0:0:0:
268,126,20912,2,0,L|345:126,1,70,2|0,0:0|0:0,0:0:0:0:
80,224,26942,6,0,B|119:251|160:229,1,78.75,2|0,0:0|0:0,0:0:0:0:
277,175,27970,1,0,0:0:0:0:
183,61,28454,2,0,P|254:44|319:56,1,140
408,132,29905,1,0,0:0:0:0:
285,160,30329,1,0,0:0:0:0:
362,237,30812,2,0,B|341:314|260:315,1,140,2|0,0:0|0:0,0:0:0:0:
70,148,32748,2,0,B|91:71|172:70,1,140,2|2,0:0|0:0,0:0:0:0:
424,61,34683,5,2,0:0:0:0:
266,80,35288,2,0,P|250:120|258:144,1,70
157,218,36256,2,0,P|197:266|261:274,1,122.5
357,203,37587,2,0,P|325:179|317:147,1,70
229,61,38554,2,0,P|221:125|175:186,1,140,2|2,0:0|0:0,0:0:0:0:
425,285,40248,1,0,0:0:0:0:
447,257,40490,2,0,P|455:193|343:129,1,210,2|0,0:0|0:0,0:0:0:0:
105,155,42425,6,0,P|129:251|230:263,1,210,2|0,0:0|0:0,0:0:0:0:
246,227,44119,1,0,0:0:0:0:
264,185,44361,1,2,0:0:0:0:
356,345,45087,2,0,P|405:300|415:260,1,105
334,147,46296,2,0,P|350:203|286:243,1,140,2|0,0:0|0:0,0:0:0:0:
138,238,47748,5,0,0:0:0:0:
154,261,47990,1,0,0:0:0:0:
175,284,48232,2,0,P|215:308|375:332,1,210,2|0,0:0|0:0,0:0:0:0:
432,173,50167,2,0,P|392:141|368:133,1,70,2|2,0:0|0:0,0:0:0:0:
268,109,51135,1,2,0:0:0:0:
204,217,51619,2,0,P|276:225|324:209,1,122.5
436,72,53071,6,0,P|417:104|354:133,1,105,2|0,0:0|0:0,0:0:0:0:
350,214,54038,2,0,P|258:316|33:211,1,420,2|0,0:0|0:0,0:0:0:0:
298,62,57909,6,0,P|345:75|362:91,1,70,2|0,0:0|0:0,0:0:0:0:
444,188,58877,1,2,0:0:0:0:
338,177,59361,2,0,P|354:241|411:288,1,140
247,219,60812,1,0,0:0:0:0:
123,250,61296,1,0,0:0:0:0:
235,306,61780,6,0,P|307:298|371:271,1,140,2|2,0:0|0:0,0:0:0:0:
59,279,63716,2,0,P|123:263|195:235,1,140,2|0,0:0|0:0,0:0:0:0:
60,57,65651,5,2,0:0:0:0:
82,197,66135,2,0,P|66:237|74:261,1,70,0|2,0:0|0:0,0:0:0:0:
199,248,67103,2,0,P|239:296|314:311,1,140
395,204,68554,2,0,P|363:180|355:148,1,70
229,39,69522,2,0,P|221:103|167:153,1,140,2|2,0:0|0:0,0:0:0:0:
363,300,71216,1,0,0:0:0:0:
385,290,71458,2,0,P|393:226|281:162,1,210,2|0,0:0|0:0,0:0:0:0:
253,65,73393,6,0,B|237:121|141:129|112:69,1,175,2|0,0:0|0:0,0:0:0:0:
61,108,74845,2,0,P|42:105|25:116,2,35
52,212,76054,2,0,P|108:172|140:156,1,105
211,278,77264,2,0,P|139:246|99:286,1,140,2|2,0:0|0:0,0:0:0:0:
77,189,78595,2,0,P|85:165|101:149,1,43.75
172,127,79200,2,0,P|204:159|284:127,1,140,2|2,0:0|0:0,0:0:0:0:
431,332,81135,6,0,P|407:292|383:276,1,70,2|0,0:0|0:0,0:0:0:0:
319,172,82103,1,0,0:0:0:0:
196,143,82587,2,0,P|220:191|220:207,1,70,0|2,0:0|0:0,0:0:0:0:
153,313,83554,1,0,0:0:0:0:
272,272,84038,2,0,P|328:288|360:256,1,105,2|0,0:0|0:0,0:0:0:0:
406,184,85006,2,0,P|277:120|170:192,1,280
268,84,92748,5,2,0:0:0:0:
142,91,93232,2,0,P|134:139|149:170,1,78.75
97,281,94200,1,0,0:0:0:0:
207,284,94683,2,0,P|279:252|313:130,1,210,2|0,0:0|0:0,0:0:0:0:
396,37,96619,2,0,P|444:77|459:151,1,140,2|0,0:0|0:0,0:0:0:0:
225,244,98554,2,0,P|217:284|133:323,1,140,2|0,0:0|0:0,0:0:0:0:
141,70,100490,1,2,0:0:0:0:
264,97,100974,1,2,0:0:0:0:
176,187,101458,6,0,P|280:235|328:315,1,210,2|0,0:0|0:0,0:0:0:0:
393,203,103393,2,0,P|337:155|305:139,1,105
232,125,104361,2,0,P|208:181|226:222,1,105,2|0,0:0|0:0,0:0:0:0:
391,306,105812,1,2,0:0:0:0:
314,240,106296,2,0,P|378:216|435:163,1,140,2|2,0:0|0:0,0:0:0:0:
245,36,108232,2,0,P|205:116|37:204,1,280,0|2,0:0|0:0,0:0:0:0:
150,268,110651,6,0,P|190:268|216:260,1,61.25
342,212,111619,1,0,0:0:0:0:
272,317,112103,2,0,P|320:341|399:305,1,140,2|2,0:0|0:0,0:0:0:0:
200,150,114038,2,0,P|168:182|21:147,1,210,2|0,0:0|0:0,0:0:0:0:
110,102,115974,2,0,P|238:46|358:102,1,280,2|2,0:0|0:0,0:0:0:0:
468,94,118393,6,0,P|494:118|494:158,1,70
384,232,119361,2,0,P|400:248|388:292,1,70,0|2,0:0|0:0,0:0:0:0:
234,347,120450,2,0,P|253:341|264:312,1,52.5
431,134,121780,2,0,P|167:126|169:84,1,420,2|0,0:0|0:0,0:0:0:0:
292,107,125651,5,2,0:0:0:0:
184,171,126619,1,2,0:0:0:0:
300,219,127587,1,2,0:0:0:0:
271,96,128554,1,2,0:0:0:0:
232,216,129522,1,2,0:0:0:0:
139,130,130490,1,2,0:0:0:0:
263,110,131458,2,0,P|325:167|341:227,1,140,2|0,0:0|0:0,0:0:0:0:
250,256,133393,5,2,0:0:0:0:
161,166,134361,1,2,0:0:0:0:
264,93,135329,1,2,0:0:0:0:
341,192,136296,1,2,0:0:0:0:
248,278,137264,1,2,0:0:0:0:
150,198,138232,1,2,0:0:0:0:
261,118,139200,2,0,P|323:175|339:235,1,140,2|0,0:0|0:0,0:0:0:0:
256,192,141091,12,2,148980,0:0:0:0:
