osu file format v14

[General]
AudioFilename: www.sharemp3.pw - AQUAMARINE - Asami Imai.mp3
AudioLeadIn: 0
PreviewTime: 96315
Countdown: 1
SampleSet: Normal
StackLeniency: 0.7
Mode: 0
LetterboxInBreaks: 0
WidescreenStoryboard: 0

[Editor]
DistanceSpacing: 1.2
BeatDivisor: 4
GridSize: 32
TimelineZoom: 1.1

[Metadata]
Title:Aquamarine
TitleUnicode:Aquamarine
Artist:Asami Imai
ArtistUnicode:今井麻美
Creator:Fruits
Version:Noire
Source:超女神信仰 ノワール 激神ブラックハート
Tags:
BeatmapID:899376
BeatmapSetID:414990

[Difficulty]
HPDrainRate:7.5
CircleSize:4
OverallDifficulty:8
ApproachRate:9.1
SliderMultiplier:1.8
SliderTickRate:2

[Events]
//Background and Video events
0,0,"bg7.jpg",0,0
//Break Periods
2,22390,36638
2,183745,191715
2,234053,248945
//Storyboard Layer 0 (Background)
//Storyboard Layer 1 (Fail)
//Storyboard Layer 2 (Pass)
//Storyboard Layer 3 (Foreground)
//Storyboard Sound Samples

[TimingPoints]
729,461.538461538462,4,1,0,40,1,0
22469,461.538461538462,4,1,0,65,1,0
51545,-166.666666666667,4,1,0,50,0,0
96315,-100,4,1,0,70,0,1
106930,-200,4,1,0,25,0,1
109699,-200,4,1,0,50,0,1
111084,-100,4,1,0,70,0,1
123545,-100,4,1,0,40,0,0
127930,-100,4,1,0,25,0,0
133238,-166.666666666667,4,1,0,25,0,0
135545,-100,4,1,0,25,0,0
136930,-200,4,1,0,25,0,0
146161,-100,4,1,0,25,0,0
149853,-200,4,1,0,25,0,0
154930,-166.666666666667,4,1,0,40,0,0
172007,-100,4,1,0,40,0,0
173392,-166.666666666667,4,1,0,40,0,0
181238,-100,4,1,0,40,0,0
192315,-200,4,1,0,40,0,0
199699,-100,4,1,0,70,0,1
207084,-100,4,1,0,45,0,0
214469,-100,4,1,0,70,0,1
221853,-100,4,1,0,40,0,1
227392,-100,4,1,0,30,0,0
229238,-200,4,1,0,30,0,0
249545,-100,4,1,0,30,0,0
277238,-200,4,1,0,20,0,0
279084,-66.6666666666667,4,1,0,80,0,1
286469,-100,4,1,0,50,0,1
287392,-200,4,1,0,50,0,1
290161,-100,4,1,0,50,0,1
292007,-200,4,1,0,50,0,1
293853,-66.6666666666667,4,1,0,65,0,1
306776,-200,4,1,0,50,0,1
308622,-66.6666666666667,4,1,0,75,0,1
312315,-200,4,1,0,75,0,1
313007,-66.6666666666667,4,1,0,75,0,1
321545,-66.6666666666667,4,1,0,40,0,1
325238,-200,4,1,0,40,0,1
330776,-66.6666666666667,4,1,0,50,0,0
354199,461.538461538462,4,2,0,25,1,0
363429,-100,4,2,0,15,0,0
365275,-200,4,2,0,10,0,0
371045,-100,4,2,0,15,0,0

[HitObjects]
176,160,729,5,0,0:0:0:0:
320,256,3498,1,0,0:0:0:0:
264,56,4421,5,0,0:0:0:0:
72,88,4652,1,0,0:0:0:0:
120,248,4882,2,2,P|224:320|288:288,1,180
288,56,5805,5,2,0:0:0:0:
160,104,6036,1,2,0:0:0:0:
80,176,6267,2,2,P|40:232|48:264,1,90
184,168,6729,1,2,0:0:0:0:
168,288,6959,1,2,0:0:0:0:
264,200,7190,1,2,0:0:0:0:
376,144,7421,2,2,P|448:128|472:168,1,90
104,96,8113,6,2,L|64:136,2,45
392,64,8575,1,0,0:0:0:0:
328,288,8805,1,0,0:0:0:0:
216,256,9036,1,0,0:0:0:0:
112,208,9267,1,2,0:0:0:0:
336,96,9498,2,2,P|288:72|288:64,2,45
208,160,9959,5,0,0:0:0:0:
384,256,10421,1,0,0:0:0:0:
400,112,10882,1,0,0:0:0:0:
160,64,11344,1,0,0:0:0:0:
112,216,11805,2,2,L|168:240,2,45
272,264,12267,5,0,0:0:0:0:
384,184,12729,1,0,0:0:0:0:
216,88,13190,1,0,0:0:0:0:
72,208,13652,2,0,P|144:288|224:296,1,180
256,192,15959,12,4,22190,0:0:0:0:
112,152,37238,5,0,0:0:0:0:
192,104,37469,1,0,0:0:0:0:
288,112,37699,1,0,0:0:0:0:
376,136,37930,1,0,0:0:0:0:
408,240,38161,2,0,B|344:320|264:248|264:248|160:344|96:288,1,315
192,88,39084,5,0,0:0:0:0:
288,144,39314,1,0,0:0:0:0:
376,88,39545,1,0,0:0:0:0:
456,160,39776,1,0,0:0:0:0:
456,160,39892,1,0,0:0:0:0:
456,160,40007,1,0,0:0:0:0:
456,160,40122,1,0,0:0:0:0:
456,160,40238,2,0,P|404:198|355:194,1,90
88,176,40699,5,0,0:0:0:0:
120,184,40815,1,0,0:0:0:0:
144,192,40930,2,0,P|208:192|232:232,1,90
62,88,41392,5,0,0:0:0:0:
132,136,41622,1,0,0:0:0:0:
217,157,41853,1,0,0:0:0:0:
296,200,42084,1,0,0:0:0:0:
366,262,42315,1,0,0:0:0:0:
344,278,42430,1,0,0:0:0:0:
322,294,42545,1,0,0:0:0:0:
217,157,42776,6,0,B|232:93|303:82|352:149|408:211|494:185|500:48,1,360
55,66,43930,6,0,L|115:156,1,90
266,76,44392,5,0,0:0:0:0:
256,96,44507,1,0,0:0:0:0:
238,113,44622,1,0,0:0:0:0:
381,232,44853,5,0,0:0:0:0:
86,165,45084,5,0,0:0:0:0:
196,105,45315,1,0,0:0:0:0:
243,226,45545,1,0,0:0:0:0:
367,189,45776,1,0,0:0:0:0:
331,75,46007,5,0,0:0:0:0:
202,98,46238,1,0,0:0:0:0:
80,124,46469,1,0,0:0:0:0:
192,242,46699,5,0,0:0:0:0:
293,189,46930,1,0,0:0:0:0:
327,82,47161,1,0,0:0:0:0:
190,81,47392,1,0,0:0:0:0:
249,186,47622,1,0,0:0:0:0:
367,265,47853,1,0,0:0:0:0:
132,280,48084,1,0,0:0:0:0:
92,119,48315,2,0,B|193:126|258:256|258:256|321:127|446:112,1,450
162,86,49699,5,0,0:0:0:0:
119,165,49930,1,0,0:0:0:0:
121,255,50161,1,0,0:0:0:0:
168,326,50392,1,0,0:0:0:0:
255,346,50622,1,0,0:0:0:0:
345,331,50853,1,0,0:0:0:0:
403,267,51084,1,0,0:0:0:0:
412,174,51315,1,0,0:0:0:0:
120,75,51545,6,0,L|225:213,1,161.999995056153
205,69,52469,1,0,0:0:0:0:
308,70,52699,1,0,0:0:0:0:
171,159,52930,1,0,0:0:0:0:
347,161,53161,1,0,0:0:0:0:
104,247,53392,5,0,0:0:0:0:
416,245,53622,1,0,0:0:0:0:
265,315,53853,5,0,0:0:0:0:
265,204,54084,1,0,0:0:0:0:
262,94,54315,1,0,0:0:0:0:
262,94,54545,2,0,L|260:247,1,107.999996704102
109,231,55238,5,0,0:0:0:0:
399,63,55469,1,0,0:0:0:0:
190,51,55699,5,0,0:0:0:0:
293,109,55930,1,0,0:0:0:0:
195,171,56161,2,0,B|224:238|201:309|148:347,1,161.999995056153
415,223,57084,5,0,0:0:0:0:
129,61,57315,1,0,0:0:0:0:
128,280,57545,5,0,0:0:0:0:
136,256,57661,1,0,0:0:0:0:
152,224,57776,2,0,B|184:192|256:176|360:208,1,215.999993408203
168,80,58930,5,0,0:0:0:0:
200,64,59045,1,0,0:0:0:0:
240,56,59161,1,0,0:0:0:0:
344,96,59392,1,0,0:0:0:0:
392,200,59622,1,0,0:0:0:0:
344,296,59853,1,0,0:0:0:0:
168,232,60084,5,0,0:0:0:0:
272,128,60315,1,0,0:0:0:0:
416,216,60545,1,0,0:0:0:0:
328,304,60776,5,0,0:0:0:0:
296,280,60892,1,0,0:0:0:0:
296,240,61007,1,0,0:0:0:0:
104,112,61238,5,0,0:0:0:0:
232,88,61469,1,0,0:0:0:0:
136,208,61699,1,0,0:0:0:0:
264,184,61930,1,0,0:0:0:0:
176,296,62161,1,0,0:0:0:0:
304,272,62392,1,0,0:0:0:0:
400,208,62622,5,0,0:0:0:0:
384,192,62738,1,0,0:0:0:0:
368,176,62853,1,0,0:0:0:0:
352,160,62969,1,0,0:0:0:0:
336,144,63084,1,0,0:0:0:0:
320,128,63199,1,0,0:0:0:0:
304,112,63315,2,0,P|256:56|208:56,1,107.999996704102
120,96,64007,5,0,0:0:0:0:
240,272,64238,1,0,0:0:0:0:
96,224,64699,5,0,0:0:0:0:
240,88,66315,6,0,L|276:128,1,53.9999983520508
356,208,66776,1,0,0:0:0:0:
252,260,67007,1,0,0:0:0:0:
104,128,67238,1,0,0:0:0:0:
104,128,67469,1,0,0:0:0:0:
104,128,67699,1,0,0:0:0:0:
192,72,67930,1,0,0:0:0:0:
328,160,68161,6,0,P|360:200|360:216,1,53.9999983520508
200,264,68622,1,0,0:0:0:0:
368,200,68853,1,0,0:0:0:0:
176,152,69084,1,0,0:0:0:0:
304,288,69315,1,0,0:0:0:0:
344,104,69545,1,0,0:0:0:0:
96,120,69776,1,0,0:0:0:0:
288,224,70007,6,0,L|216:216,1,53.9999983520508
136,160,70469,1,0,0:0:0:0:
184,64,70699,1,0,0:0:0:0:
296,104,70930,1,0,0:0:0:0:
248,200,71161,1,0,0:0:0:0:
184,64,71392,1,0,0:0:0:0:
248,200,71622,1,0,0:0:0:0:
368,256,71853,6,0,L|296:272,1,53.9999983520508
192,248,72315,1,0,0:0:0:0:
320,192,72545,1,0,0:0:0:0:
168,208,72776,2,0,P|208:168|224:184,1,53.9999983520508
344,256,73238,1,0,0:0:0:0:
208,80,73469,1,0,0:0:0:0:
312,280,73699,6,0,P|280:304|256:280,1,53.9999983520508
136,176,74161,1,0,0:0:0:0:
248,88,74392,1,0,0:0:0:0:
376,144,74622,1,0,0:0:0:0:
280,288,74853,1,0,0:0:0:0:
240,160,75084,1,0,0:0:0:0:
104,128,75315,1,0,0:0:0:0:
272,72,75545,6,0,P|336:80|344:88,1,53.9999983520508
248,232,76007,1,0,0:0:0:0:
64,176,76238,1,0,0:0:0:0:
192,120,76469,1,0,0:0:0:0:
344,144,76699,1,0,0:0:0:0:
296,280,76930,5,0,0:0:0:0:
152,184,77161,1,0,0:0:0:0:
368,264,77391,1,0,0:0:0:0:
368,264,77506,1,0,0:0:0:0:
368,264,77621,1,0,0:0:0:0:
368,264,77737,1,0,0:0:0:0:
368,264,77853,1,0,0:0:0:0:
368,264,77969,6,0,L|320:280,1,26.9999991760254
125,190,78315,1,0,0:0:0:0:
205,107,78545,1,0,0:0:0:0:
239,217,78776,1,0,0:0:0:0:
125,190,79007,1,0,0:0:0:0:
205,107,79238,1,0,0:0:0:0:
340,107,79469,1,0,0:0:0:0:
205,107,79699,5,0,0:0:0:0:
340,107,79930,1,0,0:0:0:0:
272,212,80161,1,0,0:0:0:0:
187,288,80392,2,0,P|114:253|145:222,1,107.999996704102
160,88,81084,5,0,0:0:0:0:
88,168,81315,2,0,P|32:232|128:336,1,215.999993408203
110,330,82353,1,0,0:0:0:0:
127,315,82469,1,0,0:0:0:0:
317,271,82930,6,0,L|348:280,1,26.9999991760254
416,200,83161,2,0,B|360:120|360:120|464:104|480:16,1,215.999993408203
96,80,84776,5,0,0:0:0:0:
192,176,85007,2,0,B|248:208|248:208|232:232|232:232|264:216|264:216|240:248|240:248|312:272,1,215.999993408203
288,264,86045,1,0,0:0:0:0:
284,262,86161,2,0,B|336:280|336:280|344:256|344:256|352:280|352:280|360:256|360:256|400:288,1,161.999995056153
384,275,86969,1,0,0:0:0:0:
384,275,87084,6,0,P|410:205|360:138,1,161.999995056153
362,139,87892,1,0,0:0:0:0:
362,139,88007,2,0,P|326:96|324:63,2,80.9999975280763
130,152,88930,5,0,0:0:0:0:
99,164,89045,1,0,0:0:0:0:
77,183,89161,2,0,P|69:266|96:282,1,107.999996704102
216,203,89853,6,0,L|257:262,1,53.9999983520508
344,136,90315,1,0,0:0:0:0:
342,157,90430,1,0,0:0:0:0:
340,185,90545,1,0,0:0:0:0:
195,145,90661,1,0,0:0:0:0:
197,164,90776,2,0,P|243:231|333:246,1,161.999995056153
130,122,91930,5,0,0:0:0:0:
275,102,92161,1,0,0:0:0:0:
169,234,92392,1,0,0:0:0:0:
332,222,92622,1,0,0:0:0:0:
141,180,92853,5,0,0:0:0:0:
290,141,93084,1,0,0:0:0:0:
62,83,93315,5,0,0:0:0:0:
62,83,93430,5,0,0:0:0:0:
62,83,93545,6,0,P|125:105|149:150,1,107.999996704102
256,192,94469,12,4,96083,0:0:0:0:
128,184,96315,5,0,0:0:0:0:
256,64,96545,1,0,0:0:0:0:
248,240,96776,1,0,0:0:0:0:
144,80,97007,1,0,0:0:0:0:
328,160,97238,1,0,0:0:0:0:
200,176,97469,5,0,0:0:0:0:
79,259,97699,1,0,0:0:0:0:
117,274,97815,1,0,0:0:0:0:
162,284,97930,1,0,0:0:0:0:
256,168,98161,1,0,0:0:0:0:
248,48,98392,1,0,0:0:0:0:
440,120,98622,1,0,0:0:0:0:
472,336,98853,1,0,0:0:0:0:
440,176,99084,2,4,P|440:104|336:32,1,180
30,197,100007,5,0,0:0:0:0:
198,269,100238,1,0,0:0:0:0:
157,62,100469,1,0,0:0:0:0:
312,72,100699,2,0,P|371:50|413:85,1,90
456,120,101161,1,0,0:0:0:0:
400,276,101392,1,0,0:0:0:0:
378,244,101507,1,0,0:0:0:0:
353,235,101622,1,0,0:0:0:0:
206,256,101853,1,0,0:0:0:0:
72,320,102084,5,0,0:0:0:0:
72,320,102315,1,0,0:0:0:0:
64,184,102545,1,4,0:0:0:0:
72,160,102661,1,4,0:0:0:0:
88,136,102776,1,4,0:0:0:0:
337,90,103007,1,4,0:0:0:0:
313,82,103122,1,4,0:0:0:0:
289,66,103238,1,4,0:0:0:0:
125,162,103469,5,0,0:0:0:0:
376,200,103699,5,0,0:0:0:0:
376,200,103815,1,0,0:0:0:0:
376,200,103930,2,0,P|360:256|256:304,1,180
144,264,104622,5,0,0:0:0:0:
8,112,105084,1,0,0:0:0:0:
144,88,105315,5,0,0:0:0:0:
160,112,105430,1,0,0:0:0:0:
176,136,105545,2,4,B|272:376|368:96|480:304,1,360
80,128,106930,6,0,L|109:156,1,22.5
360,96,107392,2,0,L|339:126,1,22.5
176,288,107853,2,0,L|209:283,1,22.5
440,264,108315,2,0,L|428:243,1,22.5
360,96,108776,2,0,L|324:106,1,22.5
80,128,109238,6,0,L|108:150,1,22.5
320,288,109700,1,0,0:0:0:0:
320,288,109815,1,0,0:0:0:0:
320,288,109931,1,0,0:0:0:0:
416,48,110161,2,0,L|240:64,1,90
32,304,111084,5,0,2:0:0:0:
104,216,111315,1,0,2:0:0:0:
176,120,111545,2,0,P|243:87|248:39,1,90
479,304,112007,5,0,2:0:0:0:
407,199,112238,1,0,2:0:0:0:
382,170,112353,1,0,0:0:0:0:
360,150,112468,1,0,2:0:0:0:
184,114,112699,1,0,2:0:0:0:
104,264,112930,5,0,2:0:0:0:
195,53,113161,1,0,2:0:0:0:
432,232,113392,1,0,2:0:0:0:
251,110,113622,1,0,2:0:0:0:
249,315,113853,2,4,L|188:230,2,90
136,235,114776,5,0,0:0:0:0:
212,72,115007,1,0,0:0:0:0:
375,148,115238,1,0,0:0:0:0:
299,311,115469,1,0,0:0:0:0:
64,192,115699,5,0,0:0:0:0:
256,32,115930,1,0,0:0:0:0:
448,192,116161,1,0,0:0:0:0:
256,352,116392,1,0,0:0:0:0:
46,175,116622,5,0,0:0:0:0:
226,69,116853,1,0,0:0:0:0:
316,288,117084,1,0,0:0:0:0:
512,131,117315,1,0,0:0:0:0:
256,40,117545,5,4,0:0:0:0:
392,273,117776,1,4,0:0:0:0:
122,273,118007,1,4,0:0:0:0:
258,108,118468,5,2,0:0:0:0:
278,138,118584,1,2,0:0:0:0:
296,168,118699,2,0,P|320:272|160:328,1,270,0|4,0:0|0:0,0:0:0:0:
195,343,119507,1,4,0:0:0:0:
195,343,119622,1,4,0:0:0:0:
119,255,119853,5,0,0:0:0:0:
58,94,120084,1,0,0:0:0:0:
224,32,120315,5,0,0:0:0:0:
344,128,120776,1,0,0:0:0:0:
208,184,121238,1,0,0:0:0:0:
384,272,121699,1,0,0:0:0:0:
80,224,122161,1,0,0:0:0:0:
176,96,122622,5,8,0:0:0:0:
280,72,122852,1,8,0:0:0:0:
384,104,123084,1,8,0:0:0:0:
296,264,123545,5,8,0:0:0:0:
120,176,124007,2,0,P|128:88|240:48,1,180
368,240,124930,1,0,0:0:0:0:
368,240,125392,2,0,P|288:296|152:288,1,180
256,192,126315,12,2,127699,0:0:0:0:
256,192,127930,12,6,130469,0:0:0:0:
416,96,131392,6,0,L|376:128,2,45
144,48,132315,6,0,P|72:96|72:280,1,270
249,68,133238,6,0,B|328:16|392:40|408:112|408:112|416:224|250:358,1,485.999985168458
192,104,135545,6,0,L|152:136,2,45
432,200,136238,6,0,P|456:232|440:248,2,45
249,68,136930,6,0,B|176:17|112:41|96:113|96:113|88:225|270:351,1,495
304,248,139699,6,0,P|336:224|344:216,3,45
18,312,140622,6,0,B|64:272|120:216|160:136|168:56|176:24|176:24|208:120|240:224|272:296|344:352|344:352|360:264|376:184|400:128|432:80|464:40,1,1035
312,24,146161,6,0,L|368:0,2,45
160,72,147084,2,0,P|96:136|128:248,1,180
181,85,148007,5,0,0:0:0:0:
339,141,148238,1,0,0:0:0:0:
136,216,148469,1,0,0:0:0:0:
320,240,148699,1,0,0:0:0:0:
149,300,148930,2,0,L|225:234,1,90
158,109,149392,1,0,0:0:0:0:
410,185,149622,1,0,0:0:0:0:
272,80,149853,6,0,P|216:136|200:208,2,135
96,72,151699,5,0,0:0:0:0:
216,64,151930,1,0,0:0:0:0:
320,112,152161,1,0,0:0:0:0:
408,184,152392,1,0,0:0:0:0:
344,288,152622,5,0,0:0:0:0:
240,264,152853,1,0,0:0:0:0:
152,192,153084,1,0,0:0:0:0:
112,88,153315,1,0,0:0:0:0:
160,176,153545,6,0,L|104:216,1,45
384,208,154238,2,0,L|416:256,1,45
85,265,154930,6,0,L|261:230,1,161.999995056153
118,183,155854,1,0,0:0:0:0:
165,88,156084,1,0,0:0:0:0:
186,256,156315,1,0,0:0:0:0:
268,93,156546,1,0,0:0:0:0:
216,304,156777,5,0,0:0:0:0:
424,192,157007,1,0,0:0:0:0:
374,239,157238,5,0,0:0:0:0:
271,189,157469,1,0,0:0:0:0:
167,141,157700,1,0,0:0:0:0:
167,141,157930,2,0,L|309:213,1,107.999996704102
224,320,158623,5,0,0:0:0:0:
192,80,158854,1,0,0:0:0:0:
64,192,159084,5,0,0:0:0:0:
224,64,159315,1,0,0:0:0:0:
208,239,159546,2,0,B|284:242|340:296|351:363,1,161.999995056153
372,136,160469,5,0,0:0:0:0:
164,144,160700,1,0,0:0:0:0:
279,351,160930,5,0,0:0:0:0:
261,332,161046,1,0,0:0:0:0:
238,303,161161,2,0,B|196:268|264:216|264:216|159:208|199:122,1,242.999992584229
111,223,162315,5,0,0:0:0:0:
111,186,162430,1,0,0:0:0:0:
121,145,162546,1,0,0:0:0:0:
206,66,162777,1,0,0:0:0:0:
325,68,163007,1,0,0:0:0:0:
392,157,163238,1,0,0:0:0:0:
253,292,163469,1,0,0:0:0:0:
203,147,163700,1,0,0:0:0:0:
351,53,163930,1,0,0:0:0:0:
393,175,164161,5,0,0:0:0:0:
356,194,164277,1,0,0:0:0:0:
318,176,164392,1,0,0:0:0:0:
64,252,164623,5,0,0:0:0:0:
192,128,164854,1,0,0:0:0:0:
288,320,165084,1,0,0:0:0:0:
384,128,165315,1,0,0:0:0:0:
196,224,165546,1,0,0:0:0:0:
448,256,165777,1,0,0:0:0:0:
336,65,166007,5,0,0:0:0:0:
314,72,166123,1,0,0:0:0:0:
292,80,166238,1,0,0:0:0:0:
269,87,166354,1,0,0:0:0:0:
247,95,166469,1,0,0:0:0:0:
225,103,166584,1,0,0:0:0:0:
203,110,166700,2,0,P|129:130|107:174,1,107.999996704102
112,194,167276,1,0,0:0:0:0:
121,231,167392,6,0,P|175:244|376:162,1,269.999991760254
228,136,169699,6,0,L|304:168,1,53.9999983520508
272,248,170161,1,0,0:0:0:0:
404,112,170622,1,0,0:0:0:0:
116,124,171084,1,0,0:0:0:0:
416,168,171545,6,0,L|328:224,1,53.9999983520508
112,228,172007,2,0,P|76:148|168:84,2,180
64,200,173392,5,0,0:0:0:0:
64,200,173622,1,0,0:0:0:0:
224,88,173853,1,0,0:0:0:0:
428,160,174315,1,0,0:0:0:0:
276,312,174776,1,0,0:0:0:0:
88,80,175238,6,0,L|80:168,1,53.9999983520508
180,232,175699,1,0,0:0:0:0:
320,96,176161,1,0,0:0:0:0:
488,136,176622,1,0,0:0:0:0:
316,300,177084,6,0,L|248:304,1,53.9999983520508
320,116,177545,1,0,0:0:0:0:
144,224,178007,2,0,P|108:112|116:104,1,107.999996704102
356,192,178930,1,0,0:0:0:0:
212,136,179161,1,0,0:0:0:0:
316,32,179392,1,0,0:0:0:0:
424,260,179853,1,0,0:0:0:0:
140,216,180315,1,0,0:0:0:0:
340,72,180776,5,0,0:0:0:0:
312,84,180892,1,0,0:0:0:0:
304,112,181007,1,0,0:0:0:0:
312,152,181122,1,0,0:0:0:0:
333,178,181238,2,0,B|312:171|294:176|280:197|282:221|293:237|318:267|336:273|349:260|356:245|411:292|449:252|450:220|466:152|453:96|431:57|394:40|328:32|247:50|204:74|181:134|173:173|188:224|192:252|205:286|239:306|275:338|309:354|347:347|388:344|421:328|461:291,1,900
128,77,192315,6,0,P|47:89|22:113,1,90
128,292,193007,6,0,L|237:216,1,90
289,89,193699,6,0,L|234:69,1,45
367,169,194161,6,0,B|287:228|311:203|392:280,1,135
168,293,195084,6,0,L|201:253,1,45
89,117,195545,6,0,L|118:103,1,22.5
176,234,195776,2,0,L|195:255,1,22.5
287,161,196007,2,0,P|385:173|408:203,1,135
378,48,197161,6,0,L|398:68,1,22.5
433,127,197392,2,0,P|436:198|233:286,1,315
234,198,199238,1,0,0:0:0:0:
345,114,199469,1,0,0:0:0:0:
144,112,199699,5,0,0:0:0:0:
272,64,199930,1,0,0:0:0:0:
384,112,200161,2,0,P|440:168|432:216,1,90
232,232,200622,5,0,0:0:0:0:
369,96,200853,1,0,0:0:0:0:
128,72,201084,1,0,0:0:0:0:
48,208,201315,1,0,0:0:0:0:
48,208,201545,2,0,P|104:272|128:272,1,90
304,312,202007,5,0,0:0:0:0:
216,120,202238,1,0,0:0:0:0:
344,56,202469,2,0,P|384:152|472:176,1,180
96,120,203392,5,0,0:0:0:0:
240,48,203622,1,0,0:0:0:0:
376,112,203853,1,0,0:0:0:0:
120,216,204084,2,0,L|200:288,1,90
352,264,204545,5,0,0:0:0:0:
72,144,204776,2,0,L|200:120,1,90
336,80,205238,5,0,0:0:0:0:
336,80,205353,1,0,0:0:0:0:
336,80,205468,1,0,0:0:0:0:
224,160,205699,1,0,0:0:0:0:
328,272,205930,1,0,0:0:0:0:
32,152,206161,6,0,L|136:104,2,90
384,64,207084,5,0,0:0:0:0:
152,72,207545,1,0,0:0:0:0:
152,72,207776,2,0,L|72:144,1,90
168,280,208469,1,0,0:0:0:0:
400,256,208930,1,0,0:0:0:0:
152,72,209392,2,0,P|272:48|336:80,2,180
157,73,210545,1,0,0:0:0:0:
368,72,210776,5,0,0:0:0:0:
368,72,210892,1,0,0:0:0:0:
368,72,211007,1,0,0:0:0:0:
264,304,211238,1,0,0:0:0:0:
112,80,211699,1,0,0:0:0:0:
336,160,212161,1,0,0:0:0:0:
88,192,212622,5,0,0:0:0:0:
88,192,212738,1,0,0:0:0:0:
88,192,212853,1,0,0:0:0:0:
416,192,213084,1,0,0:0:0:0:
66,144,213545,5,0,0:0:0:0:
66,144,213661,1,0,0:0:0:0:
66,144,213776,1,0,0:0:0:0:
432,160,214007,1,0,0:0:0:0:
444,184,214122,2,0,P|444:220|428:238,1,45
24,240,214469,5,0,0:0:0:0:
48,152,214699,2,0,P|80:104|136:96,1,90
288,56,215161,1,0,0:0:0:0:
416,96,215392,2,0,L|360:200,1,90
232,256,215853,5,0,0:0:0:0:
232,256,216084,1,0,0:0:0:0:
232,256,216315,2,0,L|152:200,2,90
288,112,217007,1,0,0:0:0:0:
360,296,217238,5,0,0:0:0:0:
88,208,217469,1,0,0:0:0:0:
336,72,217699,1,0,0:0:0:0:
17,43,218161,6,0,L|136:43,1,90
494,72,218622,6,0,L|375:72,1,90
17,139,219084,6,0,L|136:139,1,90
494,336,219545,6,0,L|397:336,1,90
17,276,220007,6,0,L|114:276,1,90
494,217,220469,6,0,L|375:217,1,90
256,312,220930,6,0,L|256:96,1,180
64,96,221853,5,0,0:0:0:0:
160,272,222315,1,0,0:0:0:0:
288,352,222545,1,0,0:0:0:0:
288,208,222776,1,0,0:0:0:0:
456,104,223238,2,0,L|384:176,1,90
279,300,223699,5,0,0:0:0:0:
440,248,224161,5,0,0:0:0:0:
272,192,224622,5,0,0:0:0:0:
144,48,225084,5,0,0:0:0:0:
328,112,225545,6,0,P|432:112|464:168,2,135,2|8|2,0:0|0:0|0:0,0:0:0:0:
103,217,226469,6,0,B|171:311|212:300|298:227,1,225
132,184,227392,5,0,0:0:0:0:
392,100,227853,1,0,0:0:0:0:
444,284,228315,1,0,0:0:0:0:
220,296,228776,1,0,0:0:0:0:
24,172,229238,2,0,P|126:68|264:62,1,270
256,192,231084,12,0,233853,0:0:0:0:
256,192,249545,12,0,253238,0:0:0:0:
264,128,253699,5,0,0:0:0:0:
264,128,253930,1,0,0:0:0:0:
256,128,254161,2,0,P|384:80|520:160,2,270
96,168,256007,5,0,0:0:0:0:
96,168,256122,1,0,0:0:0:0:
96,168,256238,1,0,0:0:0:0:
216,272,256469,1,0,0:0:0:0:
328,248,256699,1,0,0:0:0:0:
200,56,256930,2,0,P|320:56|376:128,1,180
240,168,257622,1,0,0:0:0:0:
176,280,257853,1,0,0:0:0:0:
184,272,257969,1,0,0:0:0:0:
192,264,258084,1,0,0:0:0:0:
146,153,258315,5,0,0:0:0:0:
270,37,258545,1,0,0:0:0:0:
320,128,258776,6,0,P|416:160|416:232,2,180
296,136,259815,1,0,0:0:0:0:
272,144,259930,2,0,P|208:160|240:272,1,180
384,112,260622,6,0,P|352:240|128:280,1,360
160,96,262007,5,0,0:0:0:0:
160,96,262238,1,0,0:0:0:0:
336,120,262469,1,0,0:0:0:0:
272,224,262699,2,0,P|320:232|296:288,1,90
336,120,263161,1,0,0:0:0:0:
80,168,263392,2,0,P|96:96|160:104,1,90
301,59,263853,5,0,0:0:0:0:
441,145,264084,1,0,0:0:0:0:
301,269,264315,5,0,0:0:0:0:
211,114,264545,1,0,0:0:0:0:
346,192,264776,1,0,0:0:0:0:
166,191,265007,1,0,0:0:0:0:
301,114,265238,1,0,0:0:0:0:
211,269,265469,1,0,0:0:0:0:
256,327,265699,5,0,0:0:0:0:
139,259,265930,1,0,0:0:0:0:
139,124,266161,1,0,0:0:0:0:
256,57,266392,1,0,0:0:0:0:
372,124,266622,1,0,0:0:0:0:
372,259,266853,1,0,0:0:0:0:
248,328,267084,6,0,P|128:304|96:248,1,180
217,259,268007,5,0,0:0:0:0:
217,124,268238,1,0,0:0:0:0:
333,192,268469,1,0,0:0:0:0:
173,274,268699,5,0,0:0:0:0:
225,79,268930,1,0,0:0:0:0:
368,222,269161,1,0,0:0:0:0:
120,269,269392,5,0,0:0:0:0:
256,36,269622,1,0,0:0:0:0:
390,269,269853,1,0,0:0:0:0:
67,242,270084,5,0,0:0:0:0:
306,3,270315,1,0,0:0:0:0:
393,329,270545,1,0,0:0:0:0:
145,192,270776,5,0,0:0:0:0:
311,96,271007,1,0,0:0:0:0:
320,288,271238,2,0,L|224:288,1,90
96,57,271699,6,0,L|140:45,1,45
239,176,271930,2,0,L|208:208,1,45
352,96,272161,6,0,P|448:160|448:288,1,180
256,96,272853,1,0,0:0:0:0:
32,128,273084,6,0,P|32:224|64:224,1,90
224,256,273545,2,0,L|384:96,1,180
224,32,274238,1,0,0:0:0:0:
96,192,274469,6,0,L|96:224,4,22.5
258,146,274930,1,0,0:0:0:0:
258,146,275161,1,0,0:0:0:0:
95,58,275392,6,0,L|162:42,2,45
360,54,275853,2,0,L|397:118,2,45
351,313,276315,2,0,L|289:335,2,45
94,303,276776,2,0,L|45:256,2,45
186,49,277238,6,2,P|160:48|128:72,1,45
113,261,277699,2,2,P|128:288|144:296,1,45
325,334,278161,2,2,P|360:344|376:336,1,45
398,122,278622,2,2,P|392:88|368:80,1,45
128,160,279084,5,0,0:0:0:0:
304,88,279315,1,0,0:0:0:0:
424,288,279545,1,0,0:0:0:0:
216,320,279776,1,0,0:0:0:0:
72,144,280007,1,0,0:0:0:0:
336,128,280238,1,0,0:0:0:0:
136,288,280469,1,0,0:0:0:0:
376,304,280699,1,0,0:0:0:0:
376,304,280815,1,0,0:0:0:0:
376,304,280930,1,0,0:0:0:0:
256,224,281161,6,0,P|128:144|112:128,1,135.000005149842
288,136,281622,1,0,0:0:0:0:
188,68,281853,1,2,0:0:0:0:
216,53,281968,1,2,0:0:0:0:
250,48,282084,1,2,0:0:0:0:
284,53,282199,1,2,0:0:0:0:
317,68,282315,1,2,0:0:0:0:
267,352,282776,5,0,0:0:0:0:
70,232,283007,1,0,0:0:0:0:
181,54,283238,1,0,0:0:0:0:
370,103,283469,1,0,0:0:0:0:
391,137,283584,1,0,0:0:0:0:
409,170,283699,1,0,0:0:0:0:
112,272,283930,2,0,P|120:176|288:144,1,270.000010299683
112,56,284622,5,0,0:0:0:0:
360,192,284853,1,0,0:0:0:0:
96,240,285084,1,0,0:0:0:0:
384,64,285315,1,0,0:0:0:0:
32,16,285545,5,4,0:0:0:0:
256,352,285776,1,4,0:0:0:0:
480,16,286007,1,4,0:0:0:0:
161,237,286469,6,8,L|201:262,1,45
353,285,286699,2,8,L|414:243,1,45
353,113,286930,2,0,L|233:95,1,90
91,195,287392,6,0,L|145:112,1,90
416,128,288315,6,0,P|442:149|443:175,1,45
149,257,288776,6,0,L|245:252,1,90
128,65,289699,1,0,0:0:0:0:
374,93,290161,6,0,L|451:271,1,180
240,255,291084,2,0,P|151:230|226:99,1,270
104,215,292007,6,0,L|74:271,1,45
437,209,292469,2,0,L|456:253,1,45
127,46,292931,2,0,L|97:101,1,45
410,66,293392,2,0,L|453:110,1,45
146,312,293853,5,2,0:0:0:0:
273,27,294084,1,2,0:0:0:0:
337,332,294315,1,2,0:0:0:0:
106,124,294545,1,2,0:0:0:0:
415,156,294776,1,2,0:0:0:0:
118,280,295007,5,2,0:0:0:0:
313,38,295238,1,2,0:0:0:0:
297,349,295469,1,2,0:0:0:0:
127,88,295699,1,2,0:0:0:0:
419,199,295930,1,2,0:0:0:0:
120,200,296161,5,0,0:0:0:0:
320,72,296392,1,0,0:0:0:0:
328,288,296622,2,2,P|187:291|243:211,1,270.000010299683
206,231,297199,1,0,0:0:0:0:
206,231,297315,1,0,0:0:0:0:
48,64,297545,5,0,0:0:0:0:
360,152,297776,1,0,0:0:0:0:
128,88,298007,1,0,0:0:0:0:
440,192,298238,1,0,0:0:0:0:
208,104,298469,1,0,0:0:0:0:
512,216,298699,1,0,0:0:0:0:
264,320,298930,5,0,0:0:0:0:
360,56,299161,1,0,0:0:0:0:
280,192,299392,1,0,0:0:0:0:
56,144,299622,1,0,0:0:0:0:
352,96,299853,2,2,P|416:152|424:216,1,135.000005149842
146,381,300315,5,0,0:0:0:0:
146,2,300546,1,0,0:0:0:0:
474,192,300776,2,0,L|328:144,1,135.000005149842
121,172,301238,5,0,0:0:0:0:
160,204,301353,1,0,0:0:0:0:
198,230,301469,1,0,0:0:0:0:
243,243,301584,1,0,0:0:0:0:
288,249,301699,1,0,0:0:0:0:
332,243,301815,1,0,0:0:0:0:
377,217,301930,6,0,P|345:147|281:147,1,135.000005149842
294,141,302276,1,0,0:0:0:0:
294,141,302392,2,0,P|191:115|146:115,1,135.000005149842
48,208,302853,5,0,0:0:0:0:
168,80,303084,1,0,0:0:0:0:
184,80,303199,1,0,0:0:0:0:
200,80,303315,1,0,0:0:0:0:
320,168,303545,5,0,0:0:0:0:
176,208,303776,5,0,0:0:0:0:
176,240,303892,1,0,0:0:0:0:
176,280,304007,1,0,0:0:0:0:
176,312,304122,1,0,0:0:0:0:
176,352,304238,2,0,P|88:320|64:264,2,135.000005149842
344,128,304930,5,0,0:0:0:0:
367,143,305045,1,0,0:0:0:0:
397,147,305161,1,0,0:0:0:0:
224,48,305392,5,0,0:0:0:0:
280,144,305622,1,0,0:0:0:0:
336,248,305853,2,0,P|382:302|445:272,1,135.000005149842
88,192,306315,5,0,0:0:0:0:
125,194,306430,1,0,0:0:0:0:
168,200,306545,1,0,0:0:0:0:
69,313,306776,6,2,P|96:336|128:336,1,45
377,378,307238,2,2,P|408:368|424:344,1,45
442,70,307699,2,2,P|408:48|384:56,1,45
134,5,308161,2,2,P|96:32|112:56,1,45
344,88,308622,6,0,P|432:144|384:200,1,135.000005149842
56,264,309084,1,0,0:0:0:0:
56,264,309315,2,0,L|152:144,1,135.000005149842
328,280,309776,1,0,0:0:0:0:
136,144,310007,1,0,0:0:0:0:
360,80,310238,1,0,0:0:0:0:
168,272,310469,6,0,P|48:200|80:152,1,135.000005149842
168,48,310930,1,0,0:0:0:0:
288,296,311161,1,0,0:0:0:0:
312,64,311392,2,0,P|360:112|352:224,2,135.000005149842
155,138,312315,6,0,P|178:134|192:135,1,22.5
287,272,312545,6,0,P|311:270|315:257,1,22.5
411,133,312776,5,0,0:0:0:0:
88,216,313007,5,0,0:0:0:0:
384,240,313238,1,0,0:0:0:0:
176,96,313469,1,0,0:0:0:0:
224,272,313699,2,0,L|352:168,1,135.000005149842
88,80,314161,5,0,0:0:0:0:
160,328,314392,2,0,P|224:344|320:296,2,135.000005149842
48,160,315084,5,0,0:0:0:0:
424,160,315315,1,0,0:0:0:0:
48,160,315545,2,0,L|88:160,2,33.7500012874604
48,59,316007,5,0,0:0:0:0:
69,70,316122,1,0,0:0:0:0:
87,83,316238,1,0,0:0:0:0:
191,206,316469,1,0,0:0:0:0:
357,140,316699,2,0,P|360:210|277:263,2,135.000005149842
42,183,317392,2,0,P|75:263|146:277,1,135.000005149842
256,262,317853,5,0,0:0:0:0:
381,178,318084,1,0,0:0:0:0:
266,59,318315,1,0,0:0:0:0:
74,108,318545,2,0,L|170:269,1,135.000005149842
321,293,319007,5,0,0:0:0:0:
204,77,319238,2,0,L|346:78,1,135.000005149842
190,73,319699,2,0,B|333:175|343:298|258:344|258:344|170:290|175:185|303:78|360:51,1,675.000025749208
105,66,321545,5,0,0:0:0:0:
421,74,322007,1,0,0:0:0:0:
20,275,322469,1,0,0:0:0:0:
445,162,322930,1,0,0:0:0:0:
131,80,323392,6,2,L|215:90,14,67.5000025749208
37,168,325238,6,0,P|118:249|508:180,1,540
343,42,328238,5,0,0:0:0:0:
343,42,328353,1,0,0:0:0:0:
343,42,328469,1,0,0:0:0:0:
348,55,328584,1,0,0:0:0:0:
348,74,328699,1,0,0:0:0:0:
348,94,328815,1,0,0:0:0:0:
336,120,328930,1,0,0:0:0:0:
323,136,329045,2,0,L|294:161,3,22.5
305,182,329507,2,0,L|319:210,1,22.5
132,305,329853,6,0,L|185:284,1,45
149,65,330315,5,0,0:0:0:0:
149,65,330545,1,0,0:0:0:0:
67,160,330777,2,0,L|226:181,1,135.000005149842
323,75,331238,2,0,P|435:130|423:307,1,270.000010299683
131,271,331930,5,0,0:0:0:0:
147,247,332045,1,0,0:0:0:0:
161,224,332161,1,0,0:0:0:0:
185,201,332276,1,0,0:0:0:0:
214,194,332392,1,0,0:0:0:0:
245,195,332507,1,0,0:0:0:0:
278,207,332622,1,0,0:0:0:0:
298,226,332738,2,0,L|348:300,1,67.5000025749208
109,334,333084,5,0,0:0:0:0:
204,187,333545,1,0,0:0:0:0:
387,48,334007,1,0,0:0:0:0:
164,40,334469,2,0,P|239:111|337:89,2,202.500007724762
329,94,335392,1,0,0:0:0:0:
256,246,335622,5,0,0:0:0:0:
291,245,335738,1,0,0:0:0:0:
329,245,335853,1,0,0:0:0:0:
64,224,336315,5,0,0:0:0:0:
448,64,336776,1,0,0:0:0:0:
256,192,337238,12,0,343238,0:0:0:0:
154,339,344622,5,0,0:0:0:0:
388,277,344853,1,0,0:0:0:0:
75,163,345084,1,0,0:0:0:0:
420,26,345315,1,0,0:0:0:0:
90,174,345545,6,0,P|48:78|122:13,2,202.500007724762
400,46,346469,1,0,0:0:0:0:
400,46,346699,1,0,0:0:0:0:
274,39,346930,5,0,0:0:0:0:
111,117,347161,1,0,0:0:0:0:
75,326,347392,1,0,0:0:0:0:
349,290,347853,5,0,0:0:0:0:
72,239,348315,1,0,0:0:0:0:
406,163,348776,1,0,0:0:0:0:
94,94,349238,2,0,L|310:56,2,202.500007724762
293,58,350161,1,0,0:0:0:0:
0,143,351084,5,0,0:0:0:0:
512,143,351545,1,0,0:0:0:0:
0,143,352007,1,0,0:0:0:0:
512,143,352469,1,0,0:0:0:0:
146,62,354199,6,0,L|271:54,1,90
331,79,354660,1,2,0:0:0:0:
402,147,354891,2,2,P|429:225|419:263,1,90
361,315,355352,2,2,P|241:323|226:297,1,90
173,309,355814,1,2,0:0:0:0:
100,228,356045,1,2,0:0:0:0:
110,119,356275,2,2,P|126:54|199:62,1,90
272,53,356737,1,2,0:0:0:0:
373,198,356968,2,2,P|275:156|259:106,2,90
72,80,357891,6,2,L|170:162,1,90
203,57,358352,2,2,L|319:153,1,90
348,47,358814,1,2,0:0:0:0:
444,117,359045,1,2,0:0:0:0:
337,209,359275,2,2,P|243:170|231:142,1,90
209,101,359737,2,2,P|116:41|105:41,1,90
43,113,360199,1,2,0:0:0:0:
84,223,360429,1,2,0:0:0:0:
194,279,360660,1,2,0:0:0:0:
312,288,360891,2,2,L|402:238,1,90
171,93,361583,6,2,L|200:95,2,22.5
383,68,362045,1,0,0:0:0:0:
391,218,362506,2,2,L|362:241,2,22.5
207,303,362968,1,0,0:0:0:0:
76,235,363429,6,4,L|84:192,2,22.5
340,68,363891,2,4,L|313:88,2,22.5
364,259,364352,2,4,L|326:245,2,22.5
103,105,364814,2,4,P|128:86|131:87,2,22.5
278,71,365275,6,0,P|360:64|390:71,1,90
381,244,366199,2,0,P|343:292|256:290,1,135
187,67,367583,6,4,B|224:110|265:155|271:189|271:189|320:114|343:53|340:59|340:59|266:246|193:262|141:310|132:312,1,630
256,192,371045,12,4,377737,0:0:0:0:
