osu file format v14

[General]
AudioFilename: audio.mp3
AudioLeadIn: 0
PreviewTime: 55440
Countdown: 0
SampleSet: Soft
StackLeniency: 0.7
Mode: 0
LetterboxInBreaks: 0
WidescreenStoryboard: 0

[Editor]
Bookmarks: 11676,34264,56852,79440,82264,85323,97087,104852,118146,127440,142264,150029,161323,172617,196617,219205,224852,241793
DistanceSpacing: 0.5
BeatDivisor: 3
GridSize: 4
TimelineZoom: 2.3

[Metadata]
Title:Hana ni Akai Ito
TitleUnicode:花に赤い糸
Artist:Asakura Momo
ArtistUnicode:麻倉もも
Creator:domSaur
Version:First Love
Source:好きになるその瞬間を。~告白実行委員会~
Tags:suki ni naru sono shunkan wo kokuhaku jikkou iinkai the moment you fall in love confess your love committee 明日は君と。 ashita wa kimi to honeyworks dubturt anime japanese insert song
BeatmapID:2048925
BeatmapSetID:979061

[Difficulty]
HPDrainRate:6
CircleSize:4
OverallDifficulty:8
ApproachRate:8.8
SliderMultiplier:1.6
SliderTickRate:1

[Events]
//Background and Video events
0,0,"Untitled.jpg",0,0
//Break Periods
2,79688,81653
2,150276,160712
2,219453,223565
//Storyboard Layer 0 (Background)
//Storyboard Layer 1 (Fail)
//Storyboard Layer 2 (Pass)
//Storyboard Layer 3 (Foreground)
//Storyboard Layer 4 (Overlay)
//Storyboard Sound Samples

[TimingPoints]
430,352.941176470588,4,2,1,40,1,0
430,-166.666666666667,4,2,1,40,0,0
34312,-100,4,2,1,60,0,0
50194,-71.4285714285714,4,2,1,60,0,0
50782,-100,4,2,1,60,0,0
55488,-200,4,2,1,60,0,0
56077,-200,4,2,1,5,0,0
56194,-100,4,2,1,60,0,0
56782,-100,4,2,1,5,0,0
56900,-83.3333333333333,4,2,1,70,0,1
67841,-100,4,2,1,70,0,0
68194,-83.3333333333333,4,2,1,70,0,1
79488,-100,4,2,1,70,0,0
82312,-142.857142857143,4,2,1,50,0,0
104900,-100,4,2,1,60,0,0
126782,-83.3333333333333,4,2,1,70,0,0
127488,-83.3333333333333,4,2,1,70,0,1
138429,-100,4,2,1,70,0,0
138782,-83.3333333333333,4,2,1,70,0,1
150077,-100,4,2,1,70,0,0
161371,-100,4,2,1,60,0,0
186782,-83.3333333333333,4,2,1,57,0,0
188194,-1000,4,2,1,57,0,0
190194,-100,4,2,1,57,0,0
195253,-200,4,2,1,70,0,0
195841,-200,4,2,1,5,0,0
195959,-100,4,2,1,70,0,0
196547,-100,4,2,1,5,0,0
196665,-83.3333333333333,4,2,1,70,0,1
207606,-100,4,2,1,70,0,0
207959,-83.3333333333333,4,2,1,70,0,1
219253,-100,4,2,1,70,0,0
224018,-111.111111111111,4,2,1,70,0,0
224900,-83.3333333333333,4,2,1,70,0,1
230429,-100,4,2,1,70,0,0
230547,-83.3333333333333,4,2,1,70,0,1
231135,-100,4,2,1,70,0,0
231253,-83.3333333333333,4,2,1,70,0,1
233253,-100,4,2,1,70,0,0
233371,-83.3333333333333,4,2,1,70,0,1
233959,-100,4,2,1,70,0,0
234077,-83.3333333333333,4,2,1,70,0,1
234665,-100,4,2,1,70,0,0
234782,-83.3333333333333,4,2,1,70,0,1
236077,-100,4,2,1,70,0,0
236194,-83.3333333333333,4,2,1,70,0,1
241488,384.615384615385,4,2,1,70,1,1
241872,-100,4,2,1,70,0,0

[Colours]
Combo1 : 165,211,237
Combo2 : 245,154,182
Combo3 : 255,232,151

[HitObjects]
230,166,11724,6,0,B|122:193|149:120|15:161,2,191.999994140625,2|2|2,0:0|3:0|0:0,0:0:0:0:
341,80,13488,1,2,0:0:0:0:
425,130,13841,1,2,3:2:0:0:
344,174,14194,1,2,0:0:0:0:
469,295,14547,6,0,P|435:289|355:272,1,95.9999970703126,2|0,0:0|0:0,0:0:0:0:
269,178,15135,1,0,0:0:0:0:
262,206,15253,1,2,3:0:0:0:
144,281,15488,1,0,0:0:0:0:
142,252,15606,1,0,0:0:0:0:
39,118,15841,1,0,0:0:0:0:
27,147,15959,6,0,B|23:181|23:181|35:211,1,63.9999980468751,2|0,0:0|0:0,0:0:0:0:
122,244,16312,2,0,P|159:239|219:229,2,95.9999970703126,2|2|2,0:0|3:2|0:0,0:0:0:0:
372,130,17371,6,0,P|388:156|394:205,1,63.9999980468751,2|0,0:0|0:0,0:0:0:0:
474,198,17724,2,0,P|466:227|436:266,1,63.9999980468751,0|0,0:0|0:0,0:0:0:0:
398,318,18077,2,0,P|348:314|281:310,1,95.9999970703126,2|0,3:0|0:0,0:0:0:0:
96,312,18665,1,0,0:0:0:0:
87,338,18782,6,0,P|80:308|51:268,1,63.9999980468751,2|0,0:0|0:0,0:0:0:0:
154,266,19135,2,0,P|170:238|195:219,1,63.9999980468751,2|0,0:0|0:0,0:0:0:0:
85,178,19488,2,0,P|68:150|43:131,1,63.9999980468751,2|0,3:2|0:0,0:0:0:0:
170,121,19841,2,0,P|186:93|211:74,1,63.9999980468751,2|0,0:0|0:0,0:0:0:0:
150,24,20194,6,0,P|155:73|165:139,1,95.9999970703126,2|0,0:0|0:0,0:0:0:0:
351,171,20900,2,0,P|346:221|336:286,1,95.9999970703126,2|0,0:0|0:0,0:0:0:0:
116,350,21606,6,0,P|153:345|193:339,1,63.9999980468751,2|0,0:0|0:0,0:0:0:0:
235,283,21959,2,0,P|230:246|224:206,1,63.9999980468751,2|0,0:0|0:0,0:0:0:0:
165,164,22312,1,2,3:2:0:0:
311,44,22665,1,2,0:0:0:0:
311,44,23018,6,0,B|413:11|393:71|504:42,2,191.999994140625,2|2|2,0:0|3:0|0:0,0:0:0:0:
121,133,24782,1,2,0:0:0:0:
214,190,25135,1,2,3:2:0:0:
213,86,25488,1,2,0:0:0:0:
47,254,25841,6,0,P|95:250|150:244,1,95.9999970703126,2|0,0:0|0:0,0:0:0:0:
284,247,26429,1,0,0:0:0:0:
255,244,26547,1,2,3:0:0:0:
367,337,26782,1,0,0:0:0:0:
395,334,26900,1,0,0:0:0:0:
500,271,27135,1,0,0:0:0:0:
437,231,27253,6,0,P|425:203|418:161,1,63.9999980468751,2|0,0:0|0:0,0:0:0:0:
433,85,27606,1,2,0:0:0:0:
260,194,27959,1,2,3:2:0:0:
171,63,28312,1,2,0:0:0:0:
38,260,28665,6,0,P|65:248|110:244,1,63.9999980468751,2|0,0:0|0:0,0:0:0:0:
99,163,29018,2,0,P|128:166|169:185,1,63.9999980468751,0|0,0:0|0:0,0:0:0:0:
239,217,29371,2,0,B|252:253|252:253|242:309,1,95.9999970703126,2|0,0:3|0:0,0:0:0:0:
429,347,30077,6,0,L|442:269,1,63.9999980468751,2|0,0:0|0:0,0:0:0:0:
344,251,30429,2,0,L|331:173,1,63.9999980468751,2|0,0:0|0:0,0:0:0:0:
448,153,30782,2,0,L|461:75,1,63.9999980468751,2|0,3:2|0:0,0:0:0:0:
327,83,31135,2,0,L|314:5,1,63.9999980468751,2|0,0:0|0:0,0:0:0:0:
255,150,31488,6,0,B|226:168|195:173|195:173|146:160,1,95.9999970703126,2|0,0:0|0:0,0:0:0:0:
47,77,32194,1,2,0:3:0:0:
51,86,32547,2,0,L|41:169,1,63.9999980468751,0|0,0:0|0:0,0:0:0:0:
70,272,32900,6,0,B|92:281|92:281|155:272,1,63.9999980468751,2|0,0:0|0:0,0:0:0:0:
219,314,33253,2,0,L|284:306,1,63.9999980468751,2|0,0:0|0:0,0:0:0:0:
363,262,33606,2,0,P|399:196|343:128,1,159.999995117188,2|0,3:2|0:0,0:0:0:0:
282,166,34312,6,0,B|257:132|257:132|259:103|276:65,1,106.666666666667,4|0,1:2|0:0,0:0:0:0:
359,125,34665,2,0,B|384:159|384:159|382:188|365:226,1,106.666666666667,2|0,1:2|0:0,0:0:0:0:
311,277,35018,1,8,0:0:0:0:
111,292,35253,1,0,0:0:0:0:
125,317,35371,2,0,B|154:348|154:348|237:351,1,106.666666666667,2|2,0:0|0:0,0:0:0:0:
185,259,35724,6,0,P|182:203|186:142,1,106.666666666667,2|0,1:2|0:0,0:0:0:0:
276,108,36077,1,2,1:2:0:0:
286,281,36312,1,0,0:0:0:0:
281,307,36430,1,8,0:0:0:0:
382,201,36665,1,2,0:0:0:0:
381,174,36782,1,2,0:0:0:0:
204,42,37135,6,0,P|144:40|98:89,1,106.666666666667,2|0,1:2|0:0,0:0:0:0:
48,141,37488,2,0,B|42:185|41:215|41:215|54:256,1,106.666666666667,2|0,1:2|0:0,0:0:0:0:
129,189,37841,1,8,0:0:0:0:
108,39,38077,1,0,0:0:0:0:
115,74,38194,1,2,0:0:0:0:
259,167,38430,1,2,0:0:0:0:
242,201,38547,6,0,L|234:326,1,106.666666666667,2|0,1:2|0:0,0:0:0:0:
300,354,38900,1,2,1:2:0:0:
430,260,39135,1,2,0:0:0:0:
431,233,39253,1,8,0:0:0:0:
273,361,39488,1,2,0:0:0:0:
201,336,39606,2,0,L|79:345,1,106.666666666667,2|2,0:0|0:0,0:0:0:0:
158,259,39959,5,2,1:2:0:0:
28,174,40194,1,2,0:0:0:0:
32,200,40312,1,2,1:2:0:0:
185,129,40547,1,2,0:0:0:0:
188,102,40665,1,8,0:0:0:0:
44,47,40900,1,2,0:0:0:0:
47,74,41018,1,2,0:0:0:0:
131,244,41253,1,2,0:0:0:0:
146,265,41371,6,0,B|184:278|184:278|282:244,1,106.666666666667,2|0,1:2|0:0,0:0:0:0:
282,334,41724,2,0,P|327:297|335:243,1,106.666666666667,2|0,1:2|0:0,0:0:0:0:
227,145,42077,2,0,B|214:183|214:183|248:281,1,106.666666666667,10|0,0:0|0:0,0:0:0:0:
301,187,42429,2,0,P|312:139|282:83,1,106.666666666667,2|0,0:0|0:0,0:0:0:0:
127,194,42782,5,2,1:2:0:0:
222,34,43135,1,2,1:2:0:0:
450,93,43488,2,0,P|406:100|337:104,1,106.666666666667,10|0,0:0|0:0,0:0:0:0:
280,176,43841,2,0,P|333:179|385:186,1,106.666666666667,2|0,0:0|0:0,0:0:0:0:
355,278,44194,5,2,1:2:0:0:
149,325,44547,1,2,1:2:0:0:
109,143,44900,1,10,0:0:0:0:
355,278,45135,1,0,0:0:0:0:
318,342,45253,2,0,P|363:352|417:318,1,106.666666666667,2|0,0:0|0:0,0:0:0:0:
472,247,45606,6,0,B|480:215|480:215|477:184|457:127,1,106.666666666667,2|0,1:2|0:0,0:0:0:0:
411,62,45959,2,0,L|415:17,5,26.6666666666667,2|0|0|0|0|0,3:2|3:0|3:0|3:0|3:0|3:0,0:0:0:0:
368,97,46312,2,0,L|246:91,1,106.666666666667,2|0,1:2|0:0,0:0:0:0:
177,53,46665,2,0,L|174:13,5,26.6666666666667,2|0|0|0|0|0,3:2|3:0|3:0|3:0|3:0|3:0,0:0:0:0:
163,80,47018,5,2,1:2:0:0:
237,189,47371,1,2,0:0:0:0:
218,231,47488,1,2,0:0:0:0:
174,248,47606,1,2,0:0:0:0:
128,236,47724,1,2,0:0:0:0:
103,195,47841,1,2,0:0:0:0:
112,185,47959,1,2,0:0:0:0:
120,175,48077,1,2,0:0:0:0:
223,331,48429,6,0,P|218:277|215:204,1,106.666666666667,2|0,1:2|0:0,0:0:0:0:
261,105,48782,2,0,L|258:69,5,26.6666666666667,2|0|0|0|0|0,3:2|3:0|3:0|3:0|3:0|3:0,0:0:0:0:
285,137,49135,2,0,B|326:131|326:131|350:139|350:139|397:134,1,106.666666666667,2|0,1:2|0:0,0:0:0:0:
470,139,49488,2,0,L|472:165,5,26.6666666666667,2|0|0|0|0|0,3:2|3:0|3:0|3:0|3:0|3:0,0:0:0:0:
466,113,49841,5,2,1:2:0:0:
275,249,50194,2,0,B|258:237|253:220|253:220|259:203|262:177,1,74.6666643880209,2|0,0:0|0:0,0:0:0:0:
320,118,50429,1,2,0:0:0:0:
321,110,50547,1,2,0:0:0:0:
333,353,50782,2,0,B|249:371|273:303|181:323,1,160,2|2,0:0|0:0,0:0:0:0:
92,294,51253,6,0,B|77:266|77:266|86:182,1,106.666666666667,2|0,1:2|0:0,0:0:0:0:
166,140,51606,2,0,B|181:168|181:168|172:252,1,106.666666666667,2|0,1:2|0:0,0:0:0:0:
242,309,51959,2,0,B|262:284|262:284|268:209,1,106.666666666667,10|2,0:0|0:0,0:0:0:0:
203,132,52312,2,0,B|182:156|182:156|175:240,1,106.666666666667,2|0,0:0|0:0,0:0:0:0:
247,317,52665,5,2,1:2:0:0:
230,100,53018,1,2,1:2:0:0:
71,260,53371,1,10,0:0:0:0:
71,260,53724,2,0,P|124:255|177:287,1,106.666666666667,2|0,0:0|0:0,0:0:0:0:
259,301,54077,6,0,P|206:296|159:320,1,106.666666666667,2|0,1:2|0:0,0:0:0:0:
129,217,54430,1,2,1:2:0:0:
404,352,54782,1,10,0:0:0:0:
416,322,54900,1,10,0:0:0:0:
412,290,55018,1,10,0:0:0:0:
391,246,55135,1,10,0:0:0:0:
368,203,55253,1,10,0:0:0:0:
394,162,55371,1,10,0:0:0:0:
416,123,55488,6,0,P|399:67|319:50,1,133.333333333333,2|0,0:2|0:0,0:0:0:0:
344,115,56194,6,2,B|277:147|215:104|215:104|148:50|74:90,1,266.666666666667,2|0,0:1|0:1,0:1:0:0:
55,170,56900,6,0,B|77:212|77:212|70:295,1,127.99999609375,4|2,1:2|0:0,0:0:0:0:
141,348,57253,1,2,0:0:0:0:
309,341,57488,1,2,0:0:0:0:
337,356,57606,2,0,P|326:295|356:231,1,127.99999609375,2|2,1:2|0:0,0:0:0:0:
429,288,57959,2,0,P|440:227|410:163,1,127.99999609375,2|2,0:0|0:0,0:0:0:0:
483,97,58312,6,0,B|445:114|445:114|352:99,1,127.99999609375,2|10,1:2|0:0,0:0:0:0:
418,32,58665,1,2,0:0:0:0:
217,48,58900,1,0,0:0:0:0:
214,64,59018,1,2,1:2:0:0:
245,240,59371,1,0,0:0:0:0:
470,218,59606,1,0,0:0:0:0:
394,183,59724,6,0,B|370:174|347:167|347:167|311:179|271:199,1,127.99999609375,2|2,1:2|0:0,0:0:0:0:
224,261,60077,1,2,0:0:0:0:
157,77,60312,1,2,0:0:0:0:
130,93,60429,2,0,P|70:77|29:128,1,127.99999609375,2|2,1:2|0:0,0:0:0:0:
28,200,60782,1,2,0:0:0:0:
198,231,61018,1,2,0:0:0:0:
215,245,61135,6,0,B|260:237|260:237|295:243|295:243|344:232,1,127.99999609375,2|10,1:2|0:0,0:0:0:0:
392,169,61488,1,2,0:0:0:0:
489,301,61841,1,2,1:2:0:0:
394,155,62194,1,0,0:0:0:0:
337,320,62430,1,2,0:0:0:0:
262,360,62547,6,0,B|214:366|184:331|184:331|159:364|126:348,1,127.99999609375,4|2,1:2|0:0,0:0:0:0:
82,295,62900,2,0,B|61:259|61:259|81:154,1,127.99999609375,2|2,0:0|0:0,0:0:0:0:
104,88,63253,1,2,1:2:0:0:
192,255,63606,1,2,0:0:0:0:
270,73,63841,1,2,0:0:0:0:
193,33,63959,6,0,B|128:29|128:29|72:66|72:66|8:61,2,191.999994140625,2|2|2,1:2|0:0|1:2,0:0:0:0:
363,59,65018,1,2,0:0:0:0:
137,120,65371,6,0,P|140:222|154:313,1,191.999994140625,2|0,1:2|0:0,0:0:0:0:
338,246,66077,2,0,P|335:144|321:53,1,191.999994140625,2|0,1:2|0:0,0:0:0:0:
303,344,66782,5,2,1:2:0:0:
418,234,67018,1,8,0:0:0:0:
459,237,67135,1,2,0:0:0:0:
294,344,67371,2,0,L|240:337,2,31.9999990234375,8|8|2,0:0|0:0|1:2,0:0:0:0:
373,155,67724,1,8,0:0:0:0:
451,145,67841,1,8,0:3:0:0:
138,27,68194,6,0,P|119:88|130:155,1,127.99999609375,4|2,1:2|0:0,0:0:0:0:
38,136,68547,2,0,P|97:132|137:195,1,127.99999609375,2|2,0:0|0:0,0:0:0:0:
87,257,68900,1,2,1:2:0:0:
229,339,69135,1,2,0:0:0:0:
254,321,69253,2,0,L|245:194,1,127.99999609375,2|2,0:0|0:0,0:0:0:0:
181,122,69606,6,0,P|240:98|302:123,1,127.99999609375,2|10,1:2|0:0,0:0:0:0:
372,169,69959,1,2,0:0:0:0:
138,53,70312,1,2,1:2:0:0:
62,288,70665,1,0,0:0:0:0:
309,326,70900,1,2,0:0:0:0:
237,364,71018,6,0,B|217:325|217:325|235:228,1,127.99999609375,4|0,1:2|0:0,0:0:0:0:
310,209,71371,2,0,L|303:140,1,63.9999980468751,2|0,0:0|0:0,0:0:0:0:
333,69,71606,1,2,0:0:0:0:
210,45,71724,6,0,P|175:108|188:176,1,127.99999609375,4|0,1:2|0:0,0:0:0:0:
143,248,72077,2,0,L|79:244,1,63.9999980468751,2|0,0:0|0:0,0:0:0:0:
192,165,72312,1,2,0:0:0:0:
224,304,72430,6,0,P|275:301|358:298,1,127.99999609375,4|0,1:2|0:0,0:0:0:0:
138,262,72782,2,0,P|84:265|-3:270,1,127.99999609375,2|8,0:0|0:0,0:0:0:0:
148,234,73135,2,0,B|154:204|154:204|141:168,1,63.9999980468751,2|0,1:2|0:0,0:0:0:0:
62,95,73371,1,8,0:0:0:0:
38,109,73488,2,0,B|44:157|44:157|34:189|34:189|41:239,1,127.99999609375,2|0,0:0|0:0,0:0:0:0:
56,319,73841,5,4,1:2:0:0:
192,342,74077,1,2,0:0:0:0:
218,338,74194,1,0,0:0:0:0:
428,356,74429,1,2,0:0:0:0:
422,331,74547,1,12,0:0:0:0:
478,151,74782,1,0,0:0:0:0:
461,170,74900,1,2,0:0:0:0:
297,216,75135,1,2,0:0:0:0:
274,204,75253,6,0,B|236:143|252:67|252:67|275:78|292:107,2,191.999994140625,2|2|2,1:2|0:0|1:2,0:0:0:0:
453,77,76312,2,0,P|425:64|385:90,1,63.9999980468751,2|0,0:0|0:0,0:0:0:0:
382,184,76547,1,2,0:0:0:0:
454,262,76665,6,0,B|456:235|480:210|480:210|448:154|457:75,1,191.999994140625,2|0,1:2|0:0,0:0:0:0:
199,66,77371,2,0,B|190:94|171:126|171:126|196:184|203:252,1,191.999994140625,2|8,1:2|0:0,0:0:0:0:
372,359,78077,6,0,B|375:327|392:299|392:299|372:277|366:237,1,127.99999609375,0|8,1:0|0:0,0:0:0:0:
266,243,78429,2,0,B|263:275|246:303|246:303|266:325|271:361,1,127.99999609375,2|8,0:0|0:0,0:0:0:0:
372,359,78782,1,0,1:0:0:0:
144,318,79018,1,8,0:3:0:0:
93,257,79135,2,0,P|86:199|94:115,1,127.99999609375,8|0,0:3|0:0,0:0:0:0:
151,54,79488,5,4,1:2:0:0:
230,166,82312,6,0,B|122:193|135:118|-4:164,2,223.999993164063,2|2|2,1:2|0:3|1:2,0:0:0:0:
393,63,84076,1,2,1:2:0:0:
339,165,84429,1,2,3:2:0:0:
240,92,84782,1,2,3:2:0:0:
105,338,85135,6,0,B|87:305|87:305|101:251,1,74.6666643880209,2|0,1:2|0:0,0:0:0:0:
166,218,85488,1,2,0:0:0:0:
70,110,85723,1,2,0:0:0:0:
68,68,85841,1,2,0:3:0:0:
224,77,86077,1,2,0:0:0:0:
221,117,86194,1,2,0:0:0:0:
57,259,86429,1,2,0:0:0:0:
66,307,86547,6,0,B|164:301,1,74.6666643880209,2|2,1:2|0:0,0:0:0:0:
219,337,86900,2,0,P|225:281|189:216,2,111.999996582031,2|2|2,1:2|3:2|3:2,0:0:0:0:
305,93,87959,6,0,P|333:123|340:161,1,74.6666643880209,2|2,1:2|0:0,0:0:0:0:
290,225,88312,2,0,L|209:221,1,74.6666643880209,2|0,0:0|0:0,0:0:0:0:
142,175,88665,2,0,P|92:171|44:174,1,74.6666643880209,2|2,0:3|0:0,0:0:0:0:
39,97,89018,1,0,0:0:0:0:
108,327,89253,1,2,0:0:0:0:
187,355,89370,6,0,B|194:326|194:326|177:262,1,74.6666643880209,2|0,1:2|0:0,0:0:0:0:
91,257,89724,2,0,B|84:228|84:228|101:164,1,74.6666643880209,2|0,1:2|0:0,0:0:0:0:
187,168,90077,2,0,B|194:139|194:139|177:75,1,74.6666643880209,2|0,3:2|0:0,0:0:0:0:
90,80,90429,2,0,B|83:51|83:51|94:7,1,74.6666643880209,2|0,3:2|0:0,0:0:0:0:
193,109,90782,6,0,B|201:143|201:143|190:219,1,111.999996582031,2|0,1:2|0:2,0:2:0:0:
269,84,91371,1,0,0:0:0:0:
210,34,91488,2,0,B|167:28|167:28|81:55,1,111.999996582031,2|2,0:3|0:0,0:0:0:0:
36,307,92194,2,0,P|74:309|117:304,1,74.6666643880209,2|0,1:2|0:0,0:0:0:0:
185,270,92547,2,0,L|180:193,1,74.6666643880209,2|0,1:2|0:0,0:0:0:0:
151,118,92900,1,2,3:2:0:0:
306,313,93253,1,2,3:2:0:0:
313,320,93606,6,0,B|381:298|401:348|461:329|461:329|483:286|465:246,1,223.999993164063,2|2,1:2|0:3,0:0:0:0:
358,189,94665,1,2,0:0:0:0:
198,344,95018,5,2,1:2:0:0:
263,243,95371,1,2,1:2:0:0:
206,125,95724,1,2,3:2:0:0:
347,268,96076,1,2,3:2:0:0:
117,341,96429,6,0,L|106:229,1,111.999996582031,2|2,1:2|0:0,0:0:0:0:
171,53,97018,1,2,0:0:0:0:
250,84,97135,2,0,B|273:121|273:121|248:200,1,111.999996582031,2|2,0:3|0:0,0:0:0:0:
128,305,97723,1,2,0:0:0:0:
119,264,97841,5,2,1:2:0:0:
225,326,98077,1,0,0:0:0:0:
253,296,98194,1,2,1:2:0:0:
154,136,98547,1,2,3:2:0:0:
124,310,98900,1,2,3:2:0:0:
30,115,99135,1,2,0:0:0:0:
19,145,99253,5,2,1:2:0:0:
149,31,99488,1,2,0:0:0:0:
177,59,99606,2,0,L|261:53,1,74.6666643880209,2|2,0:0|0:0,0:0:0:0:
334,88,99959,2,0,B|347:124|347:124|334:160,1,74.6666643880209,2|2,0:3|0:0,0:0:0:0:
254,198,100312,2,0,B|241:234|241:234|254:270,1,74.6666643880209,2|2,0:0|0:0,0:0:0:0:
310,337,100665,6,0,L|411:326,1,74.6666643880209,2|0,1:2|0:0,0:0:0:0:
437,257,101017,2,0,L|425:175,1,74.6666643880209,2|0,1:2|0:0,0:0:0:0:
316,158,101371,2,0,L|323:73,1,74.6666643880209,2|0,3:2|0:0,0:0:0:0:
441,90,101724,2,0,L|428:4,1,74.6666643880209,2|0,3:2|0:0,0:0:0:0:
317,101,102077,6,0,B|257:91|257:91|208:111,2,111.999996582031,2|2|2,1:2|0:0|0:3,0:0:0:0:
368,232,103135,2,0,P|371:264|359:306,1,74.6666643880209,2|0,0:0|0:0,0:0:0:0:
280,350,103488,6,0,B|229:356|229:356|198:338,1,74.6666643880209,2|0,1:2|0:0,0:0:0:0:
137,294,103841,1,2,1:2:0:0:
149,110,104077,2,0,L|145:87,2,18.6666660970052,8|8|8,0:0|0:0|0:0,0:0:0:0:
264,254,104429,1,8,0:0:0:0:
280,176,104547,1,8,0:3:0:0:
85,329,104900,6,0,P|76:291|74:223,1,106.666666666667,4|0,1:2|0:0,0:0:0:0:
158,257,105253,2,0,P|167:219|169:151,1,106.666666666667,2|0,0:2|0:0,0:0:0:0:
112,90,105606,1,8,0:0:0:0:
299,49,105841,1,2,0:0:0:0:
324,46,105959,1,2,0:0:0:0:
402,235,106194,1,8,0:0:0:0:
356,302,106312,6,0,L|234:291,1,106.666666666667,2|0,1:2|0:0,0:0:0:0:
176,322,106665,1,2,1:2:0:0:
232,149,106900,1,2,0:0:0:0:
236,174,107018,1,8,0:0:0:0:
357,337,107253,1,2,0:0:0:0:
360,313,107370,1,2,0:0:0:0:
68,157,107723,6,0,P|114:129|172:133,1,106.666666666667,2|0,1:2|0:0,0:0:0:0:
251,160,108076,2,0,B|241:129|241:129|248:102|266:58,1,106.666666666667,2|0,0:2|0:0,0:0:0:0:
356,96,108429,1,8,0:0:0:0:
149,131,108665,1,2,0:0:0:0:
127,54,108782,1,2,0:0:0:0:
217,237,109018,1,10,0:0:0:0:
160,293,109135,6,0,L|34:298,1,106.666666666667,2|0,1:2|0:0,0:0:0:0:
103,219,109488,1,2,1:2:0:0:
265,353,109724,1,2,0:0:0:0:
274,319,109841,1,8,0:0:0:0:
323,97,110076,1,2,0:0:0:0:
246,133,110194,2,0,B|235:179|235:179|263:271,1,106.666666666667,2|8,0:0|0:0,0:0:0:0:
359,354,110547,6,0,B|335:347|307:357|307:357|302:321|273:298,1,106.666666666667,2|0,1:2|0:0,0:0:0:0:
258,233,110900,1,2,0:2:0:0:
375,124,111135,1,2,0:0:0:0:
406,129,111253,1,8,0:0:0:0:
474,305,111488,1,2,0:0:0:0:
443,313,111606,1,2,0:0:0:0:
252,224,111841,1,8,0:0:0:0:
279,227,111959,6,0,B|271:190|271:190|274:158|287:106,1,106.666666666667,2|0,1:2|0:0,0:0:0:0:
401,122,112312,2,0,B|409:159|409:159|406:191|393:243,1,106.666666666667,2|0,1:2|0:0,0:0:0:0:
287,110,112665,2,0,B|324:102|324:102|356:105|408:118,1,106.666666666667,10|0,0:0|0:0,0:0:0:0:
392,236,113018,2,0,B|355:244|355:244|323:241|271:228,1,106.666666666667,2|0,0:0|0:0,0:0:0:0:
243,102,113370,5,2,1:2:0:0:
292,246,113723,1,2,0:2:0:0:
455,47,114076,2,0,B|476:94|476:94|452:180,1,106.666666666667,10|0,0:0|0:0,0:0:0:0:
404,218,114429,2,0,L|297:209,1,106.666666666667,2|0,0:0|0:0,0:0:0:0:
231,147,114782,5,2,1:2:0:0:
135,324,115135,1,2,1:2:0:0:
315,359,115488,1,10,0:0:0:0:
131,236,115723,1,8,0:0:0:0:
63,277,115841,2,0,P|53:225|44:162,1,106.666666666667,2|0,0:0|0:0,0:0:0:0:
58,69,116194,6,0,B|95:55|95:55|186:54,1,106.666666666667,4|0,1:2|0:0,0:0:0:0:
234,109,116547,2,0,P|288:125|342:122,1,106.666666666667,2|0,0:0|0:0,0:0:0:0:
409,66,116900,1,8,0:0:0:0:
428,286,117135,1,2,0:0:0:0:
352,323,117253,2,0,P|345:255|343:203,1,106.666666666667,0|10,0:0|0:0,0:0:0:0:
414,61,117606,5,2,1:2:0:0:
243,163,117841,1,8,0:0:0:0:
254,237,117959,1,10,0:0:0:0:
413,152,118194,1,10,0:0:0:0:
421,73,118312,1,8,0:0:0:0:
193,41,118547,1,8,0:0:0:0:
130,89,118665,2,0,B|117:116|112:135|112:135|120:170|137:215,1,106.666666666667,8|8,0:0|0:0,0:0:0:0:
228,268,119017,6,0,L|235:142,1,106.666666666667,2|0,1:2|0:0,0:0:0:0:
239,69,119371,2,0,B|201:58|201:58|115:75,1,106.666666666667,2|0,1:2|0:0,0:0:0:0:
58,119,119724,2,0,L|67:191,1,53.3333333333333,8|0,0:0|0:0,0:0:0:0:
148,232,119959,1,2,0:0:0:0:
108,306,120077,2,0,P|46:315|-7:326,1,106.666666666667,2|2,0:0|0:0,0:0:0:0:
160,237,120429,6,0,P|222:228|275:217,1,106.666666666667,2|8,0:0|0:0,0:0:0:0:
332,163,120782,1,10,0:0:0:0:
372,30,121017,1,10,0:0:0:0:
453,38,121135,1,0,0:0:0:0:
334,170,121371,1,8,0:3:0:0:
252,134,121488,2,0,B|220:125|220:125|129:146,1,106.666666666667,8|2,0:3|0:0,0:0:0:0:
68,219,121841,6,0,P|117:222|154:286,1,106.666666666667,6|2,1:2|0:0,0:0:0:0:
222,207,122194,2,0,B|236:243|236:243|220:325,1,106.666666666667,2|2,1:2|0:0,0:0:0:0:
324,350,122547,6,0,P|356:309|407:304,1,106.666666666667,10|2,0:0|0:0,0:0:0:0:
364,224,122900,2,0,B|400:210|400:210|482:226,1,106.666666666667,2|2,0:0|0:0,0:0:0:0:
403,312,123253,5,2,1:2:0:0:
319,135,123606,1,2,1:2:0:0:
486,245,123959,1,10,0:0:0:0:
247,330,124312,2,0,P|236:283|242:216,1,106.666666666667,2|0,0:0|0:0,0:0:0:0:
362,248,124665,6,0,P|329:257|296:278,1,53.3333333333333,2|0,1:2|0:0,0:0:0:0:
233,350,124900,1,8,0:0:0:0:
209,327,125018,2,0,P|203:301|199:270,1,53.3333333333333,2|8,1:2|0:0,0:0:0:0:
292,210,125253,1,8,0:0:0:0:
314,186,125371,2,0,P|320:160|324:129,1,53.3333333333333,10|0,0:0|0:0,0:0:0:0:
213,131,125606,1,10,0:0:0:0:
187,112,125724,2,0,P|181:99|177:55,1,53.3333333333333,10|10,0:0|0:0,0:0:0:0:
308,28,125959,1,10,0:0:0:0:
342,52,126077,5,2,0:2:0:0:
352,93,126194,1,8,0:0:0:0:
327,127,126312,1,8,0:0:0:0:
299,166,126430,1,8,0:0:0:0:
303,213,126547,1,8,0:0:0:0:
335,248,126665,1,8,0:0:0:0:
391,255,126782,2,0,L|397:185,1,63.9999980468751,8|0,0:3|0:0,0:0:0:0:
469,154,127018,5,8,0:3:0:0:
495,89,127135,1,8,0:3:0:0:
453,31,127253,1,8,0:3:0:0:
382,36,127371,1,8,0:3:0:0:
341,92,127488,6,0,B|300:105|300:105|204:77,1,127.99999609375,4|2,1:2|0:0,0:0:0:0:
122,49,127841,2,0,B|80:54|39:27|39:27|47:62|32:96,1,127.99999609375,2|2,0:0|0:0,0:0:0:0:
25,154,128194,1,2,1:2:0:0:
143,304,128429,1,2,0:0:0:0:
114,323,128547,2,0,B|127:258|108:189,1,127.99999609375,2|2,0:0|0:0,0:0:0:0:
103,124,128900,5,2,1:2:0:0:
350,57,129135,1,0,0:0:0:0:
348,82,129253,1,2,0:0:0:0:
106,153,129606,1,2,1:0:0:0:
260,316,129959,1,0,0:0:0:0:
440,206,130194,1,0,0:0:0:0:
378,148,130312,6,0,P|316:142|273:187,1,127.99999609375,2|2,1:2|0:0,0:0:0:0:
201,243,130665,2,0,B|184:210|184:210|197:110,1,127.99999609375,2|2,0:0|0:0,0:0:0:0:
266,59,131018,1,2,1:2:0:0:
368,244,131253,1,2,0:0:0:0:
365,269,131371,1,2,0:0:0:0:
197,333,131606,1,2,0:0:0:0:
196,307,131723,5,2,1:2:0:0:
372,104,131959,1,10,0:0:0:0:
298,68,132076,1,2,0:0:0:0:
473,236,132429,1,2,1:0:0:0:
433,51,132782,1,0,0:0:0:0:
348,265,133018,1,2,0:0:0:0:
306,336,133135,6,0,B|284:329|262:326|262:326|212:333|151:353,1,127.99999609375,4|2,1:2|0:0,0:0:0:0:
117,298,133488,1,2,0:0:0:0:
285,193,133724,1,2,0:0:0:0:
284,217,133841,1,2,1:2:0:0:
156,73,134194,2,0,B|99:49|59:100|59:100|99:96,1,127.99999609375,2|2,0:0|0:0,0:0:0:0:
151,163,134547,6,0,B|256:171|207:95|345:106,2,191.999994140625,2|2|2,1:2|0:0|1:2,0:0:0:0:
433,57,135606,1,2,0:0:0:0:
358,341,135959,6,0,P|350:257|347:137,1,191.999994140625,2|2,1:2|0:0,0:0:0:0:
156,76,136665,2,0,P|164:160|167:280,1,191.999994140625,2|2,1:2|0:0,0:0:0:0:
251,141,137370,5,2,1:2:0:0:
359,313,137606,1,8,0:0:0:0:
397,305,137723,1,2,0:0:0:0:
192,282,137959,2,0,L|195:328,2,31.9999990234375,8|2|0,0:0|1:2|1:0,0:0:0:0:
385,220,138312,1,8,0:0:0:0:
461,244,138429,1,8,0:3:0:0:
171,34,138782,6,0,B|142:79|143:118|143:118|172:157,1,127.99999609375,4|2,1:2|0:0,0:0:0:0:
251,188,139135,2,0,P|187:191|155:242,1,127.99999609375,2|2,0:0|0:0,0:0:0:0:
98,299,139488,1,2,1:2:0:0:
141,92,139724,1,2,0:0:0:0:
171,115,139841,2,0,P|175:172|181:248,1,127.99999609375,2|2,0:0|0:0,0:0:0:0:
248,336,140194,6,0,B|297:328|297:328|328:346|328:346|395:335,1,127.99999609375,2|10,1:2|0:0,0:0:0:0:
435,283,140547,1,2,0:0:0:0:
273,151,140900,1,2,1:0:0:0:
450,291,141253,2,0,B|478:254|478:254|457:164,1,127.99999609375,0|2,0:0|0:0,0:0:0:0:
388,111,141606,6,0,B|318:118|341:70|265:72,1,127.99999609375,4|0,1:2|0:0,0:0:0:0:
194,149,141959,2,0,B|197:116|197:116|176:76,1,63.9999980468751,2|0,0:0|0:0,0:0:0:0:
117,28,142194,1,2,0:0:0:0:
13,138,142312,6,0,B|32:183|32:183|110:208,1,127.99999609375,4|2,1:2|0:0,0:0:0:0:
241,239,142665,2,0,L|169:256,1,63.9999980468751,2|0,0:0|0:0,0:0:0:0:
106,195,142900,1,10,0:0:0:0:
224,359,143018,6,0,B|265:313|265:313|246:249,1,127.99999609375,4|0,1:2|0:0,0:0:0:0:
104,186,143370,2,0,B|79:222|79:222|97:316,1,127.99999609375,2|8,0:0|0:0,0:0:0:0:
202,367,143723,2,0,L|288:362,1,63.9999980468751,2|0,1:2|0:0,0:0:0:0:
306,262,143959,1,8,0:0:0:0:
288,280,144076,2,0,B|270:241|270:241|279:151,1,127.99999609375,2|2,0:0|0:0,0:0:0:0:
351,97,144429,5,4,1:2:0:0:
440,215,144665,1,2,0:0:0:0:
451,242,144782,2,0,B|474:304|474:304|448:369,1,127.99999609375,0|2,0:0|0:0,0:0:0:0:
303,192,145135,1,12,0:0:0:0:
438,52,145371,1,0,0:0:0:0:
446,74,145488,1,2,0:0:0:0:
455,248,145724,1,10,0:0:0:0:
381,289,145841,6,0,B|352:288|327:309|327:309|280:244|192:266,2,191.999994140625,2|2|2,1:2|0:0|1:2,0:0:0:0:
165,155,146900,2,0,P|129:167|105:206,1,63.9999980468751,2|0,0:0|0:0,0:0:0:0:
161,260,147135,1,2,0:0:0:0:
245,296,147253,6,0,B|263:251|267:217|267:217|243:165,1,127.99999609375,0|0,1:0|0:0,0:0:0:0:
163,144,147606,1,8,0:0:0:0:
367,303,147959,1,0,1:0:0:0:
268,108,148194,1,8,0:3:0:0:
201,80,148312,1,8,0:0:0:0:
85,259,148547,1,8,0:0:0:0:
104,280,148665,6,0,P|132:275|168:272,1,63.9999980468751,0|0,1:0|0:0,0:0:0:0:
269,341,148900,1,8,0:3:0:0:
255,318,149018,2,0,P|250:290|248:252,1,63.9999980468751,10|0,0:0|0:0,0:0:0:0:
343,196,149253,1,8,0:0:0:0:
361,213,149371,2,0,P|366:241|368:279,1,63.9999980468751,0|0,1:0|0:0,0:0:0:0:
263,111,149606,1,8,0:0:0:0:
277,75,149723,2,0,B|286:60|314:54|314:54|356:99|411:70,1,127.99999609375,2|0,1:3|0:0,0:0:0:0:
472,35,150076,5,4,1:2:0:0:
86,63,161371,6,0,B|60:160|117:235|117:235|170:230|199:193,1,266.666666666667,4|0,1:2|0:0,0:0:0:0:
220,125,162077,1,8,0:0:0:0:
430,131,162429,1,0,0:0:0:0:
399,323,162665,1,8,0:0:0:0:
382,305,162782,6,0,P|378:280|378:251,1,53.3333333333333,2|0,1:2|0:0,0:0:0:0:
456,168,163018,1,10,0:0:0:0:
426,143,163135,2,0,B|384:137|384:137|318:155,1,106.666666666667,0|0,1:0|0:0,0:0:0:0:
246,180,163488,1,10,0:0:0:0:
332,57,163841,1,2,0:0:0:0:
273,281,164077,1,8,0:0:0:0:
198,254,164194,6,0,B|154:251|113:288|113:288|106:240|75:168|75:168|95:180|137:182,1,266.666666666667,2|0,1:2|0:0,0:0:0:0:
169,118,164900,1,8,0:0:0:0:
370,340,165253,2,0,B|383:318|383:318|373:265,1,53.3333333333333,2|0,0:3|0:0,0:0:0:0:
289,236,165488,1,2,0:0:0:0:
315,246,165606,6,0,L|303:121,1,106.666666666667,2|0,1:2|0:0,0:0:0:0:
386,87,165959,2,0,L|398:209,1,106.666666666667,2|0,1:2|0:0,0:0:0:0:
483,232,166312,1,10,0:0:0:0:
296,351,166665,2,0,L|157:338,1,106.666666666667,2|8,0:3|0:0,0:0:0:0:
335,260,167018,5,2,1:3:0:0:
388,158,167253,1,2,0:3:0:0:
375,175,167371,1,2,0:3:0:0:
385,39,167606,1,2,0:3:0:0:
370,54,167724,2,0,B|315:45|315:45|268:75|268:75|195:59,1,160,8|2,0:0|0:0,0:0:0:0:
35,208,168430,6,0,L|160:196,1,106.666666666667,2|8,1:2|0:0,0:0:0:0:
215,252,168782,2,0,B|248:248|248:248|279:263|279:263|317:259,1,106.666666666667,2|0,1:2|0:0,0:0:0:0:
404,294,169135,1,10,0:0:0:0:
444,128,169488,1,10,0:0:0:0:
133,272,169841,6,0,P|169:349|243:350,1,160,2|2,1:2|0:0,0:0:0:0:
348,205,170430,1,0,1:0:0:0:
348,205,170547,2,0,P|287:211|224:224,1,106.666666666667,8|0,0:0|0:0,0:0:0:0:
175,277,170900,1,8,0:0:0:0:
348,344,171135,1,0,0:0:0:0:
367,325,171253,6,0,P|428:331|491:344,1,106.666666666667,8|8,0:0|0:3,0:0:0:0:
289,171,171606,2,0,B|307:162|307:162|347:158,1,53.3333333333333,8|8,0:0|0:0,0:0:0:0:
411,206,171841,1,8,0:0:0:0:
409,232,171959,1,8,0:0:0:0:
407,258,172077,1,8,0:0:0:0:
404,284,172194,1,8,0:3:0:0:
348,326,172312,5,8,0:3:0:0:
279,319,172429,1,8,0:3:0:0:
248,256,172547,1,8,0:3:0:0:
183,211,172665,6,0,P|134:237|106:292,1,106.666666666667,4|0,1:2|0:0,0:0:0:0:
151,344,173018,1,0,1:0:0:0:
200,112,173371,2,0,P|142:118|100:138,1,106.666666666667,14|0,0:0|0:0,0:0:0:0:
43,211,173724,1,0,1:0:0:0:
352,64,174077,6,0,B|310:58|310:58|290:40|290:40|237:33,1,106.666666666667,6|0,1:2|0:0,0:0:0:0:
156,28,174430,1,0,1:0:0:0:
416,150,174782,1,12,0:0:0:0:
231,329,175135,2,0,B|273:323|273:323|293:305|293:305|346:298,1,106.666666666667,2|0,1:2|0:0,0:0:0:0:
432,316,175488,6,0,P|457:265|477:202,1,106.666666666667,2|0,1:2|0:0,0:0:0:0:
381,124,175841,2,0,P|377:177|367:230,1,106.666666666667,2|0,1:2|0:0,0:0:0:0:
283,166,176194,2,0,P|279:110|265:45,1,106.666666666667,14|0,0:0|0:0,0:0:0:0:
150,32,176547,2,0,P|173:80|190:131,1,106.666666666667,2|0,1:2|0:0,0:0:0:0:
139,223,176900,6,0,B|96:241|96:241|16:226,1,106.666666666667,12|0,0:0|0:0,0:0:0:0:
94,155,177253,1,2,1:2:0:0:
307,324,177488,1,0,0:0:0:0:
293,339,177606,1,10,0:0:0:0:
261,151,177959,1,2,1:2:0:0:
107,344,178312,6,0,P|87:290|80:228,1,106.666666666667,4|0,1:2|0:0,0:0:0:0:
102,158,178665,1,0,1:0:0:0:
337,231,179018,2,0,P|290:256|230:270,1,106.666666666667,14|0,0:0|0:0,0:0:0:0:
155,249,179371,1,0,1:0:0:0:
203,31,179724,6,0,P|178:78|164:138,1,106.666666666667,6|0,1:2|0:0,0:0:0:0:
212,200,180077,1,0,1:0:0:0:
383,107,180430,2,0,P|329:113|263:131,1,106.666666666667,12|0,0:0|0:0,0:0:0:0:
203,190,180782,2,0,P|208:241|215:312,1,106.666666666667,2|0,1:2|0:0,0:0:0:0:
309,349,181135,6,0,P|370:345|432:331,1,106.666666666667,2|0,1:2|0:0,0:0:0:0:
500,255,181488,2,0,P|447:244|394:242,1,106.666666666667,2|0,1:2|0:0,0:0:0:0:
301,170,181841,2,0,P|353:159|406:157,1,106.666666666667,14|0,0:0|0:0,0:0:0:0:
326,68,182194,1,2,1:2:0:0:
224,327,182429,1,0,0:0:0:0:
206,334,182547,6,0,L|100:318,1,106.666666666667,12|0,0:0|0:0,0:0:0:0:
53,246,182900,1,2,1:2:0:0:
220,129,183253,1,10,0:0:0:0:
230,325,183606,1,2,1:2:0:0:
48,110,183959,6,0,P|47:167|64:225,1,106.666666666667,4|0,1:2|0:0,0:0:0:0:
141,237,184312,1,0,1:0:0:0:
305,65,184665,2,0,P|246:44|186:40,1,106.666666666667,14|0,0:0|0:0,0:0:0:0:
143,101,185018,1,0,1:0:0:0:
354,273,185371,6,0,B|370:237|370:237|366:200|366:200|379:169,1,106.666666666667,6|0,1:2|0:0,0:0:0:0:
411,93,185724,2,0,P|367:58|300:91,1,106.666666666667,0|0,1:0|0:0,0:0:0:0:
233,117,186077,1,12,0:0:0:0:
292,343,186430,1,2,1:2:0:0:
469,149,186782,6,0,P|402:140|318:137,1,127.99999609375,2|0,1:2|0:0,0:0:0:0:
155,250,187135,2,0,P|218:258|282:262,1,127.99999609375,2|0,1:2|0:0,0:0:0:0:
259,45,187488,2,0,P|250:108|246:172,1,127.99999609375,14|0,0:0|0:0,0:0:0:0:
365,355,187841,2,0,P|373:291|377:227,1,127.99999609375,2|0,1:2|0:0,0:0:0:0:
290,149,188194,6,0,B|272:176|272:176|269:199|269:228,1,85.3333333333333,12|0,0:0|0:0,0:0:0:0:
330,288,190194,6,0,L|381:286,2,26.6666666666667,8|8|8,0:0|0:0|0:0,0:0:0:0:
479,175,190547,1,8,0:0:0:0:
462,101,190665,1,8,0:3:0:0:
268,36,191018,6,0,L|162:47,1,106.666666666667,4|0,1:2|0:0,0:0:0:0:
92,88,191371,1,0,1:0:0:0:
282,266,191724,2,0,L|387:254,1,106.666666666667,12|0,0:0|0:0,0:0:0:0:
421,181,192077,1,0,1:0:0:0:
149,322,192430,6,0,P|141:268|134:204,1,106.666666666667,2|0,1:2|0:0,0:0:0:0:
252,362,192782,2,0,P|260:308|267:244,1,106.666666666667,2|0,1:2|0:0,0:0:0:0:
373,316,193135,2,0,P|366:263|359:210,1,106.666666666667,12|0,0:0|0:0,0:0:0:0:
326,130,193488,1,0,1:0:0:0:
85,119,193841,6,0,P|127:151|188:146,1,106.666666666667,4|0,1:2|0:0,0:0:0:0:
262,217,194194,2,0,P|209:216|168:247,1,106.666666666667,8|0,0:0|0:0,0:0:0:0:
135,329,194547,1,2,0:0:0:0:
375,354,194782,1,8,0:3:0:0:
390,329,194900,2,0,B|400:287|400:287|379:207,1,106.666666666667,8|0,0:3|0:0,0:0:0:0:
451,145,195253,6,0,B|457:105|457:105|427:64|427:64|372:68,1,133.333333333333,2|0,0:0|0:0,0:0:0:0:
316,106,195959,6,2,B|231:163|145:73|145:73|152:117|127:176,1,266.666666666667,2|0,0:1|0:1,0:1:0:0:
82,217,196665,6,0,B|54:196|54:196|43:246|71:295,1,127.99999609375,4|2,1:2|0:0,0:0:0:0:
155,334,197018,2,0,B|183:355|183:355|194:305|166:256,1,127.99999609375,2|2,0:0|0:0,0:0:0:0:
90,214,197371,1,2,1:2:0:0:
287,270,197606,1,2,0:0:0:0:
305,255,197724,2,0,B|350:250|350:250|386:267|386:267|445:260,1,127.99999609375,2|2,0:0|0:0,0:0:0:0:
484,200,198077,5,2,1:2:0:0:
393,359,198312,1,10,0:0:0:0:
390,337,198429,1,2,0:0:0:0:
341,137,198783,1,2,1:0:0:0:
240,307,199136,1,0,0:0:0:0:
466,225,199371,1,0,0:0:0:0:
385,199,199489,6,0,B|343:201|297:220|297:220|280:203|257:197,1,127.99999609375,2|2,1:2|0:0,0:0:0:0:
233,118,199842,2,0,P|270:80|342:96,1,127.99999609375,2|2,0:0|0:0,0:0:0:0:
389,184,200194,1,2,1:2:0:0:
222,311,200429,1,2,0:0:0:0:
204,323,200547,2,0,B|191:296|191:296|188:264|193:224|193:224|186:188,1,127.99999609375,2|2,0:0|0:0,0:0:0:0:
301,223,200900,5,2,1:2:0:0:
192,56,201136,1,10,0:0:0:0:
147,63,201253,1,2,0:0:0:0:
438,170,201606,1,2,1:0:0:0:
375,41,201959,1,0,0:0:0:0:
294,261,202195,1,2,0:0:0:0:
355,326,202312,6,0,P|415:322|485:315,1,127.99999609375,4|2,1:2|0:0,0:0:0:0:
405,245,202665,1,2,0:0:0:0:
251,356,202900,1,2,0:0:0:0:
247,334,203018,1,2,1:2:0:0:
338,184,203371,1,2,0:0:0:0:
114,135,203606,1,2,0:0:0:0:
180,184,203724,6,0,B|106:159|55:229,1,127.99999609375,2|10,1:2|0:0,0:0:0:0:
22,292,204077,2,0,L|12:161,1,127.99999609375,2|0,0:0|0:0,0:0:0:0:
73,93,204430,1,2,1:2:0:0:
278,224,204783,1,2,0:0:0:0:
95,59,205136,6,0,B|93:99|88:126|88:126|104:152|114:185|114:185|106:211|106:250,1,191.999994140625,2|0,1:2|0:0,0:0:0:0:
271,313,205841,2,0,B|273:273|278:246|278:246|262:220|252:187|252:187|260:161|260:122,1,191.999994140625,2|10,1:2|0:0,0:0:0:0:
157,299,206547,5,2,1:2:0:0:
378,259,206782,1,8,0:0:0:0:
427,265,206900,1,2,0:0:0:0:
191,175,207135,2,0,L|131:180,2,31.9999990234375,8|8|2,0:0|0:0|1:2,0:0:0:0:
362,118,207488,1,8,0:0:0:0:
444,106,207606,1,8,0:3:0:0:
268,332,207959,6,0,B|245:294|245:294|255:196,1,127.99999609375,4|2,1:2|0:0,0:0:0:0:
322,142,208312,2,0,B|346:99|314:54|314:54|266:77,1,127.99999609375,2|2,0:0|0:0,0:0:0:0:
224,126,208665,1,2,1:2:0:0:
341,227,208900,1,2,0:0:0:0:
356,241,209018,2,0,B|403:238|403:238|431:216|431:216|487:213,1,127.99999609375,2|2,0:0|0:0,0:0:0:0:
306,155,209371,6,0,B|237:151|247:198|170:189,1,127.99999609375,2|10,1:2|0:0,0:0:0:0:
122,125,209724,1,2,0:0:0:0:
320,44,210077,1,2,1:0:0:0:
114,262,210430,1,0,0:0:0:0:
323,302,210665,1,2,0:0:0:0:
263,350,210783,6,0,L|398:336,1,127.99999609375,4|0,1:2|0:0,0:0:0:0:
457,274,211136,2,0,L|468:199,1,63.9999980468751,2|0,0:0|0:0,0:0:0:0:
376,160,211371,1,2,0:1:0:0:
342,37,211489,6,0,B|326:85|326:85|354:170,1,127.99999609375,4|0,1:2|0:0,0:0:0:0:
437,198,211841,2,0,L|430:261,1,63.9999980468751,2|0,0:0|0:0,0:0:0:0:
374,324,212077,1,2,0:1:0:0:
241,367,212195,6,0,L|231:229,1,127.99999609375,4|0,1:2|0:0,0:0:0:0:
330,190,212547,2,0,L|341:322,1,127.99999609375,2|8,0:0|0:0,0:0:0:0:
358,190,212900,2,0,B|364:160|364:160|354:129,1,63.9999980468751,2|0,1:2|0:0,0:0:0:0:
264,149,213136,1,8,0:0:0:0:
240,62,213253,2,0,P|295:49|367:40,1,127.99999609375,2|2,0:0|0:0,0:0:0:0:
337,136,213606,5,4,1:2:0:0:
125,114,213841,1,2,0:0:0:0:
98,113,213959,1,0,0:0:0:0:
46,270,214194,1,2,0:0:0:0:
72,268,214312,1,12,0:0:0:0:
272,176,214547,1,0,0:0:0:0:
272,197,214665,1,2,0:0:0:0:
130,47,214900,1,2,0:0:0:0:
140,70,215018,6,0,B|126:151|126:151|152:205,1,127.99999609375,2|8,1:2|0:0,0:0:0:0:
249,192,215371,2,0,B|287:260|255:317|255:317,1,127.99999609375,2|0,0:0|0:0,0:0:0:0:
178,352,215724,1,2,1:2:0:0:
250,152,216077,2,0,P|260:126|292:79,1,63.9999980468751,2|0,0:0|0:0,0:0:0:0:
210,29,216312,1,2,0:0:0:0:
150,95,216429,6,0,B|87:119|27:84|27:84|40:126|26:167,1,191.999994140625,2|0,1:2|0:0,0:0:0:0:
145,271,217135,2,0,B|185:244|185:244|279:256,1,127.99999609375,4|0,1:2|0:0,0:0:0:0:
366,262,217489,2,0,B|393:312|386:349|386:349|347:373,1,127.99999609375,8|0,0:0|0:0,0:0:0:0:
263,324,217842,6,0,P|258:293|257:256,1,63.9999980468751,4|0,1:2|0:0,0:0:0:0:
307,191,218077,1,8,0:0:0:0:
342,167,218194,1,8,0:0:0:0:
384,162,218312,1,8,0:0:0:0:
423,178,218429,1,8,0:0:0:0:
449,211,218547,1,8,1:3:0:0:
221,157,218782,5,8,0:3:0:0:
200,90,218900,1,8,0:3:0:0:
254,46,219018,1,8,0:3:0:0:
312,85,219135,1,8,0:3:0:0:
293,154,219253,5,4,1:2:0:0:
72,216,224194,6,0,L|136:209,1,47.9999985351563,2|2,0:0|0:0,0:0:0:0:
216,100,224429,1,2,0:0:0:0:
228,120,224547,2,0,L|176:115,1,47.9999985351563,2|2,0:0|0:0,0:0:0:0:
80,47,224782,1,2,0:0:0:0:
57,60,224900,6,0,B|19:103|12:146|12:146|36:186|84:216,1,191.999994140625,4|0,1:2|0:0,0:0:0:0:
291,182,225606,1,2,1:2:0:0:
200,303,225841,1,2,0:0:0:0:
203,324,225959,1,2,0:0:0:0:
175,124,226194,1,2,0:0:0:0:
162,106,226312,6,0,B|111:84|83:49|83:49|73:97|30:149,1,191.999994140625,2|2,1:2|0:0,0:0:0:0:
143,317,227018,1,2,1:2:0:0:
329,244,227371,1,2,0:0:0:0:
150,204,227724,6,0,P|57:229|34:329,1,191.999994140625,2|2,1:2|0:0,0:0:0:0:
293,175,228429,2,0,P|316:84|245:13,1,191.999994140625,2|2,1:2|0:0,0:0:0:0:
196,291,229018,1,8,0:0:0:0:
219,306,229135,6,0,L|293:298,2,63.9999980468751,0|2|10,1:0|0:0|0:0,0:0:0:0:
118,310,229488,2,0,P|97:258|125:193,1,127.99999609375,2|0,0:0|0:0,0:0:0:0:
224,221,229841,1,0,1:0:0:0:
107,112,230077,1,8,0:0:0:0:
32,104,230194,1,8,0:3:0:0:
249,43,230429,1,0,0:0:0:0:
328,33,230547,6,0,B|353:75|355:113|355:113|315:162,1,127.99999609375,4|2,1:2|0:0,0:0:0:0:
242,221,230900,2,0,B|285:207|285:207|375:238,1,127.99999609375,2|2,0:0|0:0,0:0:0:0:
438,284,231253,1,2,1:2:0:0:
429,76,231488,1,2,0:0:0:0:
409,94,231606,2,0,B|390:82|368:81|368:81|350:90|333:106|333:106|318:95|281:99,1,127.99999609375,2|2,0:0|0:0,0:0:0:0:
214,71,231959,5,2,1:2:0:0:
109,224,232194,1,10,0:0:0:0:
32,214,232312,1,2,0:0:0:0:
296,325,232665,1,2,1:0:0:0:
160,126,233018,1,0,0:0:0:0:
93,302,233253,1,2,0:0:0:0:
170,320,233371,6,0,B|195:288|195:288|195:251|176:193,1,127.99999609375,4|0,1:2|0:0,0:0:0:0:
146,120,233724,2,0,L|210:113,1,63.9999980468751,2|0,0:0|0:0,0:0:0:0:
311,134,233959,1,2,0:0:0:0:
281,28,234077,6,0,L|296:161,1,127.99999609375,4|2,1:2|0:0,0:0:0:0:
391,266,234430,2,0,B|405:240|405:240|400:188,1,63.9999980468751,2|0,0:0|0:0,0:0:0:0:
327,221,234665,1,10,0:0:0:0:
289,334,234782,6,0,L|148:345,1,127.99999609375,4|0,1:2|0:0,0:0:0:0:
130,251,235135,2,0,L|271:240,1,127.99999609375,2|8,0:0|0:0,0:0:0:0:
370,180,235488,2,0,B|378:149|378:149|363:114,1,63.9999980468751,2|0,1:2|0:0,0:0:0:0:
302,71,235724,1,8,0:0:0:0:
220,64,235841,2,0,P|172:86|110:151,1,127.99999609375,2|2,0:0|0:0,0:0:0:0:
308,60,236194,5,4,1:2:0:0:
172,204,236429,1,2,0:0:0:0:
198,201,236547,1,0,0:0:0:0:
358,271,236782,1,2,0:0:0:0:
331,269,236900,1,12,0:0:0:0:
170,325,237135,1,0,0:0:0:0:
156,301,237253,2,0,B|141:266|141:266|166:164,1,127.99999609375,2|2,0:0|0:0,0:0:0:0:
272,47,237606,6,0,P|308:99|308:162,1,127.99999609375,2|0,1:2|0:0,0:0:0:0:
394,186,237959,2,0,P|382:254|334:315,1,127.99999609375,2|0,0:0|0:0,0:0:0:0:
255,345,238312,2,0,B|236:347|206:353|206:353|181:330|151:288,1,127.99999609375,2|0,1:2|0:0,0:0:0:0:
141,177,238665,2,0,P|172:177|215:143,1,63.9999980468751,2|0,0:0|0:0,0:0:0:0:
148,63,238900,1,2,0:0:0:0:
48,108,239018,6,0,B|21:173|59:229|59:229|24:255|30:299,2,191.999994140625,0|8|0,1:0|0:0|1:0,0:0:0:0:
344,185,240077,1,8,0:0:0:0:
134,318,240312,1,0,0:0:0:0:
157,321,240429,5,0,1:0:0:0:
220,122,240665,1,8,0:3:0:0:
197,135,240783,2,0,B|184:184|184:184|208:276,1,127.99999609375,2|8,0:0|0:0,0:0:0:0:
283,345,241135,1,0,1:0:0:0:
383,192,241371,1,8,0:0:0:0:
340,256,241488,2,0,L|332:131,1,106.666666666667,2|0,1:3|0:0,0:0:0:0:
326,51,241872,5,2,0:0:0:0:
