osu file format v14

[General]
AudioFilename: audio.mp3
AudioLeadIn: 0
PreviewTime: 49198
Countdown: 0
SampleSet: Soft
StackLeniency: 0.2
Mode: 0
LetterboxInBreaks: 0
WidescreenStoryboard: 1

[Editor]
Bookmarks: 33790,43254,70218,71825,77361,79147,129147,131468,143790,202718,229504
DistanceSpacing: 1
BeatDivisor: 4
GridSize: 4
TimelineZoom: 1

[Metadata]
Title:Boku Dake ni Mieru Hoshi
TitleUnicode:僕だけに見える星
Artist:Asakura Momo
ArtistUnicode:麻倉もも
Creator:Sekai
Version:Insane
Source:
Tags:Alexsander Rizia Kawaiwkyik Kowari -_ex_- Sekaii Sekai-nyan jpop j-pop japanese Pop trysail
BeatmapID:3026008
BeatmapSetID:1474458

[Difficulty]
HPDrainRate:6
CircleSize:4.5
OverallDifficulty:7
ApproachRate:9
SliderMultiplier:1.6
SliderTickRate:1

[Events]
//Background and Video events
0,0,"bg.jpg",0,0
//Break Periods
2,89720,98920
2,144006,146063
2,172398,181777
//Storyboard Layer 0 (Background)
//Storyboard Layer 1 (Fail)
//Storyboard Layer 2 (Pass)
//Storyboard Layer 3 (Foreground)
//Storyboard Layer 4 (Overlay)
//Storyboard Sound Samples

[TimingPoints]
949,357.142857142857,4,2,1,40,1,0
949,-125,4,2,1,40,0,0
12377,-125,4,2,1,50,0,0
29520,-100,4,2,1,60,0,0
35234,-200,4,2,1,60,0,0
38091,-100,4,2,1,60,0,0
49520,-90.9090909090909,4,2,1,60,0,1
78091,-125,4,2,1,60,0,0
83806,-100,4,2,1,60,0,0
100948,-125,4,2,1,50,0,0
112377,-100,4,2,1,60,0,0
132020,-100,4,2,1,60,0,0
132377,-100,4,2,1,60,0,0
143806,-200,4,2,1,60,0,0
148091,-200,4,2,1,40,0,0
149520,-125,4,2,1,50,0,0
155234,-100,4,2,1,60,0,0
191663,-100,4,2,1,40,0,0
192020,-100,4,2,1,60,0,0
192377,-90.9090909090909,4,2,1,60,0,1
203806,-125,4,2,1,60,0,0
209520,-100,4,2,1,60,0,0
215234,-125,4,2,1,60,0,0
223806,-100,4,2,1,60,0,0
226752,-100,4,2,1,20,0,0

[Colours]
Combo1 : 192,192,192
Combo2 : 45,150,255
SliderBorder : 0,125,251
SliderTrackOverride : 192,192,192

[HitObjects]
189,126,949,6,0,L|114:125,1,64,2|0,0:0|0:0,0:0:0:0:
146,217,1306,2,0,L|209:217,1,64,0|2,0:0|0:0,0:0:0:0:
285,308,1663,2,0,L|156:306,1,128
340,208,2377,6,0,P|368:195|396:208,1,64,2|0,0:0|0:0,0:0:0:0:
256,224,2734,2,0,P|243:196|256:168,1,64,0|2,0:0|0:0,0:0:0:0:
285,308,3091,2,0,L|156:306,1,128
48,192,3806,6,0,L|40:112,1,64,2|0,0:0|0:0,0:0:0:0:
160,60,4163,2,0,P|131:46|103:59,1,64,0|2,2:0|2:0,2:0:0:0:
188,152,4520,2,0,B|236:160|272:128|272:128|320:104|372:124,1,192
464,192,5234,6,0,L|472:272,1,64,2|0,0:0|0:0,0:0:0:0:
352,324,5591,2,0,P|380:337|408:324,1,64,0|2,0:0|0:0,0:0:0:0:
148,328,6306,5,0,0:0:0:0:
108,240,6484,1,0,0:0:0:0:
236,220,6663,6,0,L|172:264,1,64,2|0,0:0|0:0,0:0:0:0:
160,152,7020,2,0,L|212:115,1,64,0|2,0:0|0:0,0:0:0:0:
308,156,7377,2,0,B|372:132|372:176|432:156,1,128
432,132,8091,6,0,B|368:156|368:112|308:132,1,128,2|0,0:0|0:0,0:0:0:0:
208,108,8627,1,2,0:0:0:0:
148,192,8806,2,0,P|144:228|152:256,1,64
256,344,9163,1,0,0:0:0:0:
256,344,9520,6,0,B|308:364|352:316|352:316|392:292|448:304,1,192,2|2,0:0|0:0,0:0:0:0:
284,268,10234,2,0,L|314:78,1,192
116,252,10948,5,2,0:0:0:0:
59,195,11127,1,0,0:0:0:0:
116,138,11306,1,0,0:0:0:0:
172,195,11484,1,2,0:0:0:0:
59,309,11663,1,0,0:0:0:0:
116,252,11841,1,2,0:0:0:0:
172,309,12020,1,4,0:0:0:0:
172,309,12377,6,0,L|240:316,1,64,4|0,1:2|0:0,0:0:0:0:
344,220,12734,2,0,L|276:227,1,64,2|0,1:0|0:0,0:0:0:0:
360,320,13091,2,0,L|428:327,1,64,0|0,1:0|0:0,0:0:0:0:
492,212,13448,2,0,L|424:219,1,64,2|0,1:0|0:0,0:0:0:0:
256,156,13806,5,0,1:0:0:0:
216,32,13984,1,0,0:0:0:0:
320,108,14163,1,2,1:0:0:0:
191,108,14341,1,0,0:0:0:0:
296,32,14520,2,0,L|364:36,1,64,0|0,1:0|0:0,0:0:0:0:
191,108,14877,2,0,L|127:104,1,64,2|0,1:0|0:0,0:0:0:0:
256,156,15234,6,0,L|256:224,1,64,0|0,1:0|0:0,0:0:0:0:
256,312,15591,1,2,1:0:0:0:
332,248,15770,1,0,0:0:0:0:
256,312,15948,2,0,P|192:328|144:296,1,128,0|2,1:0|1:0,0:0:0:0:
120,192,16484,1,0,0:0:0:0:
256,164,16663,6,0,L|200:228,1,64,0|0,1:0|0:0,0:0:0:0:
320,216,17020,1,0,1:0:0:0:
256,164,17198,1,2,0:0:0:0:
320,100,17377,1,0,1:0:0:0:
192,112,17556,1,2,0:0:0:0:
277,264,17734,2,0,L|319:215,1,64,8|0,1:2|0:0,0:0:0:0:
192,112,18091,6,0,P|156:104|124:112,1,64,2|0,1:0|0:0,0:0:0:0:
256,64,18448,2,0,P|228:40|192:32,1,64,0|0,1:0|0:0,0:0:0:0:
312,124,18806,2,0,P|340:100|352:56,1,64,2|0,1:0|0:0,0:0:0:0:
256,188,19163,2,0,P|284:208|332:220,1,64,0|0,1:0|0:0,0:0:0:0:
168,272,19520,6,0,P|112:260|44:288,2,128,2|0|2,1:0|1:0|1:0,0:0:0:0:
116,352,20413,1,2,0:0:0:0:
168,272,20591,1,0,1:0:0:0:
224,192,20770,1,2,0:0:0:0:
328,272,20948,6,0,P|288:272|256:256,1,64,2|0,1:0|0:0,0:0:0:0:
215,130,21306,2,0,P|225:160|223:191,1,64,0|0,1:0|0:0,0:0:0:0:
106,280,21663,2,0,P|136:269|167:271,1,64,2|0,1:0|0:0,0:0:0:0:
32,224,22020,1,0,1:0:0:0:
16,320,22198,1,0,0:0:0:0:
170,354,22377,5,2,1:0:0:0:
156,198,22556,1,0,0:0:0:0:
257,315,22734,1,0,1:0:0:0:
106,280,22913,1,2,0:0:0:0:
250,220,23091,1,8,0:0:0:0:
280,209,23181,1,4,0:3:0:0:
310,198,23270,1,4,0:3:0:0:
340,188,23359,1,4,0:3:0:0:
370,177,23448,1,8,0:0:0:0:
356,280,23627,1,0,0:0:0:0:
376,76,23806,6,0,L|255:118,1,128,4|2,0:0|0:0,0:0:0:0:
140,160,24341,1,8,0:0:0:0:
200,76,24520,2,0,P|240:128|236:188,1,128,0|2,1:0|1:0,0:0:0:0:
164,324,25234,2,0,L|24:304,1,128,8|2,0:0|1:0,0:0:0:0:
132,224,25770,1,8,0:0:0:0:
232,260,25948,2,0,P|271:308|268:371,2,128,0|10|8,1:0|0:0|0:0,0:0:0:0:
90,172,26841,5,0,0:0:0:0:
33,100,27020,1,0,1:0:0:0:
148,49,27198,2,0,L|128:110,2,64,0|10|0,1:0|0:0|1:0,0:0:0:0:
256,124,27734,1,0,1:0:0:0:
256,124,28091,6,0,B|316:108|316:148|384:128,1,128,8|0,0:0|1:0,0:0:0:0:
484,80,28627,1,10,0:0:0:0:
480,192,28806,1,8,0:0:0:0:
469,222,28895,1,8,0:0:0:0:
458,252,28984,1,8,0:0:0:0:
447,282,29073,1,8,0:0:0:0:
437,312,29163,1,8,0:0:0:0:
292,280,29341,1,8,0:0:0:0:
292,280,29431,1,8,0:0:0:0:
292,280,29520,6,0,B|256:263|256:263|220:280,1,80,4|0,0:0|0:0,0:0:0:0:
308,152,29877,1,8,0:0:0:0:
204,152,30056,1,0,0:0:0:0:
308,152,30234,2,0,L|368:228,1,80,2|0,1:0|1:0,0:0:0:0:
154,214,30591,2,0,L|204:152,1,80,8|0,0:0|0:0,0:0:0:0:
90,341,30948,5,2,1:0:0:0:
154,214,31127,1,0,1:0:0:0:
59,245,31306,1,8,0:0:0:0:
185,310,31484,1,0,0:0:0:0:
59,245,31663,2,0,P|24:264|0:308,1,80,2|0,1:0|1:0,0:0:0:0:
185,310,32020,2,0,P|220:291|244:247,1,80,8|0,0:0|0:0,0:0:0:0:
464,192,32377,6,0,B|388:220|388:164|308:192,1,160,4|8,0:0|0:0,0:0:0:0:
424,112,32913,1,0,0:0:0:0:
504,276,33091,1,2,1:0:0:0:
464,192,33270,1,0,1:0:0:0:
504,276,33448,2,0,L|424:308,1,80,8|0,0:0|0:0,0:0:0:0:
424,112,33806,6,0,B|372:112|356:79|356:79|340:112|288:112,1,160,4|8,0:0|0:0,0:0:0:0:
134,161,34341,1,0,0:0:0:0:
288,111,34520,1,2,1:0:0:0:
193,241,34698,1,0,1:0:0:0:
193,80,34877,1,8,0:0:0:0:
288,211,35056,1,0,0:0:0:0:
288,211,35234,6,0,L|292:264,1,40,4|0,0:0|0:0,0:0:0:0:
196,280,35591,2,0,L|192:240,1,40,2|0,0:0|0:0,0:0:0:0:
136,352,35948,1,0,0:0:0:0:
196,280,36127,1,0,0:0:0:0:
240,360,36306,1,2,0:0:0:0:
112,268,36484,1,4,0:3:0:0:
288,211,36663,6,0,L|292:264,1,40,4|0,0:3|0:0,0:0:0:0:
196,280,37020,2,0,L|192:240,1,40,2|0,0:0|0:0,0:0:0:0:
292,328,37377,1,0,0:0:0:0:
412,240,37556,1,0,0:0:0:0:
288,211,37734,1,10,0:0:0:0:
384,336,37913,1,0,0:0:0:0:
288,211,38091,6,0,P|304:172|344:140,1,80,4|0,0:0|0:0,0:0:0:0:
292,328,38448,2,0,P|248:324|196:288,1,80,8|0,0:0|0:0,0:0:0:0:
140,192,38806,1,2,1:0:0:0:
216,307,38984,1,0,1:0:0:0:
32,320,39163,2,0,P|72:312|108:276,1,80,8|0,0:0|0:0,0:0:0:0:
117,115,39520,6,0,L|141:195,1,80,2|0,1:0|1:0,0:0:0:0:
212,96,39877,2,0,L|188:16,1,80,8|0,0:0|0:0,0:0:0:0:
395,115,40234,2,0,L|371:195,1,80,2|0,1:0|1:0,0:0:0:0:
300,96,40591,2,0,L|324:16,1,80,8|0,0:0|0:0,0:0:0:0:
256,184,40948,6,0,B|284:264|228:264|256:340,1,160,4|8,0:0|0:0,0:0:0:0:
172,188,41484,1,0,0:0:0:0:
340,336,41663,2,0,B|323:300|323:300|340:264,1,80,2|0,1:0|1:0,0:0:0:0:
172,188,42020,2,0,B|189:224|189:224|172:260,1,80,8|0,0:0|0:0,0:0:0:0:
108,64,42377,5,2,1:0:0:0:
192,16,42556,1,0,0:0:0:0:
192,112,42734,1,8,0:0:0:0:
108,64,42913,1,0,0:0:0:0:
192,112,43091,1,2,1:0:0:0:
272,168,43270,1,8,0:0:0:0:
272,168,43359,1,8,0:0:0:0:
272,168,43448,1,8,0:0:0:0:
284,72,43627,1,2,0:0:0:0:
284,72,43716,1,2,0:0:0:0:
284,72,43806,6,0,L|360:96,1,80,4|0,0:0|0:0,0:0:0:0:
456,228,44163,2,0,B|473:192|473:192|456:156,1,80,8|0,0:0|0:0,0:0:0:0:
360,288,44520,2,0,L|284:312,1,80,2|0,1:0|0:0,0:0:0:0:
148,348,44877,1,8,0:0:0:0:
283,312,45056,1,0,0:0:0:0:
144,192,45234,6,0,P|132:232|148:276,1,80,2|0,1:0|0:0,0:0:0:0:
256,80,45591,2,0,P|216:68|172:84,1,80,8|0,0:0|0:0,0:0:0:0:
368,192,45948,2,0,P|380:152|364:108,1,80,2|0,1:0|0:0,0:0:0:0:
256,304,46306,2,0,P|296:316|340:300,1,80,8|0,0:0|0:0,0:0:0:0:
411,102,46663,5,4,0:0:0:0:
256,171,46841,1,0,0:0:0:0:
337,34,47020,1,10,1:2:0:0:
368,192,47198,1,0,0:0:0:0:
256,80,47377,5,8,0:0:0:0:
214,56,47466,1,8,0:0:0:0:
167,65,47556,1,8,0:0:0:0:
136,102,47645,1,8,0:0:0:0:
136,150,47734,1,8,0:0:0:0:
167,186,47823,1,8,0:0:0:0:
214,195,47913,1,8,0:0:0:0:
256,171,48002,1,8,0:0:0:0:
272,126,48091,5,8,0:0:0:0:
176,272,48270,1,8,0:0:0:0:
176,272,48806,5,8,0:0:0:0:
136,102,48984,1,8,0:0:0:0:
348,32,49341,1,2,0:0:0:0:
348,32,49431,1,2,0:0:0:0:
348,32,49520,6,0,P|332:72|347:112,1,88.000002685547,4|0,0:0|1:0,0:0:0:0:
499,192,49877,2,0,P|514:151|499:111,1,88.000002685547,8|0,0:0|0:0,0:0:0:0:
384,224,50234,2,0,L|224:300,1,176.000005371094,2|8,1:0|0:0,0:0:0:0:
104,352,50770,1,0,0:0:0:0:
44,192,50948,6,0,B|128:160|128:224|216:192,1,176.000005371094,2|8,1:0|0:0,0:0:0:0:
344,152,51484,2,0,B|362:192|362:192|344:232,1,88.000002685547,2|0,0:0|1:0,0:0:0:0:
456,232,51841,2,0,B|474:192|474:192|456:152,1,88.000002685547,0|8,1:0|0:0,0:0:0:0:
368,40,52198,1,2,0:0:0:0:
368,40,52288,1,2,0:0:0:0:
368,40,52377,5,4,0:0:0:0:
344,152,52556,1,0,1:0:0:0:
255,87,52734,1,8,0:0:0:0:
310,257,52913,1,0,0:0:0:0:
167,152,53091,1,2,1:0:0:0:
344,152,53270,1,0,1:0:0:0:
200,257,53448,2,0,L|100:280,1,88.000002685547,8|0,0:0|0:0,0:0:0:0:
344,152,53806,5,2,1:0:0:0:
310,257,53984,2,0,L|333:357,1,88.000002685547,2|8,1:2|0:0,0:0:0:0:
420,192,54341,1,0,0:0:0:0:
272,112,54520,1,2,1:2:0:0:
404,56,54698,1,0,1:0:0:0:
420,192,54877,1,12,0:0:0:0:
192,120,55056,1,2,0:0:0:0:
192,120,55145,1,2,0:0:0:0:
192,120,55234,6,0,P|200:76|240:40,1,88.000002685547,4|0,1:2|1:0,0:0:0:0:
76,176,55591,2,0,P|68:220|28:256,1,88.000002685547,8|0,0:0|0:0,0:0:0:0:
204,368,55948,1,2,1:0:0:0:
157,268,56127,1,0,1:0:0:0:
257,221,56306,1,8,0:0:0:0:
303,321,56484,1,0,0:0:0:0:
176,192,56663,5,2,1:0:0:0:
312,136,56841,1,0,1:0:0:0:
312,136,56931,1,0,0:0:0:0:
312,136,57020,1,8,0:0:0:0:
184,20,57198,2,0,L|216:101,1,88.000002685547,2|0,0:0|1:0,0:0:0:0:
384,228,57556,2,0,L|416:146,1,88.000002685547,0|8,1:0|0:0,0:0:0:0:
432,300,57913,1,2,0:0:0:0:
432,300,58002,1,2,0:0:0:0:
432,300,58091,6,0,B|344:332|344:268|260:300,1,176.000005371094,4|8,1:2|0:0,0:0:0:0:
132,336,58627,1,0,0:0:0:0:
260,299,58806,2,0,P|275:258|260:218,1,88.000002685547,2|0,1:0|1:0,0:0:0:0:
128,112,59163,2,0,P|112:152|127:192,1,88.000002685547,8|0,0:0|0:0,0:0:0:0:
256,88,59520,5,2,1:0:0:0:
364,40,59698,1,2,1:2:0:0:
256,88,59877,2,0,L|184:20,1,88.000002685547,8|2,0:0|1:2,0:0:0:0:
428,104,60234,1,8,0:0:0:0:
319,148,60413,1,0,0:0:0:0:
319,148,60502,1,0,0:0:0:0:
319,148,60591,2,0,L|247:80,1,88.000002685547,8|0,0:0|0:0,0:0:0:0:
332,288,60948,6,0,B|288:288|256:249|256:249|224:288|180:288,1,176.000005371094,4|8,0:0|0:0,0:0:0:0:
216,152,61484,2,0,B|256:134|256:134|296:152,1,88.000002685547,2|0,0:0|1:0,0:0:0:0:
192,44,61841,1,0,1:0:0:0:
320,44,62020,1,8,0:0:0:0:
216,152,62198,2,0,L|138:109,1,88.000002685547,0|2,0:0|1:0,0:0:0:0:
160,216,62556,5,0,1:0:0:0:
192,44,62734,1,8,0:0:0:0:
160,216,62913,1,0,0:0:0:0:
160,216,63002,1,0,0:0:0:0:
160,216,63091,2,0,L|237:258,1,88.000002685547,0|0,1:0|1:0,0:0:0:0:
384,192,63448,2,0,L|306:149,1,88.000002685547,8|0,0:0|0:0,0:0:0:0:
444,84,63806,5,2,1:0:0:0:
384,192,63984,1,0,0:0:0:0:
504,192,64163,1,8,0:0:0:0:
392,4,64341,1,0,0:0:0:0:
504,20,64520,2,0,L|436:92,1,88.000002685547,2|0,1:0|1:0,0:0:0:0:
443,255,64877,2,0,L|511:183,1,88.000002685547,8|0,0:0|0:0,0:0:0:0:
296,316,65234,6,0,P|256:331|216:316,1,88.000002685547,4|0,0:0|1:0,0:0:0:0:
132,232,65591,2,0,P|117:192|132:152,1,88.000002685547,12|0,0:0|0:0,0:0:0:0:
156,128,65859,1,0,0:0:0:0:
156,128,65948,1,8,0:0:0:0:
256,40,66127,1,8,0:0:0:0:
256,40,66216,1,8,0:0:0:0:
256,40,66306,1,8,0:0:0:0:
356,128,66484,1,8,0:0:0:0:
356,128,66573,1,8,0:0:0:0:
356,128,66663,6,0,B|408:128|408:128|440:88,1,88.000002685547,4|0,0:0|1:0,0:0:0:0:
430,284,67020,2,0,B|408:256|408:256|356:256,1,88.000002685547,8|0,0:0|0:0,0:0:0:0:
220,192,67377,1,2,1:0:0:0:
356,256,67556,1,0,1:0:0:0:
228,328,67734,2,0,L|136:308,1,88.000002685547,8|0,0:0|0:0,0:0:0:0:
220,192,68091,6,0,P|182:116|219:40,1,176.000005371094,4|8,1:2|0:0,0:0:0:0:
376,68,68627,2,0,L|280:116,1,88.000002685547,2|0,0:0|1:0,0:0:0:0:
408,192,68984,2,0,L|504:144,1,88.000002685547,0|8,1:0|0:0,0:0:0:0:
372,304,69341,1,2,0:0:0:0:
372,304,69431,1,2,0:0:0:0:
372,304,69520,5,4,1:2:0:0:
256,240,69698,1,0,1:0:0:0:
132,192,69877,2,0,P|128:236|152:280,1,88.000002685547,8|0,0:0|0:0,0:0:0:0:
372,304,70234,2,0,P|376:260|352:216,1,88.000002685547,2|0,1:0|1:0,0:0:0:0:
256,108,70591,1,8,0:0:0:0:
256,240,70770,1,0,0:0:0:0:
352,56,70948,5,2,1:0:0:0:
160,160,71127,1,0,1:0:0:0:
256,108,71306,2,0,L|196:24,1,88.000002685547,10|0,0:0|0:0,0:0:0:0:
160,160,71663,1,2,1:2:0:0:
352,56,71841,1,0,1:0:0:0:
352,56,71931,1,0,0:0:0:0:
352,56,72020,2,0,L|403:127,1,88.000002685547,14|0,0:0|0:0,0:0:0:0:
372,272,72377,5,4,0:0:0:0:
256,192,72556,1,0,0:0:0:0:
372,272,72734,2,0,B|324:272|324:272|296:304,1,88.000002685547,8|0,0:0|0:0,0:0:0:0:
140,272,73091,2,0,B|188:272|188:272|216:304,1,88.000002685547,2|0,1:0|1:0,0:0:0:0:
316,132,73448,1,8,0:0:0:0:
196,132,73627,1,0,0:0:0:0:
424,136,73806,5,2,1:0:0:0:
316,36,73984,1,0,1:0:0:0:
316,36,74073,1,0,0:0:0:0:
316,36,74163,1,8,0:0:0:0:
323,219,74341,2,0,L|315:131,1,88.000002685547,2|0,0:0|1:0,0:0:0:0:
424,136,74698,1,0,1:0:0:0:
323,219,74877,1,8,0:0:0:0:
228,304,75056,1,2,0:0:0:0:
132,152,75234,6,0,B|114:192|114:192|132:232,1,88.000002685547,4|0,0:0|1:0,0:0:0:0:
296,68,75591,2,0,B|256:50|256:50|216:68,1,88.000002685547,10|0,0:0|0:0,0:0:0:0:
380,232,75948,2,0,B|398:192|398:192|380:152,1,88.000002685547,0|0,1:0|1:0,0:0:0:0:
216,316,76306,2,0,B|256:334|256:334|296:316,1,88.000002685547,10|0,0:0|0:0,0:0:0:0:
212,108,76663,5,0,1:0:0:0:
256,256,76841,1,2,0:0:0:0:
300,108,77020,1,8,0:0:0:0:
184,192,77198,1,2,0:0:0:0:
328,192,77377,1,8,0:0:0:0:
176,324,77556,1,2,0:0:0:0:
256,256,77734,1,12,0:0:0:0:
256,256,78091,6,0,L|388:276,1,128,4|0,0:0|0:0,0:0:0:0:
288,332,78627,1,0,1:0:0:0:
408,208,78806,2,0,L|328:196,1,64,10|0,0:0|0:0,0:0:0:0:
288,332,79163,2,0,L|368:344,1,64,0|0,0:0|1:0,0:0:0:0:
252,188,79520,5,2,0:0:0:0:
227,107,79698,2,0,P|255:94|284:108,1,64,8|0,0:0|0:0,0:0:0:0:
252,188,80056,1,0,1:0:0:0:
196,40,80234,2,0,P|256:20|328:52,2,128,10|0|6,0:0|0:0|0:0,0:0:0:0:
52,72,81127,5,0,0:0:0:0:
52,72,81306,2,0,L|108:120,1,64,0|0,0:0|1:0,0:0:0:0:
200,180,81663,2,0,L|144:228,1,64,10|0,0:0|0:0,0:0:0:0:
112,332,82020,2,0,L|56:284,1,64,0|0,0:0|1:0,0:0:0:0:
208,296,82377,5,2,0:0:0:0:
151,221,82556,2,0,L|200:180,2,64,8|0|0,0:0|0:0|1:0,0:0:0:0:
112,332,83091,2,0,L|56:284,1,64,10|0,0:0|1:0,0:0:0:0:
208,296,83448,2,0,L|256:254,1,64,8|0,0:0|0:0,0:0:0:0:
348,344,83806,5,4,0:0:0:0:
400,268,83984,1,0,0:0:0:0:
448,200,84163,1,10,0:0:0:0:
348,344,84341,2,0,B|384:361|384:361|420:344,1,80,0|8,0:0|0:0,0:0:0:0:
448,200,84698,2,0,B|412:183|412:183|376:200,2,80,0|10|0,0:0|0:0|0:0,0:0:0:0:
256,124,85234,5,8,0:0:0:0:
256,268,85413,1,8,0:0:0:0:
136,96,85591,5,10,0:0:0:0:
136,240,85770,1,8,0:0:0:0:
256,124,85948,6,0,L|296:120,1,40,8|8,0:0|0:0,0:0:0:0:
256,36,86127,2,0,L|216:32,1,40,8|8,0:0|0:0,0:0:0:0:
136,96,86306,2,0,L|176:100,1,40,10|8,0:0|0:0,0:0:0:0:
96,24,86484,2,0,L|56:20,1,40,8|8,0:0|0:0,0:0:0:0:
48,132,86663,5,4,0:0:0:0:
136,96,86841,1,2,0:0:0:0:
128,184,87020,1,0,1:0:0:0:
32,64,87198,5,8,0:0:0:0:
128,184,87377,1,2,0:0:0:0:
208,52,87556,1,0,1:0:0:0:
256,172,87734,1,10,0:0:0:0:
295,168,87823,1,10,0:0:0:0:
335,164,87913,1,10,0:0:0:0:
375,160,88002,1,10,0:0:0:0:
415,156,88091,1,12,0:0:0:0:
415,156,88984,6,0,L|412:200,2,40,8|4|4,0:3|0:3|0:3,0:0:0:0:
256,16,89520,1,4,0:0:0:0:
80,192,99520,5,4,0:0:0:0:
136,96,99698,1,0,0:0:0:0:
184,192,99877,1,2,1:2:0:0:
60,112,100056,5,2,1:2:0:0:
60,112,100145,1,0,1:2:0:0:
60,112,100234,1,0,1:2:0:0:
204,52,100413,1,0,0:0:0:0:
184,192,100591,1,8,0:0:0:0:
184,192,100948,6,0,B|248:168|248:212|308:192,1,128,0|2,1:0|0:0,0:0:0:0:
408,140,101484,1,0,1:0:0:0:
408,140,101663,2,0,P|440:192|408:244,1,128,8|2,0:0|0:0,0:0:0:0:
308,191,102198,1,0,1:0:0:0:
344,56,102377,6,0,P|320:88|320:120,1,64,0|0,1:0|1:0,0:0:0:0:
253,165,102734,2,0,P|276:186|308:191,1,64,2|0,1:0|0:0,0:0:0:0:
256,284,103091,2,0,P|320:284|380:232,1,128,8|2,0:0|0:0,0:0:0:0:
180,340,103627,1,0,1:2:0:0:
180,340,103716,1,0,0:0:0:0:
180,340,103806,6,0,L|120:304,1,64,2|0,1:0|1:0,0:0:0:0:
92,192,104163,2,0,L|37:224,1,64,0|0,0:0|1:0,0:0:0:0:
64,116,104520,2,0,B|128:92|128:136|188:116,1,128,10|0,0:0|0:0,0:0:0:0:
256,44,105056,1,0,0:0:0:0:
384,108,105234,6,0,L|329:140,1,64,2|0,1:0|1:0,0:0:0:0:
256,44,105591,1,0,1:0:0:0:
384,108,105770,1,0,1:0:0:0:
256,196,105948,1,8,0:0:0:0:
256,196,106663,6,0,L|184:160,1,64,2|0,1:0|0:0,0:0:0:0:
163,329,107020,2,0,L|192:272,1,64,0|0,0:0|1:0,0:0:0:0:
116,168,107377,2,0,L|52:296,1,128,10|0,0:0|0:0,0:0:0:0:
12,180,107913,1,0,1:0:0:0:
88,72,108091,5,2,0:0:0:0:
116,168,108270,1,0,1:0:0:0:
220,88,108448,2,0,P|180:92|148:116,1,64,0|0,1:0|0:0,0:0:0:0:
256,172,108806,2,0,P|320:156|356:104,1,128,10|0,0:0|0:0,0:0:0:0:
440,240,109520,6,0,L|416:304,1,64,2|0,1:0|0:0,0:0:0:0:
316,312,109877,2,0,L|338:252,1,64,0|0,0:0|1:0,0:0:0:0:
232,256,110234,2,0,L|186:378,1,128,10|0,0:0|0:0,0:0:0:0:
116,272,110770,1,8,0:0:0:0:
156,128,110948,6,0,P|124:128|80:152,1,64,4|2,0:0|0:0,0:0:0:0:
94,139,111216,1,2,0:0:0:0:
94,139,111306,1,2,0:0:0:0:
180,40,111484,1,0,1:0:0:0:
256,104,111663,1,4,0:3:0:0:
284,90,111752,1,4,0:3:0:0:
316,88,111841,1,4,0:3:0:0:
347,97,111931,1,4,0:3:0:0:
372,116,112020,2,0,P|392:80|392:56,1,64,12|0,0:0|0:0,0:0:0:0:
480,192,112377,5,4,0:0:0:0:
392,256,112556,2,0,B|356:273|356:273|320:256,1,80,0|8,0:0|0:0,0:0:0:0:
256,168,112913,1,0,0:0:0:0:
192,256,113091,2,0,B|156:273|156:273|120:256,1,80,2|0,1:0|0:0,0:0:0:0:
120,128,113448,2,0,B|156:111|156:111|192:128,1,80,8|0,0:0|0:0,0:0:0:0:
192,256,113806,5,2,1:0:0:0:
351,199,113984,1,0,0:0:0:0:
256,329,114163,1,8,0:0:0:0:
256,168,114341,1,0,0:0:0:0:
351,299,114520,2,0,L|344:380,1,80,2|0,1:0|0:0,0:0:0:0:
351,199,114877,2,0,L|432:224,1,80,8|0,0:0|0:0,0:0:0:0:
256,168,115234,6,0,B|180:196|180:140|100:168,1,160,2|8,1:0|0:0,0:0:0:0:
220,100,115770,1,0,0:0:0:0:
140,240,115948,1,2,1:0:0:0:
256,168,116127,1,0,0:0:0:0:
184,36,116306,1,8,0:0:0:0:
292,65,116484,1,0,0:0:0:0:
292,65,116573,1,0,0:0:0:0:
292,65,116663,6,0,L|208:105,1,80,2|0,1:0|0:0,0:0:0:0:
336,156,117020,1,10,0:0:0:0:
382,245,117198,1,0,0:0:0:0:
471,200,117377,1,2,1:2:0:0:
425,110,117556,1,2,0:0:0:0:
312,152,117734,1,8,0:0:0:0:
374,264,117913,1,0,0:0:0:0:
374,264,118002,1,0,0:0:0:0:
374,264,118091,6,0,L|294:244,1,80,2|0,1:0|0:0,0:0:0:0:
248,360,118448,2,0,L|325:340,1,80,8|0,0:0|0:0,0:0:0:0:
168,256,118806,1,2,1:0:0:0:
248,360,118984,1,0,0:0:0:0:
108,360,119163,1,8,0:0:0:0:
168,256,119341,1,0,0:0:0:0:
48,260,119520,6,0,P|24:288|16:336,1,80,2|0,1:0|0:0,0:0:0:0:
168,256,119877,2,0,P|156:212|120:180,1,80,8|0,0:0|0:0,0:0:0:0:
108,360,120234,2,0,P|152:356|184:332,1,80,2|0,1:2|0:0,0:0:0:0:
256,248,120591,1,8,0:0:0:0:
316,340,120770,1,0,0:0:0:0:
256,248,120948,6,0,B|228:172|284:172|256:92,1,160,2|8,1:0|0:0,0:0:0:0:
320,212,121484,1,0,0:0:0:0:
188,136,121663,2,0,L|172:56,1,80,2|0,1:0|0:0,0:0:0:0:
80,128,122020,2,0,L|96:208,1,80,8|0,0:0|0:0,0:0:0:0:
200,340,122377,5,2,1:0:0:0:
256,240,122556,1,8,0:0:0:0:
312,340,122734,1,8,0:0:0:0:
175,354,122913,5,0,0:0:0:0:
256,210,123091,1,10,0:0:0:0:
336,354,123270,1,8,0:0:0:0:
336,354,123359,1,8,0:0:0:0:
336,354,123448,1,8,0:0:0:0:
404,208,123627,1,8,0:0:0:0:
188,128,123806,6,0,P|256:92|324:128,1,160,4|8,1:0|0:0,0:0:0:0:
256,12,124341,1,0,0:0:0:0:
323,127,124520,1,2,1:0:0:0:
256,12,124698,2,0,L|164:8,1,80,0|12,1:0|0:0,0:0:0:0:
188,128,125056,1,0,0:0:0:0:
176,8,125234,6,0,L|96:4,1,80,4|0,0:0|0:0,0:0:0:0:
0,72,125591,1,8,0:0:0:0:
48,172,125770,1,0,0:0:0:0:
116,80,125948,1,2,1:0:0:0:
48,172,126127,1,0,0:0:0:0:
48,172,126216,1,0,0:0:0:0:
48,172,126306,2,0,B|31:208|31:208|48:244,1,80,8|8,0:0|0:0,0:0:0:0:
176,336,126663,6,0,P|188:296|176:256,1,80,4|0,0:0|0:0,0:0:0:0:
208,164,127020,2,0,P|168:152|128:164,1,80,8|0,0:0|0:0,0:0:0:0:
336,336,127377,2,0,P|324:296|336:256,1,80,2|0,1:0|1:0,0:0:0:0:
304,164,127734,2,0,P|344:152|384:164,1,80,8|0,0:0|0:0,0:0:0:0:
256,96,128091,6,0,P|216:72|164:72,1,80,2|0,1:0|1:0,0:0:0:0:
160,192,128448,2,0,P|136:232|136:284,1,80,8|0,0:0|0:0,0:0:0:0:
256,288,128806,2,0,P|296:312|348:312,1,80,2|0,1:0|1:0,0:0:0:0:
352,192,129163,2,0,P|376:152|376:100,1,80,8|0,0:0|0:0,0:0:0:0:
256,52,129520,6,0,B|284:132|228:132|256:208,1,160,4|8,0:0|0:0,0:0:0:0:
192,92,130056,1,0,0:0:0:0:
316,12,130234,2,0,P|328:36|336:92,1,80,2|0,1:0|0:0,0:0:0:0:
336,128,130502,1,0,0:0:0:0:
336,128,130591,2,0,P|340:167|356:204,1,80,8|0,0:0|0:0,0:0:0:0:
440,280,130948,5,4,0:0:0:0:
328,328,131127,1,8,0:3:0:0:
328,328,131216,1,8,0:3:0:0:
328,328,131306,1,8,0:3:0:0:
252,240,131484,2,0,L|312:248,1,40,4|4,0:3|0:3,0:0:0:0:
216,312,131663,2,0,L|176:317,1,40,4|4,0:3|0:3,0:0:0:0:
112,240,131841,2,0,L|151:234,1,40,4|4,0:3|0:3,0:0:0:0:
152,152,132020,2,0,L|68:164,1,80,12|0,0:0|0:0,0:0:0:0:
172,68,132377,5,6,0:0:0:0:
256,136,132556,1,8,0:0:0:0:
256,136,132645,1,0,0:0:0:0:
256,136,132734,1,0,0:0:0:0:
340,68,132913,6,0,L|368:104,1,40,8|0,0:0|0:0,0:0:0:0:
472,104,133091,2,0,L|447:72,1,40,8|2,0:0|0:0,0:0:0:0:
408,168,133270,1,2,0:0:0:0:
408,168,133359,1,0,0:0:0:0:
408,168,133448,2,0,L|436:204,1,40,10|0,0:0|0:0,0:0:0:0:
416,296,133627,2,0,L|391:264,1,40,10|0,0:0|0:0,0:0:0:0:
360,352,133806,5,0,0:0:0:0:
256,288,133984,2,0,P|224:288|204:300,1,40,8|2,0:0|0:0,0:0:0:0:
152,236,134163,2,0,P|140:268|144:288,1,40,8|0,0:0|0:0,0:0:0:0:
164,344,134341,1,2,0:0:0:0:
60,192,134520,2,0,L|88:104,1,80,10|0,0:0|0:0,0:0:0:0:
112,48,134788,1,2,0:0:0:0:
112,48,134877,2,0,P|148:33|184:48,1,80,10|2,0:0|0:0,0:0:0:0:
256,140,135234,5,8,0:0:0:0:
328,48,135413,1,8,0:0:0:0:
328,48,135502,1,2,0:0:0:0:
328,48,135591,1,2,0:0:0:0:
324,228,135770,5,8,0:0:0:0:
396,136,135948,2,0,P|424:168|428:208,1,80,10|2,0:0|0:0,0:0:0:0:
396,320,136306,5,8,0:0:0:0:
324,228,136484,1,8,0:0:0:0:
272,336,136663,5,2,0:0:0:0:
188,228,136841,2,0,L|136:224,1,40,8|0,0:0|0:0,0:0:0:0:
96,304,137020,2,0,L|135:307,1,40,10|0,0:0|0:0,0:0:0:0:
64,224,137198,1,2,0:0:0:0:
140,88,137377,2,0,B|188:88|188:88|212:60,1,80,10|0,0:0|0:0,0:0:0:0:
263,120,137645,1,2,0:0:0:0:
263,120,137734,2,2,B|284:96|284:96|332:96,1,80,10|2,0:0|0:0,0:0:0:0:
404,104,138002,1,0,0:0:0:0:
404,104,138091,5,12,0:0:0:0:
484,192,138270,1,10,0:0:0:0:
484,192,138359,1,2,0:0:0:0:
484,192,138448,1,2,0:0:0:0:
263,120,138627,5,8,0:0:0:0:
343,208,138806,1,8,0:0:0:0:
232,224,138984,1,0,0:0:0:0:
263,120,139163,1,8,0:0:0:0:
343,208,139341,1,10,0:0:0:0:
343,208,139431,1,2,0:0:0:0:
343,208,139520,5,2,0:0:0:0:
232,224,139698,1,8,0:0:0:0:
288,324,139877,2,0,L|296:276,1,40,10|2,0:0|0:0,0:0:0:0:
204,312,140056,2,0,L|197:351,1,40,2|2,0:0|0:0,0:0:0:0:
124,304,140234,1,8,0:0:0:0:
105,268,140323,1,0,0:0:0:0:
106,229,140413,1,2,0:0:0:0:
125,194,140502,1,2,0:0:0:0:
152,164,140591,2,0,L|144:144,6,20,10|0|0|0|0|0|0,0:0|0:0|0:0|0:0|0:0|0:0|0:0,0:0:0:0:
220,156,140948,6,0,P|256:141|292:156,1,80,4|0,0:0|0:0,0:0:0:0:
384,120,141306,2,0,P|399:156|384:192,1,80,10|0,0:0|0:0,0:0:0:0:
376,312,141663,1,8,0:0:0:0:
308,244,141841,1,0,0:0:0:0:
284,360,142020,1,10,0:0:0:0:
216,292,142198,1,0,0:0:0:0:
212,136,142377,6,0,L|236:216,1,80,8|0,0:0|0:0,0:0:0:0:
153,213,142645,1,0,0:0:0:0:
153,213,142734,2,0,L|129:133,1,80,10|0,0:0|0:0,0:0:0:0:
205,49,143091,2,0,B|285:21|285:77|361:49,1,160,8|2,0:0|0:0,0:0:0:0:
488,89,143627,1,8,0:0:0:0:
420,192,143806,5,4,0:0:0:0:
256,192,146663,5,4,0:0:0:0:
24,192,148091,5,8,0:3:0:0:
24,192,148270,2,0,P|64:192|104:168,2,80,4|4|4,0:3|0:3|0:3,0:0:0:0:
48,120,149073,1,4,0:3:0:0:
48,120,149163,1,8,0:0:0:0:
132,280,149520,6,0,P|168:260|200:256,1,64,4|0,0:0|0:0,0:0:0:0:
200,344,149877,2,0,P|164:364|132:368,1,64,2|0,0:0|1:0,0:0:0:0:
276,304,150234,2,0,L|424:312,1,128,8|2,0:0|0:0,0:0:0:0:
403,310,150770,1,0,1:0:0:0:
396,176,150948,6,0,P|384:208|388:240,1,64,0|8,0:0|0:0,0:0:0:0:
476,192,151306,2,0,P|488:160|484:128,1,64,2|0,0:0|1:0,0:0:0:0:
376,84,151663,2,0,L|244:72,1,128,8|2,0:0|0:0,0:0:0:0:
248,72,152198,1,0,0:0:0:0:
120,128,152377,6,0,P|172:144|212:208,1,128,0|2,1:0|0:0,0:0:0:0:
252,284,152913,1,0,1:0:0:0:
252,284,153091,2,0,L|372:212,1,128,8|2,0:0|0:0,0:0:0:0:
361,218,153627,1,0,1:0:0:0:
448,264,153806,6,0,L|387:302,1,64,0|0,1:0|1:0,0:0:0:0:
440,160,154163,2,0,L|494:193,1,64,10|8,0:0|0:0,0:0:0:0:
496,108,154431,1,8,0:0:0:0:
496,108,154520,2,0,L|441:74,1,64,8|0,0:0|1:0,0:0:0:0:
344,4,154877,1,10,0:0:0:0:
348,115,155056,1,0,1:0:0:0:
441,74,155234,6,0,P|444:124|424:160,1,80,4|0,0:0|0:0,0:0:0:0:
348,115,155591,1,10,0:0:0:0:
384,224,155770,2,0,P|421:238|460:233,1,80,0|0,0:0|1:0,0:0:0:0:
344,312,156127,1,0,1:0:0:0:
256,272,156306,1,10,0:0:0:0:
172,224,156484,1,0,0:0:0:0:
344,312,156663,5,0,1:0:0:0:
233,348,156841,2,0,L|257:268,1,80,0|10,1:0|0:0,0:0:0:0:
172,224,157198,1,0,1:0:0:0:
126,82,157377,1,0,0:0:0:0:
247,170,157556,1,0,1:0:0:0:
98,170,157734,1,10,0:0:0:0:
218,82,157913,1,0,0:0:0:0:
319,170,158091,6,0,B|283:187|283:187|247:170,1,80,0|0,1:0|0:0,0:0:0:0:
320,80,158448,1,10,0:0:0:0:
391,170,158627,2,0,B|355:187|355:187|319:170,1,80,0|0,0:0|1:0,0:0:0:0:
423,270,158984,1,0,1:0:0:0:
494,198,159163,1,10,0:0:0:0:
391,170,159341,1,0,0:0:0:0:
423,270,159520,6,0,L|370:329,1,80,0|0,1:0|1:0,0:0:0:0:
280,272,159877,2,0,B|320:272|320:272|352:240,1,80,10|0,0:0|1:0,0:0:0:0:
500,343,160234,2,0,B|460:343|460:343|432:372,1,80,0|0,0:0|1:0,0:0:0:0:
272,252,160591,2,0,B|312:252|312:252|344:220,1,80,10|0,0:0|0:0,0:0:0:0:
324,88,160948,6,0,B|272:88|256:55|256:55|240:88|188:88,1,160,4|10,0:0|0:0,0:0:0:0:
16,192,161484,2,0,B|96:164|96:220|172:192,1,160,0|0,0:0|1:0,0:0:0:0:
60,256,162020,1,10,0:0:0:0:
132,128,162198,1,0,0:0:0:0:
60,256,162377,6,0,P|60:296|88:328,1,80,0|0,1:0|1:0,0:0:0:0:
196,261,162734,2,0,P|196:221|168:189,1,80,10|0,0:0|0:0,0:0:0:0:
256,80,163091,1,0,1:0:0:0:
312,192,163270,1,0,1:0:0:0:
256,80,163448,2,0,P|286:55|325:55,1,80,10|0,0:0|0:0,0:0:0:0:
435,90,163806,6,0,L|303:198,1,160,4|10,0:0|0:0,0:0:0:0:
468,180,164341,1,0,0:0:0:0:
435,90,164520,1,0,1:0:0:0:
392,8,164698,1,0,1:0:0:0:
468,180,164877,2,0,L|402:234,1,80,10|0,0:0|0:0,0:0:0:0:
292,328,165234,6,0,B|256:345|256:345|220:328,1,80,0|0,1:0|1:0,0:0:0:0:
256,240,165591,1,10,0:0:0:0:
292,352,165770,2,0,B|256:369|256:369|220:352,1,80,0|0,0:0|1:0,0:0:0:0:
120,244,166127,1,0,1:0:0:0:
128,356,166306,1,10,0:0:0:0:
256,240,166484,1,0,0:0:0:0:
256,240,166573,1,0,0:0:0:0:
256,240,166663,6,0,L|344:248,1,80,4|0,0:0|0:0,0:0:0:0:
404,160,167020,1,2,1:0:0:0:
472,248,167198,2,0,P|487:284|472:320,1,80,8|0,0:0|0:0,0:0:0:0:
404,160,167556,1,0,1:0:0:0:
335,247,167734,2,0,P|319:283|335:319,1,80,10|0,0:0|1:0,0:0:0:0:
404,160,168091,5,12,0:0:0:0:
328,92,168270,1,0,0:0:0:0:
259,179,168448,1,2,1:0:0:0:
335,247,168627,1,8,0:0:0:0:
259,179,168806,5,0,0:0:0:0:
183,247,168984,1,0,1:0:0:0:
190,92,169163,1,10,0:0:0:0:
114,160,169341,1,0,1:0:0:0:
183,247,169520,6,0,L|92:272,1,80,14|0,0:0|0:0,0:0:0:0:
114,160,169877,1,8,0:0:0:0:
183,247,170056,1,2,0:0:0:0:
340,238,170234,1,10,0:0:0:0:
290,84,170413,1,0,0:0:0:0:
420,179,170591,1,10,0:0:0:0:
259,179,170770,1,8,0:0:0:0:
390,84,170948,5,10,0:0:0:0:
340,260,171127,1,8,0:0:0:0:
276,65,171306,1,10,0:0:0:0:
441,185,171484,1,10,0:0:0:0:
441,185,171573,1,2,0:0:0:0:
441,185,171663,1,10,0:0:0:0:
237,185,171841,1,10,0:0:0:0:
403,65,172020,1,8,0:0:0:0:
340,260,172198,1,10,0:0:0:0:
148,192,182377,5,2,0:0:0:0:
200,116,182556,1,2,0:0:0:0:
248,196,182734,1,2,0:0:0:0:
148,192,182913,1,2,0:0:0:0:
200,116,183091,2,0,L|288:96,1,80,0|2,0:0|0:0,0:0:0:0:
326,178,183448,2,0,L|238:198,1,80,2|0,0:0|0:0,0:0:0:0:
188,328,183806,6,0,B|240:328|256:295|256:295|272:328|324:328,1,160,10|0,0:0|1:0,0:0:0:0:
326,178,184341,2,0,L|427:301,1,160,10|0,0:0|1:0,0:0:0:0:
326,178,184877,1,10,0:0:0:0:
424,104,185056,1,0,0:0:0:0:
160,72,185234,6,0,P|227:36|295:72,1,160,10|0,0:0|1:0,0:0:0:0:
40,152,185770,2,0,B|120:124|120:180|196:152,1,160,10|0,0:0|1:0,0:0:0:0:
195,152,186216,1,0,1:0:0:0:
195,152,186306,1,10,0:0:0:0:
84,228,186484,1,0,0:0:0:0:
84,228,186663,6,0,L|144:288,1,80,4|0,1:2|0:0,0:0:0:0:
108,384,187020,2,0,L|48:324,1,80,2|0,1:0|0:0,0:0:0:0:
188,196,187377,2,0,P|256:160|324:196,1,160,0|2,1:0|1:0,0:0:0:0:
368,284,187913,1,0,0:0:0:0:
324,172,188091,6,0,P|256:136|188:172,1,160,4|2,0:0|1:0,0:0:0:0:
188,60,188627,1,0,0:0:0:0:
188,60,188806,2,0,B|240:60|256:27|256:27|272:60|324:60,1,160,0|2,1:0|1:0,0:0:0:0:
448,68,189341,1,0,0:0:0:0:
380,196,189520,5,8,0:0:0:0:
323,59,189698,1,0,1:0:0:0:
272,264,189877,5,10,0:0:0:0:
215,127,190056,1,0,1:0:0:0:
168,328,190234,5,8,0:0:0:0:
111,191,190413,1,0,1:0:0:0:
168,328,190591,5,10,0:0:0:0:
138,354,190681,1,8,0:0:0:0:
100,363,190770,1,8,0:0:0:0:
61,354,190859,1,8,0:0:0:0:
32,327,190948,5,12,0:0:0:0:
188,192,191306,1,2,0:0:0:0:
48,72,191663,2,0,L|56:104,6,20,2|2|2|2|2|2|2,0:0|0:0|0:0|0:0|0:0|0:0|0:0,0:0:0:0:
112,40,192020,6,0,B|172:18|172:61|229:40,1,120,8|0,0:0|0:0,0:0:0:0:
304,44,192377,6,0,P|319:84|304:124,1,88.000002685547,4|0,0:0|1:0,0:0:0:0:
208,192,192734,1,8,0:0:0:0:
303,124,192913,1,0,0:0:0:0:
323,235,193091,2,0,P|363:250|404:236,1,88.000002685547,2|0,1:0|1:0,0:0:0:0:
296,328,193448,2,0,P|255:312|215:327,1,88.000002685547,8|0,0:0|0:0,0:0:0:0:
60,220,193806,5,2,1:0:0:0:
60,220,193984,2,0,P|60:272|84:312,1,88.000002685547,0|8,1:0|0:0,0:0:0:0:
144,172,194341,2,0,P|116:128|68:104,1,88.000002685547,0|2,0:0|1:0,0:0:0:0:
160,264,194698,2,0,P|200:252|232:216,1,88.000002685547,0|8,1:0|0:0,0:0:0:0:
316,112,195056,1,2,0:0:0:0:
316,112,195145,1,2,0:0:0:0:
316,112,195234,5,4,0:0:0:0:
412,196,195413,1,0,1:0:0:0:
456,56,195591,2,0,L|392:120,1,88.000002685547,8|0,0:0|0:0,0:0:0:0:
411,276,195948,2,0,B|393:236|393:236|411:196,1,88.000002685547,2|0,1:0|1:0,0:0:0:0:
304,284,196306,2,0,B|322:324|322:324|304:364,1,88.000002685547,8|0,0:0|0:0,0:0:0:0:
48,324,196663,6,0,P|124:286|200:324,1,176.000005371094,2|10,0:0|0:0,0:0:0:0:
256,224,197198,1,0,0:0:0:0:
201,54,197377,1,2,1:2:0:0:
344,159,197556,1,0,1:0:0:0:
167,159,197734,1,12,0:0:0:0:
311,54,197913,1,0,0:0:0:0:
167,159,198091,6,0,L|76:144,1,88.000002685547,4|0,0:0|1:0,0:0:0:0:
114,39,198448,2,0,L|200:53,1,88.000002685547,8|0,0:0|0:0,0:0:0:0:
344,159,198806,1,2,1:0:0:0:
311,54,198984,1,0,1:0:0:0:
456,110,199163,1,8,0:0:0:0:
411,9,199341,1,0,0:0:0:0:
344,159,199520,6,0,B|376:243|312:243|344:331,1,176.000005371094,6|8,1:2|0:0,0:0:0:0:
216,292,200056,2,0,L|28:256,1,176.000005371094,2|0,0:0|1:0,0:0:0:0:
216,292,200591,1,8,0:0:0:0:
188,192,200770,1,0,0:0:0:0:
216,292,200948,6,0,L|122:273,1,88.000002685547,2|0,1:0|0:0,0:0:0:0:
188,192,201306,1,12,0:0:0:0:
216,292,201484,1,0,0:0:0:0:
324,192,201663,2,0,L|417:210,1,88.000002685547,2|0,1:0|1:0,0:0:0:0:
352,304,202020,1,12,0:0:0:0:
324,192,202198,1,0,0:0:0:0:
216,292,202377,5,6,0:0:0:0:
188,192,202556,1,8,0:0:0:0:
188,192,202645,1,8,0:0:0:0:
188,192,202734,1,8,0:0:0:0:
104,272,202913,1,8,0:0:0:0:
104,272,203002,1,8,0:0:0:0:
104,272,203091,1,8,0:0:0:0:
28,188,203270,1,8,0:0:0:0:
28,188,203359,1,8,0:0:0:0:
28,188,203448,2,0,L|16:132,1,44.0000013427735,8|8,0:0|0:0,0:0:0:0:
88,84,203627,2,0,L|97:127,1,44.0000013427735,8|8,0:0|0:0,0:0:0:0:
164,64,203806,6,0,P|224:64|280:100,1,128,4|2,0:0|0:0,0:0:0:0:
332,192,204341,1,0,1:0:0:0:
332,192,204520,2,0,L|444:120,1,128,8|2,0:0|0:0,0:0:0:0:
439,122,205056,1,0,1:0:0:0:
420,252,205234,5,0,0:0:0:0:
332,192,205413,2,0,P|320:224|328:252,1,64,8|2,0:0|0:0,0:0:0:0:
420,252,205770,1,0,1:0:0:0:
332,332,205948,2,0,P|284:324|236:352,1,96,8|0,0:0|0:0,0:0:0:0:
199,361,206306,2,0,L|175:289,1,64,12|0,0:0|0:0,0:0:0:0:
139,198,206663,6,0,P|95:206|35:266,1,128,4|2,0:0|0:0,0:0:0:0:
97,76,207198,1,0,1:0:0:0:
97,76,207377,2,0,L|141:204,1,128,8|2,0:0|0:0,0:0:0:0:
203,107,207913,2,0,L|182:46,1,64,8|2,0:0|1:0,0:0:0:0:
340,108,208270,5,8,0:0:0:0:
340,108,208359,1,8,0:0:0:0:
340,108,208448,1,8,0:3:0:0:
436,192,208627,1,8,0:0:0:0:
436,192,208716,1,8,0:0:0:0:
436,192,208806,1,8,0:3:0:0:
340,276,208984,1,8,0:0:0:0:
340,276,209073,1,8,0:0:0:0:
340,276,209163,1,8,0:3:0:0:
252,192,209341,1,8,0:0:0:0:
172,276,209520,6,0,B|96:304|96:248|16:276,1,160,4|8,0:0|0:0,0:0:0:0:
124,128,210056,2,0,L|136:216,1,80,2|8,0:0|0:0,0:0:0:0:
32,136,210413,2,0,L|21:56,1,80,0|10,0:0|0:0,0:0:0:0:
116,40,210770,1,0,0:0:0:0:
252,84,210948,5,10,0:0:0:0:
360,32,211127,1,8,0:0:0:0:
256,184,211306,5,10,0:0:0:0:
364,132,211484,1,8,0:0:0:0:
308,280,211663,5,10,0:0:0:0:
347,284,211752,1,8,0:0:0:0:
387,289,211841,1,8,0:0:0:0:
427,294,211931,1,8,0:0:0:0:
468,300,212020,2,0,L|516:308,1,40,8|8,0:0|0:0,0:0:0:0:
440,212,212198,2,0,L|400:205,1,40,8|8,0:0|0:0,0:0:0:0:
364,132,212377,5,12,0:0:0:0:
256,184,212556,1,0,0:0:0:0:
126,89,212734,1,0,1:0:0:0:
176,243,212913,1,10,0:0:0:0:
226,89,213091,1,0,0:0:0:0:
95,184,213270,1,0,1:0:0:0:
256,184,213448,1,8,0:0:0:0:
294,174,213538,1,8,0:0:0:0:
333,165,213627,1,8,0:0:0:0:
372,155,213716,1,8,0:0:0:0:
411,146,213806,5,12,0:0:0:0:
376,272,213984,1,0,1:0:0:0:
256,184,214163,5,2,1:0:0:0:
220,309,214341,1,12,0:0:0:0:
376,272,214520,5,0,1:0:0:0:
256,184,214698,1,2,1:0:0:0:
100,221,214877,5,8,0:0:0:0:
220,309,215056,1,0,1:0:0:0:
256,184,215234,6,0,B|276:120|228:120|256:60,1,128,4|2,0:0|0:0,0:0:0:0:
255,60,215770,1,0,0:0:0:0:
352,104,215948,2,0,L|488:76,1,128,8|2,0:0|0:0,0:0:0:0:
440,172,216484,1,0,0:0:0:0:
352,104,216663,6,0,P|344:140|356:168,1,64,4|0,0:0|0:0,0:0:0:0:
288,232,217020,2,0,P|297:262|289:292,1,64,2|4,0:0|0:3,0:0:0:0:
249,314,217288,1,4,0:3:0:0:
249,314,217377,2,0,L|177:306,1,64,8|0,0:0|1:0,0:0:0:0:
36,296,217734,1,10,0:0:0:0:
96,360,217913,1,0,0:0:0:0:
104,240,218091,5,12,0:0:0:0:
28,180,218270,1,0,0:0:0:0:
104,240,218448,2,0,P|117:211|104:183,1,64,2|0,0:0|0:0,0:0:0:0:
204,144,218806,2,0,P|256:112|308:144,1,128,8|2,0:0|0:0,0:0:0:0:
396,192,219341,1,0,1:0:0:0:
360,292,219520,5,0,0:0:0:0:
396,192,219698,1,8,0:0:0:0:
360,292,219877,2,0,L|420:320,1,64,2|0,0:0|1:0,0:0:0:0:
308,220,220234,2,0,B|268:220|256:191|256:191|244:220|204:220,1,128,8|8,0:0|0:0,0:0:0:0:
203,220,220770,1,0,0:0:0:0:
132,308,220948,6,0,B|196:284|196:328|256:308,1,128,4|2,0:0|0:0,0:0:0:0:
327,219,221484,1,0,1:0:0:0:
327,219,221663,2,0,B|263:243|263:199|203:219,1,128,8|2,0:0|0:0,0:0:0:0:
120,144,222198,1,0,0:0:0:0:
204,72,222377,5,4,0:0:0:0:
312,112,222556,1,8,0:0:0:0:
312,112,222645,1,8,0:0:0:0:
312,112,222734,1,8,0:0:0:0:
304,12,222913,1,8,0:0:0:0:
304,12,223002,1,8,0:0:0:0:
304,12,223091,2,0,B|368:12|400:48|400:48|428:88|496:80,1,192,8|0,0:0|0:0,0:0:0:0:
436,224,223806,5,4,0:0:0:0:
475,81,223984,1,0,0:0:0:0:
436,224,224163,1,10,0:0:0:0:
384,133,224341,1,0,0:0:0:0:
295,191,224520,1,8,0:0:0:0:
347,276,224698,1,0,0:0:0:0:
243,276,224877,1,10,0:0:0:0:
295,191,225056,1,0,0:0:0:0:
160,192,225234,5,8,0:0:0:0:
243,276,225413,1,8,0:0:0:0:
40,212,225591,5,10,0:0:0:0:
123,296,225770,1,8,0:0:0:0:
160,192,225948,5,8,0:0:0:0:
189,165,226038,1,8,0:0:0:0:
227,156,226127,1,8,0:0:0:0:
266,165,226216,1,8,0:0:0:0:
295,191,226306,2,0,L|328:160,1,40,10|8,0:0|0:0,0:0:0:0:
420,192,226484,2,0,L|391:220,1,40,8|8,0:0|0:0,0:0:0:0:
464,260,226663,1,4,0:0:0:0:
256,192,226752,12,2,229520,0:0:0:0:
