osu file format v14

[General]
AudioFilename: audio.mp3
AudioLeadIn: 0
PreviewTime: 61953
Countdown: 0
SampleSet: Soft
StackLeniency: 0.7
Mode: 0
LetterboxInBreaks: 0
WidescreenStoryboard: 0

[Editor]
Bookmarks: 30370,62370,83703,91703,99703,102370,107703,134370,155703,160703,163703,169036,184703,201036,211703,222370,233036,253036,266703
DistanceSpacing: 1
BeatDivisor: 4
GridSize: 4
TimelineZoom: 1.4

[Metadata]
Title:Ashita wa Kimi to.
TitleUnicode:明日は君と。
Artist:Asakura Momo
ArtistUnicode:麻倉もも
Creator:domSaur
Version:Easy.
Source:
Tags:花に赤い糸 hana ni akai ito honeyworks dubturt walaowey j_a_c_k jack kyle y kyle_y
BeatmapID:1592378
BeatmapSetID:748013

[Difficulty]
HPDrainRate:2
CircleSize:3
OverallDifficulty:2
ApproachRate:3.5
SliderMultiplier:0.899999999999999
SliderTickRate:1

[Events]
//Background and Video events
0,0,"mocho.png",0,0
//Break Periods
2,19903,23656
2,91903,98323
2,102570,106323
2,163903,167656
2,179903,183323
2,222570,230323
2,253236,256990
//Storyboard Layer 0 (Background)
//Storyboard Layer 1 (Fail)
//Storyboard Layer 2 (Pass)
//Storyboard Layer 3 (Foreground)
//Storyboard Sound Samples

[TimingPoints]
1037,333.333333333333,4,2,1,30,1,0
1037,-100,4,2,1,30,0,0
19703,-100,4,2,1,60,0,0
25036,-100,4,2,1,60,0,0
30370,-100,4,2,1,60,0,0
39703,-100,4,2,1,70,0,0
41036,-100,4,2,1,70,0,0
51703,-100,4,2,1,70,0,0
51786,-100,4,2,1,60,0,0
59703,-100,4,2,1,70,0,0
62370,-100,4,2,1,80,0,1
72703,-100,4,2,1,70,0,0
73036,-100,4,2,1,80,0,1
83370,-100,4,2,1,70,0,0
83703,-100,4,2,1,80,0,0
83786,-100,4,2,1,70,0,0
85036,-100,4,2,1,80,0,0
85120,-100,4,2,1,70,0,0
102370,-100,4,2,1,30,0,0
107703,-100,4,2,1,60,0,0
113036,-100,4,2,1,70,0,0
123703,-100,4,2,1,70,0,0
123786,-100,4,2,1,60,0,0
131703,-100,4,2,1,70,0,0
133036,-100,4,2,1,70,0,0
134370,-100,4,2,1,80,0,1
144703,-100,4,2,1,70,0,0
145036,-100,4,2,1,80,0,1
155370,-100,4,2,1,70,0,0
155703,-100,4,2,1,80,0,0
155786,-100,4,2,1,70,0,0
157036,-100,4,2,1,80,0,0
157120,-100,4,2,1,70,0,0
169036,-100,4,2,1,30,0,0
178870,-100,4,2,1,60,0,0
179786,-100,4,2,1,30,0,0
189703,-100,4,2,2,70,0,0
190370,-100,4,2,1,50,0,0
200036,-100,4,2,1,70,0,0
201036,-100,4,2,1,70,0,0
211703,-100,4,2,1,70,0,0
211786,-100,4,2,1,60,0,0
219703,-100,4,2,1,70,0,0
222370,-100,4,2,1,70,0,0
231703,-100,4,2,1,70,0,0
233036,-100,4,2,1,80,0,1
243370,-100,4,2,1,70,0,0
243703,-100,4,2,1,80,0,0
243786,-100,4,2,1,70,0,0
245036,-100,4,2,1,75,0,0
245120,-100,4,2,1,70,0,0
253036,-100,4,2,1,60,0,0
257870,-100,4,2,1,60,0,0
258370,-100,4,2,1,60,0,0
261036,346.820809248555,4,2,1,70,1,0
262637,468.75,4,2,1,70,1,0
263655,800,4,2,1,70,1,0
264055,983.606557377049,4,2,1,70,1,0
264546,2162.16216216216,4,2,1,70,1,0
266759,2105.26315789474,4,2,1,70,1,0
268876,437.956204379562,4,2,1,70,1,0
269313,483.870967741935,4,2,1,70,1,0
269796,530.973451327434,4,2,1,70,1,0
272981,-100,4,2,1,5,0,0

[Colours]
Combo1 : 208,240,100
Combo2 : 239,150,97
Combo3 : 252,133,163
Combo4 : 173,209,228

[HitObjects]
47,126,11703,6,0,B|144:96|128:160|239:115,1,180,2|2,0:0|0:0,0:0:0:0:
310,98,12703,1,0,0:0:0:0:
397,120,13036,2,0,P|440:195|403:278,1,180,2|2,0:0|0:0,0:0:0:0:
338,334,14036,1,0,0:0:0:0:
257,294,14370,6,0,P|251:248|256:203,1,89.9999999999999,2|0,0:0|0:0,0:0:0:0:
309,132,15036,2,0,P|314:87|309:42,1,89.9999999999999,2|0,0:0|0:0,0:0:0:0:
225,75,15703,2,0,B|198:88|174:93|174:93|119:67|45:75,2,180,2|2|2,0:0|0:0|0:0,0:0:0:0:
256,192,18036,12,4,19703,1:0:0:0:
81,281,25036,6,0,P|130:271|189:270,1,89.9999999999999,6|8,1:0|0:0,0:0:0:0:
251,307,25703,2,0,P|253:257|260:207,1,89.9999999999999,0|8,1:0|0:0,0:0:0:0:
341,183,26370,2,0,P|438:201|528:160,1,180,2|0,1:0|1:0,0:0:0:0:
370,60,27703,6,0,P|321:55|277:68,2,89.9999999999999,6|0|0,1:0|1:0|1:0,0:0:0:0:
417,136,28703,2,0,P|460:146|504:141,2,89.9999999999999,0|0|0,1:0|1:0|1:0,0:0:0:0:
335,175,29703,2,0,P|290:169|247:180,1,89.9999999999999,0|0,1:0|1:0,0:0:0:0:
180,241,30370,6,0,B|201:217|205:195|205:195|199:133|171:73,1,180,6|0,1:0|1:0,0:0:0:0:
89,33,31370,1,0,1:0:0:0:
13,82,31703,2,0,P|1:129|8:175,1,89.9999999999999,2|0,1:2|1:0,0:0:0:0:
69,234,32370,2,0,P|118:229|175:226,1,89.9999999999999,0|0,1:0|1:0,0:0:0:0:
229,282,33036,6,0,P|309:313|370:237,1,180,2|0,1:2|1:0,0:0:0:0:
385,164,34036,1,0,1:0:0:0:
361,76,34370,2,0,P|316:70|272:79,1,89.9999999999999,2|0,1:2|1:0,0:0:0:0:
195,126,35036,2,0,P|154:134|88:123,1,89.9999999999999,0|0,1:0|1:0,0:0:0:0:
44,63,35703,1,2,1:2:0:0:
61,242,36370,6,0,P|65:286|71:348,2,89.9999999999999,0|0|2,1:0|1:0|1:0,0:0:0:0:
195,126,37703,2,0,P|199:81|203:36,2,89.9999999999999,0|0|2,1:0|1:0|1:0,0:0:0:0:
274,287,39036,2,0,P|319:293|378:273,1,89.9999999999999,0|0,1:0|1:0,0:0:0:0:
418,211,39703,2,0,B|442:147|416:89|416:89|387:120|358:123,1,180,8|8,0:0|1:0,0:0:0:0:
294,166,40703,1,0,1:0:0:0:
289,76,41036,6,0,P|245:66|199:67,1,89.9999999999999,6|8,1:0|0:0,0:0:0:0:
144,137,41703,2,0,P|147:181|152:226,1,89.9999999999999,2|8,1:0|0:0,0:0:0:0:
177,313,42370,2,0,B|221:294|241:253|241:253|257:293|319:316,1,180,2|2,1:0|1:0,0:0:0:0:
327,223,43370,1,8,0:0:0:0:
288,141,43703,6,0,B|182:115|208:173|96:137,1,180,2|2,1:0|1:0,0:0:0:0:
27,108,44703,1,8,0:0:0:0:
9,196,45036,2,0,P|15:236|22:291,1,89.9999999999999,2|8,1:0|0:0,0:0:0:0:
84,349,45703,2,0,P|128:343|173:336,1,89.9999999999999,2|8,1:0|0:0,0:0:0:0:
249,289,46370,5,2,1:0:0:0:
426,319,47036,2,0,P|431:275|415:218,2,89.9999999999999,0|8|2,1:0|0:0|1:0,0:0:0:0:
342,159,48370,2,0,P|337:115|353:58,2,89.9999999999999,0|8|2,1:0|0:0|1:0,0:0:0:0:
248,313,49703,6,0,P|197:304|145:309,1,89.9999999999999,4|8,1:0|0:0,0:0:0:0:
81,259,50370,2,0,B|47:194|52:135|52:135|97:90,1,180,2|10,1:0|0:0,0:0:0:0:
163,50,51370,1,0,1:0:0:0:
218,120,51703,6,0,B|233:150|257:164|257:164|318:142|384:138,1,180,4|2,1:0|1:0,0:0:0:0:
447,191,52703,1,0,1:0:0:0:
423,277,53036,2,0,P|347:318|256:277,1,180,2|2,1:0|1:0,0:0:0:0:
105,200,54370,2,0,P|63:201|8:214,1,89.9999999999999,2|0,1:0|1:0,0:0:0:0:
29,300,55036,2,0,P|73:298|117:288,1,89.9999999999999,2|0,1:0|1:0,0:0:0:0:
192,238,55703,6,0,B|224:143|156:160|196:47,1,180,2|2,1:0|1:0,0:0:0:0:
272,22,56703,1,0,1:0:0:0:
353,59,57036,2,0,P|399:141|350:212,1,180,6|2,1:0|1:0,0:0:0:0:
229,333,58370,2,0,P|183:251|232:180,1,180,2|2,1:0|1:0,0:0:0:0:
297,133,59370,1,0,1:0:0:0:
223,81,59703,1,6,1:0:0:0:
223,184,61036,5,8,0:0:0:0:
297,133,61370,2,0,P|345:127|392:136,2,89.9999999999999,8|0|0,0:0|1:0|1:0,0:0:0:0:
214,97,62370,6,0,B|116:122|136:65|27:97,1,180,6|0,1:0|1:0,0:0:0:0:
17,182,63370,1,8,0:0:0:0:
40,268,63703,2,0,B|138:238|118:295|216:270,1,180,2|0,1:0|1:0,0:0:0:0:
296,229,64703,1,8,0:0:0:0:
384,249,65036,6,0,B|359:151|416:171|384:62,1,180,2|0,1:0|1:0,0:0:0:0:
306,32,66036,1,8,0:0:0:0:
227,75,66370,2,0,P|215:117|233:171,1,89.9999999999999,2|8,1:0|0:0,0:0:0:0:
313,183,67036,2,0,P|357:178|408:175,1,89.9999999999999,0|8,1:0|0:0,0:0:0:0:
477,226,67703,6,0,B|499:287|500:352|500:352|479:344|433:342,1,180,6|0,1:0|1:0,0:0:0:0:
379,286,68703,1,8,0:0:0:0:
319,353,69036,2,0,B|223:324|238:381|134:353,1,180,2|0,1:0|1:0,0:0:0:0:
81,288,70036,1,8,0:0:0:0:
91,198,70370,6,0,P|141:181|188:185,1,89.9999999999999,2|8,1:0|0:0,0:0:0:0:
239,248,71036,2,0,P|283:248|325:232,1,89.9999999999999,0|8,1:0|0:0,0:0:0:0:
411,259,71703,2,0,B|405:304|397:364|396:370,2,89.9999999999999,2|8|2,1:0|1:0|1:0,0:0:0:0:
411,169,72703,1,8,1:0:0:0:
381,84,73036,6,0,B|319:50|266:42|266:42|202:69,1,180,6|0,1:0|1:0,0:0:0:0:
144,122,74036,1,8,0:0:0:0:
65,76,74370,2,0,B|29:172|89:154|66:266,1,180,2|0,1:0|1:0,0:0:0:0:
115,328,75370,1,8,0:0:0:0:
194,285,75703,6,0,P|299:260|374:305,1,180,2|0,1:0|1:0,0:0:0:0:
438,334,76703,1,8,0:0:0:0:
470,250,77036,2,0,P|466:201|460:161,1,89.9999999999999,2|8,1:0|0:0,0:0:0:0:
385,109,77703,2,0,P|341:115|281:120,1,89.9999999999999,2|8,1:0|0:0,0:0:0:0:
214,78,78370,6,0,P|114:60|67:117,1,180,6|0,1:0|1:0,0:0:0:0:
55,201,79370,1,8,0:0:0:0:
97,279,79703,2,0,P|101:327|107:387,2,89.9999999999999,2|8|0,1:0|0:0|1:0,0:0:0:0:
149,205,80703,1,8,0:0:0:0:
194,282,81036,6,0,P|238:281|283:274,1,89.9999999999999,2|8,1:0|0:0,0:0:0:0:
331,198,81703,2,0,P|375:190|420:191,1,89.9999999999999,0|8,1:0|0:0,0:0:0:0:
486,129,82370,2,0,B|496:108|501:85|501:85|493:66|473:38,2,89.9999999999999,14|14|14,0:0|0:0|0:0,0:0:0:0:
401,97,83370,1,2,1:0:0:0:
318,131,83703,6,0,B|218:157|239:93|131:132,1,180,6|0,1:0|1:0,0:0:0:0:
108,211,84703,1,10,0:0:0:0:
126,299,85036,2,0,B|159:319|178:328|178:328|249:320|309:285,1,180,2|0,1:0|1:0,0:0:0:0:
371,249,86036,1,10,0:0:0:0:
450,291,86370,6,0,P|459:251|440:191,1,89.9999999999999,6|8,1:0|0:0,0:0:0:0:
385,139,87036,2,0,P|374:95|383:52,1,89.9999999999999,0|10,1:0|0:0,0:0:0:0:
293,63,87703,2,0,B|193:89|214:25|106:64,1,180,2|14,1:0|0:1,0:0:0:0:
159,140,88703,1,8,0:0:0:0:
121,221,89036,6,0,B|105:288|125:347|125:347|151:320|171:308,1,180,6|8,1:0|0:0,0:0:0:0:
248,280,90036,1,8,0:0:0:0:
329,317,90370,2,0,B|425:281|404:345|504:319,1,180,8|8,0:0|0:0,0:0:0:0:
378,190,91703,1,6,1:0:0:0:
150,150,99703,5,4,1:0:0:0:
192,229,100036,2,0,P|148:239|105:228,2,89.9999999999999,0|0|0,1:0|1:0|1:0,0:0:0:0:
276,196,101036,2,0,B|326:181|369:178|369:178|417:196,2,135,12|12|12,1:0|0:0|0:0,0:0:0:0:
204,141,102370,1,6,1:0:0:0:
204,141,107703,5,4,1:0:0:0:
365,61,108370,2,0,P|409:57|454:60,2,89.9999999999999,0|0|0,1:0|1:0|1:0,0:0:0:0:
204,141,109703,2,0,P|200:96|203:51,2,89.9999999999999,0|0|0,1:0|1:0|1:0,0:0:0:0:
345,252,111036,2,0,P|348:207|345:162,1,89.9999999999999,0|0,1:0|1:0,0:0:0:0:
403,93,111703,2,0,B|430:82|448:78|448:78|467:80|490:85,2,89.9999999999999,0|0|8,1:0|1:0|0:0,0:0:0:0:
313,79,112703,1,8,0:0:0:0:
251,144,113036,6,0,P|256:195|261:240,1,89.9999999999999,4|8,1:0|0:0,0:0:0:0:
209,307,113703,2,0,P|159:313|109:299,1,89.9999999999999,2|8,1:0|0:0,0:0:0:0:
33,324,114370,2,0,B|23:331|2:353|2:353|-12:283|-2:212,1,180,2|2,1:0|1:0,0:0:0:0:
39,136,115370,1,8,0:0:0:0:
125,160,115703,6,0,B|221:124|200:188|300:162,1,180,2|2,1:0|1:0,0:0:0:0:
385,134,116703,1,8,0:0:0:0:
457,187,117036,2,0,P|469:230|459:281,1,89.9999999999999,2|8,1:0|0:0,0:0:0:0:
392,331,117703,2,0,P|342:329|286:324,1,89.9999999999999,2|8,1:0|0:0,0:0:0:0:
215,350,118370,5,6,1:0:0:0:
67,247,119036,2,0,B|58:225|52:207|52:207|56:181|68:158,2,89.9999999999999,2|8|2,1:0|0:0|1:0,0:0:0:0:
215,350,120370,2,0,B|224:328|230:310|230:310|226:284|216:265,2,89.9999999999999,2|8|2,1:0|0:0|1:0,0:0:0:0:
158,179,121703,2,0,P|202:163|259:171,1,89.9999999999999,2|8,1:0|0:0,0:0:0:0:
319,216,122370,2,0,B|338:283|320:350|320:350|347:332|378:321,1,180,4|8,1:0|0:0,0:0:0:0:
443,298,123370,1,0,1:0:0:0:
496,225,123703,6,0,P|514:151|427:97,1,180,4|2,1:0|1:0,0:0:0:0:
359,138,124703,1,0,1:0:0:0:
274,108,125036,2,0,B|175:78|199:138|92:110,1,180,2|2,1:0|1:0,0:0:0:0:
27,277,126370,2,0,P|74:288|115:271,1,89.9999999999999,2|0,1:0|1:0,0:0:0:0:
195,240,127036,2,0,P|242:229|283:246,1,89.9999999999999,2|0,1:0|1:0,0:0:0:0:
363,276,127703,6,0,B|389:267|411:244|411:244|408:186|371:116,1,180,2|2,1:0|1:0,0:0:0:0:
293,93,128703,1,0,1:0:0:0:
211,130,129036,2,0,B|116:160|132:96|30:132,1,180,6|2,1:0|1:0,0:0:0:0:
38,310,130370,2,0,P|126:341|186:280,1,180,2|2,1:0|1:0,0:0:0:0:
261,243,131370,1,0,1:0:0:0:
344,276,131703,5,4,1:0:0:0:
219,128,133036,2,0,B|206:106|201:86|201:86|210:64|225:38,2,89.9999999999999,8|8|0,0:0|0:0|1:0,0:0:0:0:
304,157,134036,1,0,1:0:0:0:
232,211,134370,6,0,P|184:285|240:352,1,180,4|0,1:0|1:0,0:0:0:0:
318,322,135370,1,8,0:0:0:0:
404,344,135703,2,0,P|452:274|404:205,1,180,2|0,1:0|1:0,0:0:0:0:
363,124,136703,1,8,0:0:0:0:
299,188,137036,6,0,B|279:206|252:217|252:217|190:210|120:176,1,180,2|0,1:0|1:0,0:0:0:0:
62,125,138036,1,8,0:0:0:0:
16,203,138370,2,0,B|8:229|5:246|5:246|8:266|21:303,1,89.9999999999999,2|8,1:0|0:0,0:0:0:0:
90,341,139036,2,0,P|139:336|184:332,1,89.9999999999999,0|8,1:0|0:0,0:0:0:0:
236,262,139703,6,0,P|317:228|371:290,1,180,6|0,1:0|1:0,0:0:0:0:
456,314,140703,1,8,0:0:0:0:
496,233,141036,2,0,B|524:164|504:105|504:105|481:137|456:152,1,180,2|0,1:0|1:0,2:2:0:0:
397,88,142036,1,8,0:0:0:0:
322,138,142370,6,0,P|275:137|219:122,1,89.9999999999999,2|8,1:0|0:0,0:0:0:0:
145,109,143036,2,0,P|98:110|42:125,1,89.9999999999999,0|8,1:0|0:0,0:0:0:0:
32,206,143703,2,0,P|37:248|41:297,2,89.9999999999999,2|8|2,1:0|1:0|1:0,0:0:0:0:
121,216,144703,1,8,1:0:0:0:
204,182,145036,6,0,B|238:170|276:171|276:171|298:224|263:290,1,180,6|0,1:0|1:0,0:0:0:0:
207,338,146036,1,8,0:0:0:0:
117,328,146370,2,0,B|84:321|48:338|48:338|23:286|48:220,1,180,2|0,1:0|1:0,0:0:0:0:
88,153,147370,1,8,0:0:0:0:
160,99,147703,6,0,P|239:64|326:104,1,180,2|0,1:0|1:0,0:0:0:0:
376,169,148703,1,8,0:0:0:0:
338,250,149036,2,0,P|286:259|233:260,1,89.9999999999999,2|8,1:0|0:0,0:0:0:0:
161,236,149703,2,0,P|109:227|56:226,1,89.9999999999999,2|8,1:0|0:0,0:0:0:0:
12,157,150370,6,0,B|-3:134|5:107|5:107|92:126|145:96,1,180,6|0,1:0|1:0,0:0:0:0:
215,72,151370,1,8,0:0:0:0:
291,119,151703,2,0,P|285:168|279:221,2,89.9999999999999,2|8|0,1:0|0:0|1:0,0:0:0:0:
369,74,152703,1,8,0:0:0:0:
450,111,153036,6,0,B|470:131|480:151|480:151|479:172|470:207,1,89.9999999999999,2|8,1:0|0:0,0:0:0:0:
429,268,153703,2,0,P|381:263|320:256,1,89.9999999999999,0|8,1:0|0:0,0:0:0:0:
253,286,154370,2,0,P|202:287|157:273,2,89.9999999999999,14|14|14,0:0|0:0|0:0,0:0:0:0:
271,197,155370,1,0,1:0:0:0:
226,118,155703,6,0,P|143:90|81:151,1,180,6|0,1:0|1:0,0:0:0:0:
61,235,156703,1,10,0:0:0:0:
101,315,157036,2,0,B|198:281|180:346|287:308,1,180,2|0,1:0|1:0,0:0:0:0:
360,278,158036,1,10,0:0:0:0:
443,312,158370,6,0,P|449:271|432:215,1,89.9999999999999,6|8,1:0|0:0,0:0:0:0:
365,169,159036,2,0,P|353:125|359:81,1,89.9999999999999,0|10,1:0|0:0,0:0:0:0:
274,50,159703,2,0,B|254:74|227:80|227:80|164:66|101:63,1,180,2|10,1:0|0:0,0:0:0:0:
43,129,160703,1,10,0:0:0:0:
104,194,161036,6,0,B|124:170|151:164|151:164|214:178|277:181,1,180,6|8,1:0|0:0,0:0:0:0:
354,220,162036,1,8,0:0:0:0:
424,163,162370,2,0,B|449:114|434:43|434:43|405:60|367:65,1,180,8|10,0:0|0:0,0:0:0:0:
256,193,163703,5,4,1:0:0:0:
107,167,169036,6,0,P|69:256|115:322,2,180,4|2|2,1:0|1:0|1:0,0:0:0:0:
272,238,171036,1,2,1:0:0:0:
234,61,171703,2,0,B|137:94|158:32|58:63,2,180,2|2|2,1:0|1:0|1:0,0:0:0:0:
300,298,174370,6,0,B|396:331|375:269|475:300,2,180,2|2|2,1:0|1:0|1:0,0:0:0:0:
452,201,176370,1,2,1:0:0:0:
278,154,177036,2,0,B|255:83|266:31|266:31|304:42|338:51,2,180,2|2|0,1:0|1:0|1:0,0:0:0:0:
251,240,178703,2,0,P|205:243|156:247,2,89.9999999999999,2|10|10,1:0|1:0|1:0,0:0:0:0:
340,226,179703,1,4,1:0:0:0:
69,194,184703,6,0,P|119:188|180:188,1,89.9999999999999,0|2,0:0|0:0,0:0:0:0:
416,107,186036,2,0,P|371:105|326:100,1,89.9999999999999,0|2,0:0|0:0,0:0:0:0:
69,194,187370,6,0,P|119:188|180:188,1,89.9999999999999,0|2,0:0|0:0,0:0:0:0:
416,107,188703,2,0,P|371:105|326:100,1,89.9999999999999,0|0,0:0|0:0,0:0:0:0:
166,183,189703,1,0,1:0:0:0:
58,38,190370,6,0,B|22:134|84:121|60:213,1,180,4|10,1:0|0:0,0:0:0:0:
180,347,191703,2,0,P|226:343|289:338,1,89.9999999999999,2|0,1:0|0:0,0:0:0:0:
348,296,192370,1,10,0:0:0:0:
210,79,193036,6,0,P|183:190|241:207,1,180,2|10,1:0|0:0,0:0:0:0:
387,140,194370,2,0,P|428:132|486:141,2,89.9999999999999,2|2|10,1:0|1:0|0:0,0:0:0:0:
302,298,195703,6,0,B|394:322|381:260|477:296,1,180,6|8,1:0|0:0,0:0:0:0:
333,188,197036,2,0,P|286:183|235:205,1,89.9999999999999,2|2,1:0|1:0,0:0:0:0:
168,241,197703,1,10,0:0:0:0:
64,95,198370,6,0,B|79:123|104:134|104:134|162:105|243:106,1,180,2|8,1:0|0:0,0:0:0:0:
398,145,199703,2,0,P|403:98|409:50,2,89.9999999999999,2|8|0,1:0|0:0|1:0,0:0:0:0:
351,222,200703,1,8,0:0:0:0:
268,186,201036,6,0,P|186:159|106:213,1,180,4|8,1:0|0:0,0:0:0:0:
67,284,202036,1,8,0:0:0:0:
120,356,202370,2,0,P|173:351|222:344,1,89.9999999999999,8|8,0:0|0:0,0:0:0:0:
293,314,203036,2,0,P|346:319|395:326,1,89.9999999999999,8|8,0:0|0:0,0:0:0:0:
461,280,203703,6,0,P|475:242|461:188,1,89.9999999999999,4|8,1:0|0:0,0:0:0:0:
421,115,204370,2,0,P|369:121|314:125,1,89.9999999999999,8|8,0:0|0:0,0:0:0:0:
248,159,205036,2,0,P|245:109|238:60,1,89.9999999999999,8|8,0:0|0:0,0:0:0:0:
155,37,205703,2,0,P|99:44|61:53,1,89.9999999999999,8|8,0:0|0:0,0:0:0:0:
40,138,206370,6,0,B|15:201|22:255|22:255|53:247|97:253,1,180,4|8,1:0|0:0,0:0:0:0:
163,290,207370,1,8,0:0:0:0:
242,248,207703,2,0,P|288:242|346:244,1,89.9999999999999,8|8,0:0|0:0,0:0:0:0:
410,285,208370,2,0,P|416:244|403:184,1,89.9999999999999,8|8,0:0|0:0,0:0:0:0:
354,123,209036,6,0,B|258:155|280:89|177:130,1,180,12|8,1:0|0:0,0:0:0:0:
138,209,210036,1,8,0:0:0:0:
204,270,210370,2,0,P|242:274|301:247,2,89.9999999999999,8|8|8,0:0|0:0|1:0,0:0:0:0:
159,348,211370,1,8,1:0:0:0:
79,305,211703,6,0,P|70:219|60:118,1,180,6|2,1:0|1:0,0:0:0:0:
106,48,212703,1,0,1:0:0:0:
190,79,213036,2,0,B|258:105|312:110|312:110|341:96|371:71,1,180,2|2,1:0|1:0,0:0:0:0:
446,65,214036,1,0,1:0:0:0:
493,141,214370,6,0,P|511:240|455:285,1,180,6|2,1:0|1:0,0:0:0:0:
369,262,215370,1,0,1:0:0:0:
293,310,215703,2,0,B|196:339|216:275|101:317,1,180,2|2,1:0|1:0,0:0:0:0:
44,258,216703,1,0,0:0:0:0:
98,186,217036,6,0,P|97:144|88:89,1,89.9999999999999,6|0,1:0|1:0,0:0:0:0:
165,47,217703,2,0,P|211:52|262:58,1,89.9999999999999,2|0,1:0|1:0,0:0:0:0:
327,109,218370,2,0,B|343:173|329:229|329:229|297:216|258:213,1,180,2|2,1:0|1:0,0:0:0:0:
182,225,219370,1,0,1:0:0:0:
256,192,219703,12,4,222370,1:0:0:0:
230,111,231703,6,0,P|183:114|136:119,2,89.9999999999999,0|0|10,1:0|0:0|0:0,0:0:0:0:
307,157,232703,1,12,0:0:0:0:
285,244,233036,6,0,B|242:263|171:276|171:276|140:269|103:250,1,180,6|0,1:0|1:0,0:0:0:0:
72,174,234036,1,8,0:0:0:0:
103,89,234370,2,0,B|146:70|217:57|217:57|248:64|285:83,1,180,2|0,1:0|1:0,0:0:0:0:
345,133,235370,1,8,0:0:0:0:
331,221,235703,6,0,B|313:289|331:346|331:346|336:333|392:322,1,180,2|0,1:0|1:0,0:0:0:0:
462,293,236703,1,8,0:0:0:0:
480,205,237036,2,0,P|484:154|488:95,1,89.9999999999999,2|8,1:0|0:0,0:0:0:0:
421,53,237703,2,0,P|370:57|311:61,1,89.9999999999999,2|8,1:0|0:0,0:0:0:0:
263,119,238370,6,0,P|174:148|129:76,1,180,4|0,1:0|1:0,0:0:0:0:
43,59,239370,1,8,0:0:0:0:
28,147,239703,2,0,P|36:238|44:333,1,180,2|0,1:0|1:0,0:0:0:0:
127,294,240703,1,8,0:0:0:0:
203,341,241036,6,0,P|255:335|310:330,2,89.9999999999999,4|8|4,1:0|0:0|1:0,0:0:0:0:
208,250,242036,1,8,0:0:0:0:
143,187,242370,2,0,P|137:135|132:80,2,89.9999999999999,14|6|14,0:0|1:0|0:0,0:0:0:0:
124,275,243370,1,8,0:0:0:0:
179,346,243703,6,0,B|276:317|262:375|372:333,1,180,6|0,1:0|1:0,0:0:0:0:
438,302,244703,1,10,0:0:0:0:
369,243,245036,2,0,P|341:157|381:68,1,180,2|0,1:0|1:0,0:0:0:0:
289,40,246036,1,10,0:0:0:0:
225,104,246370,6,0,P|180:111|135:108,1,89.9999999999999,6|8,1:0|0:0,0:0:0:0:
67,166,247036,2,0,P|59:210|62:255,1,89.9999999999999,0|10,1:0|0:0,0:0:0:0:
120,324,247703,6,0,B|179:354|245:351|245:351|276:330|290:306,1,180,2|10,1:0|0:0,0:0:0:0:
346,253,248703,1,8,0:0:0:0:
311,170,249036,2,0,P|231:131|140:162,1,180,6|8,1:0|0:0,0:0:0:0:
61,130,250036,2,0,P|56:84|51:31,2,89.9999999999999,8|8|8,0:0|0:0|0:0,0:0:0:0:
256,192,251036,12,6,253036,1:0:0:0:
45,312,258370,6,0,P|87:304|151:309,1,89.9999999999999,6|8,1:0|0:0,0:0:0:0:
218,274,259036,2,0,P|260:282|324:277,1,89.9999999999999,0|8,1:0|0:0,0:0:0:0:
384,233,259703,2,0,P|420:157|374:77,1,180,2|8,1:0|0:0,0:0:0:0:
291,107,260703,1,0,1:0:0:0:
209,78,261036,5,6,1:0:0:0:
256,192,261382,12,10,264546,0:0:0:0:
256,192,266759,12,0,272981,0:0:0:0:
