osu file format v14

[General]
AudioFilename: audio.mp3
AudioLeadIn: 0
PreviewTime: 61953
Countdown: 0
SampleSet: Soft
StackLeniency: 0.5
Mode: 0
LetterboxInBreaks: 0
WidescreenStoryboard: 0

[Editor]
Bookmarks: 62370,83703,91703,99703,102370,107703,134370,155703,163703,169036,184703,211703,222370,233036,253036,266759,272716
DistanceSpacing: 1.8
BeatDivisor: 4
GridSize: 32
TimelineZoom: 3.799999

[Metadata]
Title:Ashita wa Kimi to.
TitleUnicode:明日は君と。
Artist:Asakura Momo
ArtistUnicode:麻倉もも
Creator:domSaur
Version:Dubturt's Insane.
Source:
Tags:花に赤い糸 hana ni akai ito honeyworks dubturt walaowey j_a_c_k jack kyle y kyle_y
BeatmapID:1579454
BeatmapSetID:748013

[Difficulty]
HPDrainRate:5.5
CircleSize:3.8
OverallDifficulty:7
ApproachRate:8.8
SliderMultiplier:1.6
SliderTickRate:1

[Events]
//Background and Video events
0,0,"mocho.png",0,0
//Break Periods
2,91903,99074
2,102569,107074
2,163903,168407
2,179903,184074
2,222570,231074
//Storyboard Layer 0 (Background)
//Storyboard Layer 1 (Fail)
//Storyboard Layer 2 (Pass)
//Storyboard Layer 3 (Foreground)
//Storyboard Sound Samples

[TimingPoints]
1037,333.333333333333,4,2,0,30,1,0
1037,-153.846153846154,4,2,0,30,0,0
6703,-153.846153846154,4,2,0,5,0,0
6786,-153.846153846154,4,2,0,30,0,0
10370,-153.846153846154,4,2,1,30,0,0
11703,-133.333333333334,4,2,1,40,0,0
19036,-133.333333333333,4,2,1,40,0,0
19536,-133.333333333333,4,2,1,40,0,0
19703,-125,4,2,1,60,0,0
30370,-125,4,2,1,50,0,0
39703,-100,4,2,1,60,0,0
41036,-117.647058823529,4,2,1,55,0,0
51703,-133.333333333333,4,2,1,60,0,0
51786,-133.333333333333,4,2,1,50,0,0
59703,-200,4,2,1,45,0,0
61036,-117.647058823529,4,2,1,65,0,0
62370,-100,4,2,1,70,0,1
72703,-100,4,2,1,65,0,0
73036,-100,4,2,1,70,0,1
83370,-100,4,2,1,65,0,0
83703,-100,4,2,1,70,0,0
83786,-100,4,2,1,65,0,0
85036,-100,4,2,1,70,0,0
85120,-100,4,2,1,65,0,0
99703,-100,4,2,1,65,0,0
102370,-133.333333333333,4,2,1,30,0,0
107703,-133.333333333333,4,2,1,50,0,0
111703,-100,4,2,1,60,0,0
113036,-117.647058823529,4,2,1,55,0,0
123703,-133.333333333333,4,2,1,65,0,0
123786,-133.333333333333,4,2,1,50,0,0
131703,-200,4,2,1,45,0,0
133036,-100,4,2,1,65,0,0
134370,-100,4,2,1,70,0,1
144703,-100,4,2,1,65,0,0
145036,-100,4,2,1,70,0,1
155370,-100,4,2,1,65,0,0
155703,-100,4,2,1,70,0,0
155786,-100,4,2,1,65,0,0
157036,-100,4,2,1,70,0,0
157120,-100,4,2,1,65,0,0
163703,-100,4,2,1,65,0,0
169036,-153.846153846154,4,2,1,30,0,0
178370,-153.846153846154,4,2,1,60,0,0
178870,-153.846153846154,4,2,1,70,0,0
179786,-153.846153846154,4,2,1,30,0,0
189703,-666.666666666667,4,2,2,65,0,0
190370,-166.666666666667,4,2,1,40,0,0
200036,-100,4,2,1,60,0,0
201036,-100,4,2,1,65,0,0
211703,-133.333333333333,4,2,1,60,0,0
211786,-133.333333333333,4,2,1,50,0,0
219703,-200,4,2,1,45,0,0
221036,-133.333333333333,4,2,0,50,0,0
222370,-133.333333333333,4,2,1,50,0,0
231703,-100,4,2,1,65,0,0
233036,-100,4,2,1,70,0,1
243370,-100,4,2,1,65,0,0
243703,-100,4,2,1,70,0,0
243786,-100,4,2,1,65,0,0
245036,-100,4,2,1,70,0,0
245120,-100,4,2,1,65,0,0
253036,-133.333333333333,4,2,1,60,0,0
257870,-100,4,2,1,60,0,0
258370,-100,4,2,1,60,0,0
261036,346.820809248555,4,2,1,70,1,0
262637,468.75,4,2,1,60,1,0
263655,800,4,2,1,55,1,0
264055,983.606557377049,4,2,1,50,1,0
264546,2162.16216216216,4,2,1,45,1,0
266759,2105.26315789474,4,2,1,60,1,0
268876,437.956204379562,4,2,1,50,1,0
269313,483.870967741935,4,2,1,50,1,0
269796,530.973451327434,4,2,1,50,1,0
272716,-100,4,2,1,5,0,0

[Colours]
Combo1 : 208,240,100
Combo2 : 239,150,97
Combo3 : 252,133,163
Combo4 : 173,209,228

[HitObjects]
334,333,1037,6,0,P|389:337|439:331,2,103.999995239258,2|0|0,0:0|0:0|0:0,0:0:0:0:
259,287,1870,1,0,0:0:0:0:
197,230,2036,2,0,P|166:227|141:229,1,51.999997619629,0|0,0:0|0:0,0:0:0:0:
259,287,2370,2,0,P|255:228|263:167,2,103.999995239258,2|0|0,0:0|0:0|0:0,0:0:0:0:
155,372,3370,2,0,P|156:325|154:296,1,51.999997619629,0|0,0:0|0:0,0:0:0:0:
108,245,3703,6,0,P|55:237|6:248,2,103.999995239258,2|0|0,0:0|0:0|0:0,0:0:0:0:
191,232,4536,1,0,0:0:0:0:
261,186,4703,2,0,P|261:147|258:122,1,51.999997619629,0|0,0:0|0:0,0:0:0:0:
191,232,5036,2,0,P|188:277|199:350,2,103.999995239258,2|0|0,0:0|0:0|0:0,0:0:0:0:
111,120,6036,2,0,P|112:160|109:192,1,51.999997619629,0|0,0:0|0:0,0:0:0:0:
27,76,6370,6,0,P|115:82|235:80,1,207.999990478516,2|0,0:0|0:0,0:0:0:0:
91,155,7370,2,0,P|138:157|163:154,1,51.999997619629,0|0,0:0|0:0,0:0:0:0:
239,186,7703,6,0,P|189:193|151:249,2,103.999995239258,2|0|0,0:0|0:0|0:0,0:0:0:0:
336,265,8703,2,0,P|371:266|403:267,1,51.999997619629,0|0,0:0|0:0,0:0:0:0:
463,213,9036,2,0,L|473:141,1,51.999997619629,2|0,0:0|0:0,0:0:0:0:
380,98,9370,2,0,L|390:170,1,51.999997619629,0|0,0:0|0:0,0:0:0:0:
468,64,9703,1,0,0:0:0:0:
318,36,9870,2,0,P|301:70|309:149,1,103.999995239258,0|0,0:0|0:0,0:0:0:0:
302,134,10286,1,0,0:0:0:0:
302,134,10370,5,2,0:0:0:0:
193,336,11036,1,2,0:0:0:0:
193,336,11370,2,0,L|125:340,1,51.999997619629,0|0,0:0|0:0,0:0:0:0:
193,336,11703,6,0,L|336:340,2,120.000004577637,2|2|2,0:0|0:0|0:0,0:0:0:0:
339,260,12703,2,0,L|416:264,1,60.0000022888184,0|0,0:0|0:0,0:0:0:0:
301,196,13036,6,0,L|292:339,2,120.000004577637,2|2|2,0:0|0:0|0:0,0:0:0:0:
193,336,14036,2,0,L|192:269,1,60.0000022888184,0|0,0:0|0:0,0:0:0:0:
91,231,14370,6,0,L|106:306,1,60.0000022888184,2|0,0:0|0:0,0:0:0:0:
156,180,14703,1,0,0:0:0:0:
156,180,14870,2,0,P|114:154|37:168,2,120.000004577637,0|0|0,0:0|0:0|0:0,0:0:0:0:
207,250,15703,6,0,P|203:182|212:117,1,120.000004577637,2|2,0:0|0:0,0:0:0:0:
358,9,16370,2,0,P|362:77|353:142,1,120.000004577637,2|2,0:0|0:0,0:0:0:0:
210,56,17036,6,0,P|159:68|132:144,2,120.000004577637,2|0|0,0:0|0:0|0:0,0:0:0:0:
268,198,18036,2,0,P|309:200|333:197,1,60.0000022888184,0|0,0:0|0:0,0:0:0:0:
268,198,18370,6,0,P|217:196|126:208,1,120.000004577637,2|0,0:0|0:0,0:0:0:0:
395,9,19036,2,0,P|393:100|397:189,1,180.000006866455,2|8,0:1|0:0,0:0:0:0:
412,229,19620,1,8,0:0:0:0:
412,229,19703,6,0,P|365:227|326:237,1,64,4|0,1:0|0:0,0:0:0:0:
221,168,20036,2,0,P|268:170|307:160,1,64,0|2,1:0|0:0,0:0:0:0:
252,90,20370,1,0,1:0:0:0:
255,255,20536,1,8,0:0:0:0:
252,90,20703,1,0,1:0:0:0:
252,90,21036,6,0,L|161:90,1,64,4|0,1:0|0:0,0:0:0:0:
332,166,21370,2,0,L|377:87,1,64,2|0,1:2|0:0,0:0:0:0:
222,199,21703,2,0,L|267:277,1,64,2|0,1:2|0:0,0:0:0:0:
252,90,22036,1,2,1:2:0:0:
252,90,22370,6,0,P|314:80|391:102,1,128,6|0,1:0|1:0,0:0:0:0:
453,159,22870,1,2,0:0:0:0:
277,215,23036,1,0,1:0:0:0:
366,118,23203,1,8,0:0:0:0:
373,249,23370,2,0,P|373:293|374:329,1,64,8|0,1:2|0:0,0:0:0:0:
247,209,23703,6,0,P|248:153|243:122,1,64,6|0,1:0|0:0,0:0:0:0:
124,229,24036,2,0,P|123:285|128:316,1,64,2|8,1:0|0:0,0:0:0:0:
210,363,24370,1,6,1:0:0:0:
356,225,24536,1,0,1:0:0:0:
244,265,24703,1,10,0:0:0:0:
344,348,24870,1,8,0:0:0:0:
344,348,24953,1,8,0:0:0:0:
344,348,25036,6,0,L|434:350,1,64,6|0,1:0|0:0,0:0:0:0:
499,285,25370,1,8,0:0:0:0:
394,201,25536,2,0,L|389:153,2,32,2|8|0,0:0|0:0|1:0,0:0:0:0:
499,285,25870,1,2,1:0:0:0:
344,348,26036,2,0,L|335:261,1,64,8|0,0:0|0:0,0:0:0:0:
234,164,26370,6,0,L|229:254,1,64,2|0,1:0|0:0,0:0:0:0:
317,136,26703,1,8,0:0:0:0:
230,57,26870,2,0,P|187:55|171:57,2,32,2|8|0,0:0|0:0|1:0,0:0:0:0:
317,136,27203,2,0,P|360:138|376:136,2,32,2|8|8,0:0|0:0|0:0,0:0:0:0:
221,218,27536,1,0,0:0:0:0:
112,114,27703,5,6,1:0:0:0:
112,114,28036,5,0,1:0:0:0:
121,278,28203,1,0,1:0:0:0:
195,180,28370,1,0,1:0:0:0:
39,205,28536,1,0,1:0:0:0:
236,353,28703,5,0,1:0:0:0:
193,153,28870,1,8,0:0:0:0:
109,299,29037,1,0,1:0:0:0:
292,243,29203,1,8,0:0:0:0:
110,171,29370,5,0,1:0:0:0:
312,255,29536,1,8,0:0:0:0:
164,98,29703,5,0,1:0:0:0:
301,155,29869,1,8,0:0:0:0:
166,3,30036,5,0,1:0:0:0:
368,87,30202,1,8,0:0:0:0:
100,97,30370,6,0,L|185:98,1,64,6|0,1:0|0:0,0:0:0:0:
301,155,30703,2,0,L|220:155,1,64,0|0,1:0|0:0,0:0:0:0:
383,210,31036,2,0,P|379:248|386:291,1,64,0|0,1:0|0:0,0:0:0:0:
320,343,31370,2,0,P|271:345|241:340,1,64,0|0,1:0|0:0,0:0:0:0:
165,309,31703,6,0,P|110:310|43:366,2,128,2|0|0,1:2|1:0|1:0,0:0:0:0:
165,309,32703,2,0,L|165:233,1,64,0|0,1:0|0:0,0:0:0:0:
224,106,33036,6,0,P|263:99|308:114,1,64,2|0,1:2|0:0,0:0:0:0:
373,184,33370,2,0,P|334:191|289:176,1,64,0|0,1:0|0:0,0:0:0:0:
446,77,33703,2,0,L|456:150,1,64,0|0,1:0|0:0,0:0:0:0:
364,247,34036,2,0,L|374:174,1,64,0|0,1:0|0:0,0:0:0:0:
452,248,34370,6,0,L|463:384,2,128,2|0|0,1:2|1:0|1:0,0:0:0:0:
452,248,35370,2,0,L|361:257,1,64,0|0,1:0|0:0,0:0:0:0:
262,353,35703,6,0,P|275:321|264:207,1,128,2|0,1:2|1:0,0:0:0:0:
209,180,36203,1,0,0:0:0:0:
144,127,36370,1,0,1:0:0:0:
174,49,36536,1,0,0:0:0:0:
257,54,36703,1,0,1:0:0:0:
278,134,36870,1,0,0:0:0:0:
209,180,37036,6,0,P|141:180|57:182,1,128,2|0,1:0|1:0,0:0:0:0:
18,96,37536,1,0,0:0:0:0:
18,96,37703,2,0,B|60:95|93:96,1,64,0|0,1:0|0:0,0:0:0:0:
209,180,38036,2,0,B|167:181|134:180,1,64,0|0,1:0|0:0,0:0:0:0:
245,116,38370,6,0,P|245:178|249:260,1,128,2|0,1:0|1:0,0:0:0:0:
322,109,38870,1,0,0:0:0:0:
263,41,39037,1,0,1:0:0:0:
181,73,39203,1,0,0:0:0:0:
187,162,39370,1,0,1:0:0:0:
273,183,39537,1,0,0:0:0:0:
322,109,39703,6,0,P|380:106|417:113,1,80,8|0,0:0|0:0,0:0:0:0:
228,261,40036,2,0,P|170:264|133:257,1,80,12|0,0:0|0:0,0:0:0:0:
273,183,40370,1,8,1:0:0:0:
355,253,40536,1,0,0:0:0:0:
355,253,40620,1,8,0:0:0:0:
355,253,40703,2,0,L|357:343,1,80,0|8,1:0|0:0,0:0:0:0:
224,241,41036,6,0,P|226:193|219:75,1,136.000002593994,6|8,1:0|0:0,0:0:0:0:
136,50,41536,2,0,P|96:50|76:53,2,34.0000006484985,0|8|2,0:0|0:0|1:0,0:0:0:0:
222,105,41870,1,0,1:0:0:0:
310,67,42036,2,0,P|313:28|308:-13,1,68.0000012969971,8|0,0:0|0:0,0:0:0:0:
199,122,42370,6,0,P|196:161|201:202,1,68.0000012969971,2|0,1:0|0:0,0:0:0:0:
263,259,42703,1,8,0:0:0:0:
132,240,42870,1,0,0:0:0:0:
132,240,42953,1,8,0:0:0:0:
132,240,43036,2,0,L|125:340,1,68.0000012969971,2|0,1:0|1:0,0:0:0:0:
277,353,43370,2,0,L|284:253,1,68.0000012969971,8|0,0:0|0:0,0:0:0:0:
198,189,43703,6,0,P|143:196|49:192,1,136.000002593994,2|8,1:0|0:0,0:0:0:0:
150,102,44203,1,0,0:0:0:0:
150,102,44286,1,8,0:0:0:0:
150,102,44370,2,0,P|198:101|240:94,1,68.0000012969971,2|0,1:0|1:0,0:0:0:0:
309,151,44703,2,0,P|310:197|308:235,1,68.0000012969971,8|0,0:0|0:0,0:0:0:0:
190,312,45036,6,0,P|207:263|238:228,1,68.0000012969971,2|0,1:0|0:0,0:0:0:0:
273,320,45370,1,8,0:0:0:0:
124,243,45536,1,0,0:0:0:0:
124,243,45620,1,8,0:0:0:0:
124,243,45703,2,0,L|26:253,1,68.0000012969971,2|0,1:0|1:0,0:0:0:0:
138,152,46036,2,0,L|236:162,1,68.0000012969971,8|0,0:0|0:0,0:0:0:0:
124,243,46370,6,0,P|124:196|116:83,1,136.000002593994,2|8,1:0|0:0,0:0:0:0:
203,17,46870,1,0,0:0:0:0:
203,17,46953,1,8,0:0:0:0:
203,17,47036,2,0,P|204:66|210:111,1,68.0000012969971,0|0,1:0|1:0,0:0:0:0:
299,160,47370,2,0,P|301:126|301:92,1,68.0000012969971,8|0,0:0|0:0,0:0:0:0:
229,200,47703,6,0,P|278:195|391:208,1,136.000002593994,2|8,1:0|0:0,0:0:0:0:
461,256,48203,1,0,0:0:0:0:
461,256,48286,1,8,0:0:0:0:
461,256,48370,1,0,1:0:0:0:
349,294,48536,1,0,1:0:0:0:
435,153,48703,1,8,0:0:0:0:
318,123,48870,1,0,0:0:0:0:
379,215,49036,6,0,P|377:132|382:59,1,136.000002593994,2|12,1:0|0:0,0:0:0:0:
278,193,49536,1,0,0:0:0:0:
278,193,49619,1,8,0:0:0:0:
278,193,49703,2,0,P|281:234|281:261,1,68.0000012969971,4|0,1:0|1:0,0:0:0:0:
148,284,50036,2,0,P|174:244|201:222,1,68.0000012969971,8|0,0:0|0:0,0:0:0:0:
225,368,50370,6,0,L|145:376,1,68.0000012969971,2|0,1:0|1:0,0:0:0:0:
281,260,50703,2,0,L|361:268,1,68.0000012969971,10|0,0:0|1:0,0:0:0:0:
442,331,51036,1,10,0:0:0:0:
488,230,51203,1,8,0:0:0:0:
488,230,51286,1,8,0:0:0:0:
488,230,51370,2,0,L|494:137,1,68.0000012969971,0|0,1:0|0:0,0:0:0:0:
390,54,51703,6,0,L|410:198,2,120.000004577637,4|0|2,1:0|1:0|1:0,0:0:0:0:
295,35,52536,1,0,0:0:0:0:
295,35,52703,2,0,P|297:76|294:122,1,60.0000022888184,0|0,1:0|0:0,0:0:0:0:
283,122,52953,1,0,0:0:0:0:
283,122,53036,6,0,P|237:128|139:120,2,120.000004577637,2|0|2,1:0|1:0|1:0,0:0:0:0:
381,92,53870,1,0,0:0:0:0:
381,92,54036,2,0,L|383:161,1,60.0000022888184,0|0,1:0|0:0,0:0:0:0:
382,182,54286,1,0,0:0:0:0:
382,182,54370,6,0,L|392:265,1,60.0000022888184,2|0,1:0|0:0,0:0:0:0:
291,146,54703,2,0,L|281:229,1,60.0000022888184,0|0,1:0|0:0,0:0:0:0:
277,238,54953,1,0,0:0:0:0:
277,238,55036,2,0,P|242:235|153:239,1,120.000004577637,2|0,1:0|1:0,0:0:0:0:
68,187,55536,1,0,0:0:0:0:
68,187,55620,1,0,0:0:0:0:
68,187,55703,5,2,1:0:0:0:
242,18,56036,1,0,1:0:0:0:
155,40,56203,1,0,0:0:0:0:
221,100,56370,2,0,L|224:178,1,60.0000022888184,2|0,1:0|0:0,0:0:0:0:
164,236,56703,1,0,1:0:0:0:
232,312,56870,1,0,0:0:0:0:
232,312,56953,1,0,0:0:0:0:
232,312,57036,6,0,P|288:309|354:313,1,120.000004577637,6|0,1:0|1:0,0:0:0:0:
456,228,57537,1,0,0:0:0:0:
456,228,57620,1,0,0:0:0:0:
456,228,57703,2,0,P|400:221|334:220,1,120.000004577637,2|0,1:0|1:0,0:0:0:0:
248,189,58203,1,0,0:0:0:0:
248,189,58370,6,0,L|242:108,1,60.0000022888184,2|0,1:0|0:0,0:0:0:0:
146,196,58703,2,0,L|176:266,1,60.0000022888184,0|0,1:0|0:0,0:0:0:0:
182,278,58953,1,0,0:0:0:0:
182,278,59036,2,0,P|226:276|264:279,1,60.0000022888184,2|0,1:0|0:0,0:0:0:0:
128,366,59370,2,0,P|84:368|46:365,1,60.0000022888184,0|0,1:0|0:0,0:0:0:0:
242,277,59703,6,0,P|289:294|395:140,1,280,6|0,1:0|0:0,0:0:0:0:
310,60,61036,6,0,L|399:66,1,68.0000012969971,8|0,0:0|1:0,0:0:0:0:
180,232,61370,2,0,L|91:238,1,68.0000012969971,8|8,0:0|0:0,0:0:0:0:
221,111,61703,1,0,1:0:0:0:
310,212,61870,1,0,0:0:0:0:
342,222,61953,1,8,0:0:0:0:
375,225,62036,1,0,1:0:0:0:
409,221,62120,1,0,0:0:0:0:
442,215,62203,1,0,0:0:0:0:
473,202,62286,1,8,0:0:0:0:
501,189,62370,6,0,P|504:144|497:21,2,160,6|8|0,1:0|0:0|1:0,0:0:0:0:
431,293,63203,1,0,0:0:0:0:
338,214,63370,2,0,P|288:211|237:226,1,80,8|0,0:0|0:0,0:0:0:0:
203,321,63703,6,0,P|214:277|194:133,1,160,2|8,1:0|0:0,0:0:0:0:
135,89,64204,1,0,0:0:0:0:
85,190,64370,2,0,P|39:199|7:194,1,80,0|0,1:0|0:0,0:0:0:0:
135,89,64703,1,8,0:0:0:0:
164,246,64870,1,0,0:0:0:0:
216,93,65036,6,0,P|201:44|88:15,1,160,2|8,1:0|0:0,0:0:0:0:
11,79,65536,1,0,0:0:0:0:
79,164,65703,2,0,P|82:209|82:251,1,80,0|0,1:0|0:0,0:0:0:0:
91,364,66036,1,8,0:0:0:0:
178,291,66203,1,0,0:0:0:0:
263,209,66370,6,0,L|361:207,1,80,2|0,1:0|0:0,0:0:0:0:
214,115,66703,2,0,L|166:200,1,80,8|0,0:0|0:0,0:0:0:0:
311,117,67036,2,0,L|275:57,2,40,0|8|0,1:0|0:0|0:0,0:0:0:0:
263,289,67370,2,0,L|263:184,1,80,8|0,0:0|0:0,0:0:0:0:
389,126,67703,6,0,P|314:118|290:105,1,80,6|0,1:0|0:0,0:0:0:0:
452,65,68036,2,0,P|472:110|474:152,1,80,8|0,0:0|0:0,0:0:0:0:
397,285,68370,2,0,P|377:240|375:198,1,80,0|0,1:0|0:0,0:0:0:0:
493,269,68703,1,8,0:0:0:0:
369,363,68870,1,0,0:0:0:0:
293,221,69036,6,0,P|298:172|407:132,2,160,2|8|0,1:0|0:0|1:0,0:0:0:0:
217,324,69870,1,0,0:0:0:0:
175,239,70036,2,0,P|136:232|89:246,1,80,8|0,0:0|0:0,0:0:0:0:
217,324,70370,6,0,L|218:156,1,160,2|8,1:0|0:0,0:0:0:0:
260,70,70870,1,0,0:0:0:0:
309,229,71036,2,0,L|309:313,1,80,0|0,1:0|0:0,0:0:0:0:
217,164,71370,1,8,0:0:0:0:
370,140,71536,1,0,0:0:0:0:
260,70,71703,6,0,P|258:36|260:14,2,40,2|8|8,1:0|0:0|0:0,0:0:0:0:
197,186,72036,2,0,P|148:196|97:179,1,80,8|0,1:0|0:0,0:0:0:0:
81,213,72286,1,8,0:0:0:0:
81,213,72370,2,0,P|91:262|74:313,1,80,2|0,1:0|0:0,0:0:0:0:
118,319,72620,1,8,0:0:0:0:
118,319,72703,2,0,P|167:309|218:326,1,80,8|0,1:0|0:0,0:0:0:0:
220,286,72953,1,8,0:0:0:0:
220,286,73036,6,0,P|214:236|223:106,2,160,6|8|0,1:0|0:0|1:0,0:0:0:0:
318,357,73870,1,0,0:0:0:0:
400,228,74036,2,0,P|352:233|313:268,1,80,8|0,0:0|0:0,0:0:0:0:
444,321,74370,6,0,P|441:270|446:126,1,160,2|8,1:0|0:0,0:0:0:0:
368,70,74870,1,0,0:0:0:0:
250,179,75036,2,0,P|293:192|332:189,1,80,0|0,1:0|0:0,0:0:0:0:
247,67,75370,1,8,0:0:0:0:
220,180,75536,1,0,0:0:0:0:
176,290,75703,6,0,L|7:316,2,160,2|8|0,1:0|0:0|1:0,0:0:0:0:
261,352,76536,1,0,0:0:0:0:
140,211,76703,2,0,L|57:223,1,80,8|0,0:0|0:0,0:0:0:0:
194,127,77036,6,0,P|235:169|243:205,1,80,2|0,1:0|0:0,0:0:0:0:
140,211,77370,1,8,0:0:0:0:
242,56,77536,1,0,0:0:0:0:
242,56,77620,1,8,0:0:0:0:
242,56,77703,2,0,L|334:52,1,80,2|0,1:0|0:0,0:0:0:0:
403,159,78036,2,0,L|310:132,1,80,8|0,0:0|0:0,0:0:0:0:
453,71,78370,6,0,P|450:149|454:250,2,160,6|8|0,1:0|0:0|1:0,0:0:0:0:
371,18,79203,1,0,0:0:0:0:
369,151,79370,2,0,P|370:206|373:240,1,80,8|0,0:0|0:0,0:0:0:0:
445,323,79703,6,0,P|414:294|291:299,2,160,2|8|0,1:0|0:0|1:0,0:0:0:0:
512,243,80536,1,0,0:0:0:0:
429,130,80703,2,0,L|427:224,1,80,8|0,0:0|0:0,0:0:0:0:
503,74,81036,6,0,P|437:79|321:72,1,160,2|8,1:0|0:0,0:0:0:0:
244,10,81536,1,0,0:0:0:0:
171,84,81703,2,0,P|166:138|179:174,1,80,0|0,1:0|0:0,0:0:0:0:
292,257,82036,2,0,P|297:203|284:167,1,80,8|0,0:0|0:0,0:0:0:0:
292,257,82370,6,0,L|400:269,1,80,14|0,0:0|1:0,0:0:0:0:
171,84,82703,2,0,L|63:96,1,80,14|0,0:0|1:0,0:0:0:0:
277,335,83036,2,0,L|293:247,1,80,14|8,0:0|0:0,0:0:0:0:
185,5,83370,2,0,L|169:93,1,80,2|8,1:0|0:0,0:0:0:0:
122,327,83703,6,0,P|168:315|289:341,1,160,6|8,1:0|0:0,0:0:0:0:
209,230,84203,1,2,0:0:0:0:
209,230,84286,1,8,0:0:0:0:
209,230,84370,2,0,L|209:133,1,80,0|0,1:0|1:0,0:0:0:0:
329,94,84703,2,0,L|300:183,1,80,10|0,0:0|0:0,0:0:0:0:
266,34,85036,6,0,P|335:47|445:53,1,160,2|8,1:0|0:0,0:0:0:0:
312,177,85536,1,2,0:0:0:0:
312,177,85620,1,8,0:0:0:0:
312,177,85703,2,0,L|322:264,1,80,0|0,1:0|1:0,0:0:0:0:
272,351,86036,1,10,0:0:0:0:
208,218,86203,1,0,0:0:0:0:
162,320,86370,6,0,P|112:328|-2:323,1,160,6|8,1:0|0:0,0:0:0:0:
216,225,86870,1,2,0:0:0:0:
216,225,86953,1,8,0:0:0:0:
216,225,87036,2,0,P|255:223|305:226,1,80,0|0,1:0|1:0,0:0:0:0:
178,122,87370,2,0,P|139:120|86:125,1,80,10|0,0:0|0:0,0:0:0:0:
185,33,87703,6,0,P|250:67|256:169,1,160,2|12,1:0|0:1,0:0:0:0:
178,122,88203,1,0,1:0:0:0:
307,68,88370,2,0,L|391:76,1,80,14|0,0:1|0:0,0:0:0:0:
417,107,88620,1,8,0:0:0:0:
417,107,88703,2,0,P|418:156|426:205,1,80,8|0,0:0|0:0,0:0:0:0:
360,284,89036,6,0,P|345:240|249:188,1,160,6|8,1:0|0:0,0:0:0:0:
265,287,89536,1,0,1:0:0:0:
196,132,89703,2,0,P|173:184|179:224,1,80,8|0,0:0|1:0,0:0:0:0:
238,54,90036,2,0,P|181:45|144:62,1,80,8|0,0:0|1:0,0:0:0:0:
314,126,90370,5,8,0:0:0:0:
418,226,90536,1,8,0:0:0:0:
418,226,90620,1,8,0:0:0:0:
418,226,90703,2,0,L|423:130,1,80,8|0,0:0|1:0,0:0:0:0:
323,298,91036,6,0,B|215:243|215:351|90:289,1,240,8|8,0:0|0:0,0:0:0:0:
61,265,91620,1,8,0:0:0:0:
61,265,91703,1,6,1:0:0:0:
256,192,99703,5,4,1:0:0:0:
256,192,100036,5,0,1:0:0:0:
108,366,100203,1,8,0:0:0:0:
101,128,100370,5,0,1:0:0:0:
178,266,100536,1,8,0:0:0:0:
207,69,100703,5,0,1:0:0:0:
0,167,100870,1,8,0:0:0:0:
178,266,101036,6,0,B|262:223|263:309|363:255,1,160,12|0,1:0|1:0,0:0:0:0:
165,67,101536,6,0,P|109:102|134:198,1,160,12|0,0:0|1:0,0:0:0:0:
332,268,102036,6,0,P|388:233|363:137,1,160,12|6,0:0|1:0,0:0:0:0:
211,54,107703,6,0,P|169:73|77:95,1,120.000004577637,4|0,1:0|1:0,0:0:0:0:
26,147,108203,1,0,0:0:0:0:
26,147,108370,2,0,L|35:224,1,60.0000022888184,0|0,1:0|0:0,0:0:0:0:
125,194,108703,2,0,L|116:271,1,60.0000022888184,0|0,1:0|0:0,0:0:0:0:
166,320,109036,6,0,P|109:335|43:287,1,120.000004577637,0|0,1:0|1:0,0:0:0:0:
203,240,109536,1,0,0:0:0:0:
203,240,109703,2,0,P|248:235|285:246,1,60.0000022888184,0|0,1:0|0:0,0:0:0:0:
329,170,110036,2,0,P|349:210|351:249,1,60.0000022888184,0|0,1:0|0:0,0:0:0:0:
250,147,110370,6,0,P|272:108|367:103,1,120.000004577637,0|0,1:0|1:0,0:0:0:0:
218,49,110870,1,0,0:0:0:0:
218,49,111036,2,0,L|144:44,1,60.0000022888184,0|0,1:0|0:0,0:0:0:0:
146,143,111370,2,0,L|68:140,1,60.0000022888184,0|0,1:0|0:0,0:0:0:0:
212,211,111703,5,0,1:0:0:0:
288,290,111870,1,8,0:0:0:0:
364,367,112036,2,0,L|456:364,1,80,0|0,1:0|1:0,0:0:0:0:
212,211,112370,2,0,L|122:215,1,80,8|0,0:0|1:0,0:0:0:0:
260,302,112703,1,8,0:0:0:0:
311,177,112870,1,8,0:0:0:0:
311,177,112953,1,8,0:0:0:0:
311,177,113036,6,0,L|316:78,1,68.0000012969971,4|0,1:0|0:0,0:0:0:0:
242,18,113370,1,8,0:0:0:0:
154,112,113536,1,0,0:0:0:0:
154,112,113620,1,8,0:0:0:0:
154,112,113703,2,0,L|57:121,1,68.0000012969971,2|0,1:0|1:0,0:0:0:0:
11,199,114036,2,0,P|9:245|19:288,1,68.0000012969971,8|0,0:0|0:0,0:0:0:0:
174,299,114370,6,0,P|134:257|100:252,1,68.0000012969971,2|0,1:0|0:0,0:0:0:0:
96,337,114703,1,8,0:0:0:0:
215,218,114870,1,0,0:0:0:0:
215,218,114953,1,8,0:0:0:0:
215,218,115036,2,0,L|306:216,1,68.0000012969971,2|0,1:0|1:0,0:0:0:0:
334,117,115370,2,0,L|260:136,1,68.0000012969971,8|0,0:0|0:0,0:0:0:0:
383,202,115703,5,2,1:0:0:0:
417,127,115870,1,0,0:0:0:0:
446,51,116036,2,0,L|357:32,1,68.0000012969971,8|0,0:0|0:0,0:0:0:0:
338,31,116286,1,8,0:0:0:0:
338,31,116370,2,0,P|302:34|253:31,1,68.0000012969971,2|0,1:0|1:0,0:0:0:0:
165,71,116703,2,0,P|162:125|178:166,1,68.0000012969971,8|0,0:0|0:0,0:0:0:0:
291,206,117036,6,0,P|294:152|278:111,1,68.0000012969971,2|0,1:0|0:0,0:0:0:0:
201,215,117370,1,8,0:0:0:0:
283,294,117537,1,0,0:0:0:0:
283,294,117620,1,0,0:0:0:0:
283,294,117703,2,0,L|357:300,1,68.0000012969971,2|0,1:0|1:0,0:0:0:0:
201,215,118036,2,0,L|115:225,1,68.0000012969971,8|0,0:0|0:0,0:0:0:0:
39,204,118370,5,6,1:0:0:0:
39,204,118703,1,8,0:0:0:0:
111,121,118870,1,0,0:0:0:0:
111,121,118953,1,8,0:0:0:0:
111,121,119036,2,0,L|110:41,1,68.0000012969971,2|0,1:0|1:0,0:0:0:0:
39,204,119370,2,0,L|40:312,1,102.000001945496,8|0,0:0|0:0,0:0:0:0:
65,337,119703,6,0,P|109:334|156:343,1,68.0000012969971,2|0,1:0|0:0,0:0:0:0:
221,383,120036,1,8,0:0:0:0:
273,268,120203,1,0,0:0:0:0:
352,346,120370,2,0,L|425:348,1,68.0000012969971,2|0,1:0|1:0,0:0:0:0:
495,282,120703,2,0,P|499:239|493:195,1,68.0000012969971,8|0,0:0|0:0,0:0:0:0:
420,112,121036,5,2,1:0:0:0:
367,258,121203,1,0,0:0:0:0:
463,204,121370,1,12,0:0:0:0:
321,135,121536,1,0,0:0:0:0:
321,135,121620,1,8,0:0:0:0:
321,135,121703,2,0,L|233:140,1,68.0000012969971,2|0,1:0|1:0,0:0:0:0:
131,205,122036,2,0,L|219:210,1,68.0000012969971,8|2,0:0|0:0,0:0:0:0:
65,71,122370,6,0,P|56:124|69:164,1,68.0000012969971,4|0,1:0|1:0,0:0:0:0:
203,321,122703,2,0,P|212:268|199:228,1,68.0000012969971,10|0,0:0|1:0,0:0:0:0:
203,213,122953,1,0,0:0:0:0:
203,213,123036,1,8,0:0:0:0:
38,339,123203,1,8,0:0:0:0:
38,339,123286,1,8,0:0:0:0:
38,339,123370,2,0,L|120:353,1,68.0000012969971,0|0,1:0|0:0,0:0:0:0:
209,254,123703,6,0,P|262:247|346:257,2,120.000004577637,4|0|2,1:0|1:0|1:0,0:0:0:0:
125,286,124536,1,0,0:0:0:0:
125,286,124703,2,0,L|119:198,1,60.0000022888184,0|0,1:0|0:0,0:0:0:0:
119,195,124953,1,0,0:0:0:0:
119,195,125036,6,0,L|-3:197,2,120.000004577637,2|0|2,1:0|1:0|1:0,0:0:0:0:
219,190,125870,1,0,0:0:0:0:
219,190,126036,2,0,P|220:140|212:111,1,60.0000022888184,0|0,1:0|0:0,0:0:0:0:
209,101,126286,1,0,0:0:0:0:
209,101,126370,6,0,P|261:99|288:102,1,60.0000022888184,2|0,1:0|0:0,0:0:0:0:
364,208,126703,2,0,P|334:208|304:206,1,60.0000022888184,0|0,1:0|0:0,0:0:0:0:
269,195,126953,1,0,0:0:0:0:
269,195,127036,2,0,L|268:334,1,120.000004577637,2|0,1:0|1:0,0:0:0:0:
359,359,127536,1,0,0:0:0:0:
359,359,127620,1,0,0:0:0:0:
359,359,127703,5,2,1:0:0:0:
127,182,128036,1,0,1:0:0:0:
82,262,128203,1,0,0:0:0:0:
82,262,128286,1,0,0:0:0:0:
82,262,128370,2,0,L|84:330,1,60.0000022888184,2|0,1:0|0:0,0:0:0:0:
172,373,128703,1,0,1:0:0:0:
306,235,128869,1,0,0:0:0:0:
306,235,128953,1,0,0:0:0:0:
306,235,129036,6,0,P|244:229|168:238,1,120.000004577637,6|0,1:0|1:0,0:0:0:0:
79,154,129536,1,0,0:0:0:0:
79,154,129620,1,0,0:0:0:0:
79,154,129703,2,0,P|139:140|216:140,1,120.000004577637,2|0,1:0|1:0,0:0:0:0:
286,98,130203,1,0,0:0:0:0:
286,98,130370,6,0,L|292:20,1,60.0000022888184,2|0,1:0|0:0,0:0:0:0:
197,138,130703,2,0,L|206:207,1,60.0000022888184,0|0,1:0|0:0,0:0:0:0:
214,229,130953,1,0,0:0:0:0:
214,229,131036,2,0,P|261:224|296:229,1,60.0000022888184,2|0,1:0|0:0,0:0:0:0:
176,323,131370,2,0,P|146:323|116:318,1,60.0000022888184,0|0,1:0|0:0,0:0:0:0:
273,224,131703,6,0,P|331:263|473:138,1,280,4|0,1:0|0:0,0:0:0:0:
456,37,133036,5,8,0:0:0:0:
369,120,133203,2,0,L|368:187,2,40,0|0|8,1:0|0:0|0:0,0:0:0:0:
292,57,133536,2,0,L|293:-10,2,40,8|0|0,0:0|0:0|1:0,0:0:0:0:
251,156,133870,1,0,0:0:0:0:
211,163,133953,1,8,0:0:0:0:
171,158,134036,1,0,1:0:0:0:
61,64,134203,1,0,0:0:0:0:
34,93,134286,1,8,0:0:0:0:
23,131,134370,6,0,P|20:181|27:295,2,160,4|8|0,1:0|0:0|1:0,0:0:0:0:
90,43,135203,1,0,0:0:0:0:
162,117,135370,2,0,P|214:122|249:116,1,80,8|0,0:0|0:0,0:0:0:0:
322,183,135703,6,0,P|339:150|299:33,1,160,2|8,1:0|0:0,0:0:0:0:
241,118,136203,1,0,0:0:0:0:
302,270,136370,2,0,P|355:270|383:250,1,80,0|0,1:0|0:0,0:0:0:0:
210,249,136703,2,0,P|210:302|230:330,1,80,8|0,0:0|0:0,0:0:0:0:
267,167,137036,6,0,P|215:148|128:200,2,160,2|8|0,1:0|0:0|1:0,0:0:0:0:
360,242,137870,1,0,0:0:0:0:
426,140,138036,2,0,P|476:137|510:144,1,80,8|0,0:0|0:0,0:0:0:0:
319,253,138370,6,0,P|273:265|219:253,1,80,2|0,1:0|0:0,0:0:0:0:
307,83,138703,2,0,P|340:116|356:169,1,80,8|0,0:0|0:0,0:0:0:0:
170,176,139036,2,0,P|182:130|219:90,1,80,0|0,1:0|0:0,0:0:0:0:
261,173,139370,1,8,0:0:0:0:
332,268,139536,1,0,0:0:0:0:
378,358,139703,6,0,L|291:375,1,80,6|0,1:0|0:0,0:0:0:0:
166,240,140036,2,0,L|258:264,1,80,8|0,0:0|0:0,0:0:0:0:
137,341,140370,2,0,L|50:358,1,80,0|0,1:0|0:0,0:0:0:0:
166,240,140703,1,8,0:0:0:0:
235,372,140870,1,0,0:0:0:0:
193,160,141036,6,0,P|129:164|88:268,2,160,2|8|0,1:0|0:0|1:0,2:2:0:0:
272,253,141870,1,0,2:0:0:0:
328,151,142036,2,0,P|377:148|421:158,1,80,8|0,0:0|0:0,0:0:0:0:
272,253,142370,6,0,P|275:188|269:75,1,160,2|8,1:0|0:0,0:0:0:0:
194,35,142870,1,0,0:0:0:0:
188,158,143036,2,0,P|189:207|186:253,1,80,0|0,1:0|0:0,0:0:0:0:
270,93,143370,1,8,0:0:0:0:
96,119,143536,1,0,0:0:0:0:
183,18,143703,6,0,P|229:15|258:20,2,40,2|8|8,1:0|0:0|0:0,0:0:0:0:
62,46,144036,2,0,L|55:156,1,80,8|0,1:0|0:0,0:0:0:0:
26,158,144286,1,8,0:0:0:0:
26,158,144370,2,0,L|117:106,1,80,2|0,1:0|0:0,0:0:0:0:
139,119,144620,1,8,0:0:0:0:
139,119,144704,2,0,L|130:215,1,80,8|0,1:0|0:0,0:0:0:0:
107,235,144953,1,8,0:0:0:0:
107,235,145036,6,0,L|255:160,2,160,6|8|0,1:0|0:0|1:0,0:0:0:0:
109,330,145870,1,0,0:0:0:0:
134,141,146036,2,0,L|212:100,1,80,8|0,0:0|0:0,0:0:0:0:
107,235,146370,6,0,P|106:134|102:61,1,160,2|8,1:0|0:0,0:0:0:0:
11,150,146870,1,0,0:0:0:0:
32,271,147036,2,0,P|69:307|118:317,1,80,0|0,1:0|0:0,0:0:0:0:
208,353,147370,1,8,0:0:0:0:
262,228,147537,1,0,0:0:0:0:
173,276,147703,6,0,L|359:282,2,160,2|8|0,1:0|0:0|1:0,0:0:0:0:
88,201,148536,1,0,0:0:0:0:
185,96,148703,2,0,P|189:155|173:196,1,80,8|0,0:0|0:0,0:0:0:0:
126,33,149036,6,0,P|175:10|228:22,1,80,2|0,1:0|0:0,0:0:0:0:
185,96,149370,1,8,0:0:0:0:
294,17,149536,1,0,0:0:0:0:
294,17,149620,1,8,0:0:0:0:
294,17,149703,2,0,L|301:114,1,80,2|0,1:0|0:0,0:0:0:0:
217,242,150036,2,0,L|224:145,1,80,8|0,0:0|0:0,0:0:0:0:
287,287,150370,6,0,P|238:278|114:296,2,160,6|8|0,1:0|0:0|1:0,0:0:0:0:
386,348,151203,1,0,0:0:0:0:
461,260,151370,2,0,L|473:175,1,80,8|0,0:0|0:0,0:0:0:0:
328,78,151703,6,0,P|320:138|392:204,2,160,2|8|0,1:0|0:0|1:0,0:0:0:0:
407,116,152536,1,0,0:0:0:0:
294,174,152703,2,0,L|204:180,1,80,8|0,0:0|0:0,0:0:0:0:
136,251,153036,6,0,P|101:185|144:102,1,160,2|8,1:0|0:0,0:0:0:0:
226,37,153536,1,0,0:0:0:0:
272,170,153703,2,0,P|232:183|182:176,1,80,0|0,1:0|0:0,0:0:0:0:
336,97,154036,2,0,P|360:131|369:180,1,80,8|0,0:0|0:0,0:0:0:0:
336,97,154370,6,0,L|439:85,1,80,14|0,0:0|1:0,0:0:0:0:
180,255,154703,2,0,L|77:267,1,80,14|0,0:0|1:0,0:0:0:0:
320,18,155036,2,0,L|338:110,1,80,14|8,0:0|0:0,0:0:0:0:
195,333,155370,2,0,L|177:241,1,80,0|8,1:0|0:0,0:0:0:0:
161,16,155703,6,0,P|228:8|324:19,1,160,6|8,1:0|0:0,0:0:0:0:
455,107,156203,1,2,0:0:0:0:
455,107,156286,1,8,0:0:0:0:
455,107,156370,2,0,P|408:113|350:104,1,80,0|0,1:0|1:0,0:0:0:0:
180,199,156703,2,0,P|227:193|285:202,1,80,10|0,0:0|0:0,0:0:0:0:
143,291,157036,6,0,L|138:94,1,160,2|8,1:0|0:0,0:0:0:0:
32,263,157536,1,2,0:0:0:0:
32,263,157620,1,8,0:0:0:0:
32,263,157703,2,0,L|34:356,1,80,0|0,1:0|1:0,0:0:0:0:
142,217,158036,1,10,0:0:0:0:
222,344,158203,1,0,0:0:0:0:
294,245,158370,6,0,P|342:239|481:251,1,160,6|8,1:0|0:0,0:0:0:0:
308,148,158870,1,2,0:0:0:0:
308,148,158953,1,8,0:0:0:0:
308,148,159036,2,0,P|255:149|221:154,1,80,0|0,1:0|1:0,0:0:0:0:
380,82,159370,2,0,P|433:83|467:88,1,80,10|0,0:0|0:0,0:0:0:0:
332,24,159703,6,0,L|334:210,1,160,2|10,1:0|0:0,0:0:0:0:
277,272,160203,1,0,1:0:0:0:
277,272,160286,1,0,0:0:0:0:
277,272,160370,2,0,L|159:276,1,80,10|0,0:0|1:0,0:0:0:0:
334,184,160703,2,0,L|428:195,1,80,10|0,0:0|0:0,0:0:0:0:
481,343,161036,6,0,P|450:296|349:272,1,160,6|8,1:0|0:0,0:0:0:0:
275,355,161536,1,0,1:0:0:0:
275,355,161620,1,0,0:0:0:0:
275,355,161703,2,0,L|190:362,1,80,8|0,0:0|1:0,0:0:0:0:
114,252,162036,2,0,L|193:258,1,80,8|0,0:0|1:0,0:0:0:0:
68,318,162370,6,0,P|35:282|31:227,1,80,8|0,0:0|0:0,0:0:0:0:
98,173,162620,1,8,0:0:0:0:
98,173,162703,6,0,B|119:206|114:247,2,53.3333333333333,8|8|8,0:0|0:0|0:0,0:0:0:0:
33,94,163036,6,0,B|165:38|165:166|310:79,1,280,10|0,0:0|0:0,0:0:0:0:
341,85,163703,1,4,1:0:0:0:
192,48,169036,6,0,L|189:162,1,103.999995239258,4|0,1:0|1:0,0:0:0:0:
320,48,169703,2,0,L|323:162,1,103.999995239258,2|0,1:0|1:0,0:0:0:0:
202,232,170370,6,0,P|249:248|301:231,1,103.999995239258,2|0,1:0|1:0,0:0:0:0:
154,149,171036,2,0,P|116:181|105:235,1,103.999995239258,2|0,1:0|1:0,0:0:0:0:
211,335,171703,6,0,L|200:214,1,103.999995239258,2|0,1:0|1:0,0:0:0:0:
345,106,172370,2,0,L|356:227,1,103.999995239258,2|0,1:0|1:0,0:0:0:0:
269,69,173036,6,0,P|303:30|376:28,3,103.999995239258,2|0|2|2,1:0|1:0|1:0|1:0,0:0:0:0:
371,173,174370,6,0,P|379:211|363:286,1,103.999995239258,2|0,1:0|1:0,0:0:0:0:
143,274,175036,2,0,P|132:224|140:173,1,103.999995239258,2|0,1:0|1:0,0:0:0:0:
256,59,175703,6,0,L|256:187,1,103.999995239258,2|0,1:0|1:0,0:0:0:0:
256,350,176370,2,0,L|256:222,1,103.999995239258,2|0,1:0|1:0,0:0:0:0:
391,162,177036,6,0,P|345:176|273:161,1,103.999995239258,2|0,1:0|1:0,0:0:0:0:
101,85,177703,2,0,P|147:71|219:86,1,103.999995239258,2|0,1:0|1:0,0:0:0:0:
159,299,178370,6,0,P|151:250|157:200,1,77.9999964294435,0|0,1:0|0:0,0:0:0:0:
164,187,178703,1,2,1:0:0:0:
201,78,178870,1,10,0:0:0:0:
314,56,179036,1,10,1:0:0:0:
388,143,179203,1,10,0:0:0:0:
351,250,179370,1,10,1:0:0:0:
239,272,179536,1,10,0:0:0:0:
277,166,179703,5,4,1:0:0:0:
96,64,184703,6,0,L|92:136,1,51.999997619629,0|0,0:0|0:0,0:0:0:0:
104,198,185036,1,2,0:0:0:0:
416,64,186036,6,0,L|420:136,1,51.999997619629,0|0,0:0|0:0,0:0:0:0:
408,198,186369,1,2,0:0:0:0:
96,332,187370,6,0,L|92:260,1,51.999997619629,0|0,0:0|0:0,0:0:0:0:
104,198,187703,1,2,0:0:0:0:
416,332,188703,6,0,L|420:260,1,51.999997619629,0|0,0:0|0:0,0:0:0:0:
408,198,189036,1,0,0:0:0:0:
256,96,189703,6,0,L|256:139,1,41.9999987182618,0|0,1:0|0:0,0:0:0:0:
223,205,190370,6,0,P|176:210|112:200,2,95.9999970703126,4|0|10,1:0|0:0|0:0,0:0:0:0:
223,205,191370,2,0,P|258:205|291:215,1,47.9999985351563,2|2,0:0|1:0,0:0:0:0:
356,247,191703,6,0,L|362:359,1,95.9999970703126,2|0,1:0|0:0,0:0:0:0:
150,342,192370,2,0,L|156:247,1,95.9999970703126,10|0,0:0|0:0,0:0:0:0:
265,104,193036,6,0,P|226:117|157:118,1,95.9999970703126,2|0,1:0|0:0,0:0:0:0:
268,18,193703,1,10,0:0:0:0:
361,115,194036,2,0,L|358:172,1,47.9999985351563,2|2,0:0|1:0,0:0:0:0:
280,276,194370,6,0,L|273:164,1,95.9999970703126,2|2,1:0|1:0,0:0:0:0:
136,69,195036,2,0,L|131:131,1,47.9999985351563,10|0,0:0|1:0,0:0:0:0:
128,197,195370,1,0,0:0:0:0:
128,197,195703,6,0,L|29:208,1,95.9999970703126,6|0,1:0|0:0,0:0:0:0:
166,295,196370,1,8,0:0:0:0:
249,211,196703,2,0,L|252:153,1,47.9999985351563,0|2,0:0|1:0,0:0:0:0:
235,76,197036,6,0,P|192:96|163:147,2,95.9999970703126,2|2|10,1:0|1:0|0:0,0:0:0:0:
346,125,198036,1,2,0:0:0:0:
346,125,198370,6,0,P|401:121|461:121,1,95.9999970703126,2|0,1:0|0:0,0:0:0:0:
492,185,198870,1,0,1:0:0:0:
404,220,199036,2,0,P|405:258|410:288,1,47.9999985351563,8|0,0:0|0:0,0:0:0:0:
324,325,199370,2,0,P|323:287|318:257,1,47.9999985351563,2|8,0:0|0:0,0:0:0:0:
251,202,199703,5,2,1:0:0:0:
251,202,199870,1,0,1:0:0:0:
175,311,200036,6,0,L|178:268,1,40,8|0,0:0|0:0,0:0:0:0:
87,209,200203,2,0,L|101:268,1,40,0|0,0:0|0:0,0:0:0:0:
158,160,200370,2,0,P|120:127|65:122,1,80,0|8,1:0|0:0,0:0:0:0:
64,124,200620,1,8,0:0:0:0:
65,123,200703,2,0,P|103:104|121:83,1,40,8|8,0:0|0:0,0:0:0:0:
183,46,200870,2,0,P|145:27|127:6,1,40,8|8,0:0|0:0,0:0:0:0:
234,148,201036,6,0,P|272:115|327:110,1,80,4|0,1:0|0:0,0:0:0:0:
165,315,201370,2,0,P|149:269|156:213,1,80,8|0,0:0|0:0,0:0:0:0:
382,47,201703,2,0,P|398:93|391:149,1,80,8|0,0:0|1:0,0:0:0:0:
316,255,202036,1,8,0:0:0:0:
212,133,202203,1,0,1:0:0:0:
395,275,202370,6,0,P|373:315|327:334,1,80,8|0,0:0|0:0,0:0:0:0:
187,239,202703,1,8,0:0:0:0:
246,372,202870,1,0,1:0:0:0:
212,133,203036,1,8,0:0:0:0:
167,340,203203,1,0,1:0:0:0:
284,189,203370,1,8,0:0:0:0:
94,250,203536,1,0,1:0:0:0:
214,53,203703,6,0,L|210:167,1,80,4|0,1:0|0:0,0:0:0:0:
23,302,204036,2,0,L|106:275,1,80,8|0,0:0|0:0,0:0:0:0:
373,107,204370,2,0,L|290:134,1,80,8|0,0:0|1:0,0:0:0:0:
397,202,204703,1,8,0:0:0:0:
327,16,204870,1,0,1:0:0:0:
323,236,205036,6,0,P|360:273|398:280,1,80,8|0,0:0|0:0,0:0:0:0:
414,308,205286,1,0,1:0:0:0:
414,308,205370,2,0,P|344:293|307:313,1,80,8|0,0:0|1:0,0:0:0:0:
155,348,205703,2,0,P|193:287|186:245,1,80,8|0,0:0|1:0,0:0:0:0:
167,57,206036,2,0,P|147:113|169:204,1,120,8|0,0:0|0:0,0:0:0:0:
176,205,206370,6,0,P|194:262|192:291,1,80,4|0,1:0|0:0,0:0:0:0:
167,57,206703,2,0,P|150:97|148:142,1,80,8|0,0:0|0:0,0:0:0:0:
287,229,207036,2,0,P|298:176|265:95,1,120,8|0,0:0|0:0,0:0:0:0:
254,81,207370,2,0,P|234:129|238:162,1,80,8|0,0:0|1:0,0:0:0:0:
209,281,207703,6,0,P|260:250|294:248,1,80,8|0,0:0|0:0,0:0:0:0:
100,290,208036,2,0,P|119:233|143:210,1,80,8|0,0:0|1:0,0:0:0:0:
288,59,208370,2,0,P|289:109|289:223,1,160,8|8,0:0|0:0,0:0:0:0:
202,139,208870,1,0,1:0:0:0:
375,220,209036,6,0,P|357:278|321:297,1,80,12|0,1:0|0:0,0:0:0:0:
288,59,209370,2,0,P|330:56|374:60,1,80,8|0,0:0|1:0,0:0:0:0:
284,169,209703,1,8,0:0:0:0:
191,6,209870,1,0,1:0:0:0:
175,199,210036,2,0,P|133:202|89:198,1,80,8|0,0:0|1:0,0:0:0:0:
284,169,210370,6,0,L|287:266,1,80,8|8,0:0|0:0,0:0:0:0:
284,283,210620,1,8,0:0:0:0:
284,283,210703,1,8,0:0:0:0:
379,188,210870,2,0,L|377:113,2,40,0|0|8,0:0|0:0|1:0,0:0:0:0:
284,283,211203,2,0,L|286:358,2,40,0|0|8,1:0|1:0|1:0,0:0:0:0:
185,211,211536,1,0,1:0:0:0:
185,211,211620,1,0,0:0:0:0:
185,211,211703,6,0,P|181:158|186:74,1,120.000004577637,6|0,1:0|1:0,0:0:0:0:
261,34,212203,1,0,0:0:0:0:
261,34,212286,1,0,0:0:0:0:
261,34,212370,2,0,L|339:38,1,60.0000022888184,2|0,1:0|0:0,0:0:0:0:
400,150,212703,2,0,L|322:146,1,60.0000022888184,0|0,1:0|0:0,0:0:0:0:
310,141,212953,1,0,0:0:0:0:
310,141,213036,6,0,B|284:205|321:285,2,120.000004577637,2|0|2,1:0|1:0|1:0,0:0:0:0:
235,82,213870,1,0,0:0:0:0:
235,82,214036,2,0,L|163:90,1,60.0000022888184,0|0,1:0|0:0,0:0:0:0:
149,103,214286,1,0,0:0:0:0:
149,103,214370,6,0,P|152:144|152:186,1,60.0000022888184,6|0,1:0|0:0,0:0:0:0:
31,266,214703,2,0,P|28:224|33:183,1,60.0000022888184,0|0,1:0|0:0,0:0:0:0:
43,177,214953,1,0,0:0:0:0:
43,177,215036,2,0,P|57:237|46:308,1,120.000004577637,2|0,1:0|1:0,0:0:0:0:
143,353,215536,1,0,0:0:0:0:
143,353,215620,1,0,1:0:0:0:
143,353,215703,5,2,1:0:0:0:
350,209,216036,1,4,1:0:0:0:
294,133,216203,1,0,0:0:0:0:
294,133,216286,1,0,0:0:0:0:
294,133,216370,2,0,L|228:135,1,60.0000022888184,2|0,1:0|0:0,0:0:0:0:
163,199,216703,1,0,0:0:0:0:
71,143,216870,1,0,0:0:0:0:
71,143,216953,1,0,0:0:0:0:
71,143,217036,6,0,P|65:86|76:19,1,120.000004577637,6|0,1:0|1:0,0:0:0:0:
171,206,217536,1,0,0:0:0:0:
171,206,217619,1,0,0:0:0:0:
171,206,217702,2,0,P|177:263|166:330,1,120.000004577637,2|0,1:0|1:0,0:0:0:0:
272,150,218203,1,0,0:0:0:0:
272,150,218286,1,0,0:0:0:0:
272,150,218370,6,0,P|320:147|349:152,1,60.0000022888184,2|0,1:0|0:0,0:0:0:0:
470,255,218703,2,0,P|422:258|393:253,1,60.0000022888184,0|0,1:0|0:0,0:0:0:0:
381,248,218953,1,0,0:0:0:0:
381,248,219036,2,0,L|379:332,1,60.0000022888184,2|0,1:0|0:0,0:0:0:0:
254,372,219370,2,0,L|264:284,1,60.0000022888184,0|0,1:0|0:0,0:0:0:0:
297,152,219703,6,0,P|254:129|103:258,1,280,6|0,1:0|0:0,0:0:0:0:
125,286,221036,6,0,L|80:298,2,40.000001525879,2|2|2,0:0|0:0|0:0,0:0:0:0:
192,237,221370,6,0,L|234:246,2,40.000001525879,2|2|2,0:0|0:0|0:0,0:0:0:0:
123,183,221703,6,0,L|83:171,2,40.000001525879,2|2|2,0:0|0:0|0:0,0:0:0:0:
208,154,222036,6,0,L|281:149,1,60.0000022888184,2|0,0:0|0:0,0:0:0:0:
370,157,222370,5,4,1:0:0:0:
167,186,231703,6,0,P|150:138|139:83,1,80,0|0,1:0|0:0,0:0:0:0:
378,205,232036,2,0,P|395:253|406:308,1,80,0|8,0:0|0:0,0:0:0:0:
252,318,232370,1,10,0:0:0:0:
252,318,232453,1,0,0:0:0:0:
252,318,232536,2,0,L|247:256,1,40,0|0,0:0|1:0,0:0:0:0:
174,198,232703,2,0,L|163:298,1,80,12|0,0:0|0:0,0:0:0:0:
166,107,233036,6,0,P|105:130|94:228,2,160,6|8|0,1:0|0:0|1:0,0:0:0:0:
264,169,233870,1,0,0:0:0:0:
361,106,234036,2,0,P|364:59|355:18,1,80,8|0,0:0|0:0,0:0:0:0:
264,169,234370,6,0,P|257:242|284:335,1,160,2|8,1:0|0:0,0:0:0:0:
384,368,234870,1,0,0:0:0:0:
213,258,235036,2,0,P|187:297|190:354,1,80,0|0,1:0|0:0,0:0:0:0:
264,169,235370,2,0,P|220:152|165:168,1,80,8|0,0:0|0:0,0:0:0:0:
359,114,235703,6,0,P|372:175|324:262,1,160,2|8,1:0|0:0,0:0:0:0:
264,169,236203,1,0,0:0:0:0:
306,53,236370,2,0,P|351:35|397:43,1,80,0|0,1:0|0:0,0:0:0:0:
264,169,236703,1,8,0:0:0:0:
202,95,236870,1,0,0:0:0:0:
143,19,237036,6,0,L|57:36,1,80,2|0,1:0|0:0,0:0:0:0:
202,95,237370,1,8,0:0:0:0:
68,171,237536,1,0,0:0:0:0:
68,171,237620,1,8,0:0:0:0:
68,171,237703,2,0,L|154:188,1,80,2|0,1:0|0:0,0:0:0:0:
104,275,238036,1,8,0:0:0:0:
196,66,238203,1,0,0:0:0:0:
268,176,238370,6,0,L|293:278,1,80,4|0,1:0|0:0,0:0:0:0:
359,356,238703,2,0,P|382:310|384:254,1,80,8|0,0:0|0:0,0:0:0:0:
295,102,239036,2,0,P|272:148|270:204,1,80,0|0,1:0|0:0,0:0:0:0:
361,174,239370,1,8,0:0:0:0:
323,9,239536,1,0,0:0:0:0:
185,160,239703,6,0,P|192:213|303:254,2,160,2|8|0,1:0|0:0|1:0,0:0:0:0:
267,175,240536,1,0,0:0:0:0:
105,207,240703,2,0,P|100:149|109:105,1,80,8|0,0:0|0:0,0:0:0:0:
183,246,241036,6,0,L|2:250,1,160,4|8,1:0|0:0,0:0:0:0:
61,333,241536,1,0,0:0:0:0:
154,334,241703,2,0,L|251:332,1,80,4|0,1:0|0:0,0:0:0:0:
380,257,242036,1,8,0:0:0:0:
270,223,242203,1,0,0:0:0:0:
362,344,242370,6,0,L|437:353,2,40,14|8|0,0:0|0:0|1:0,0:0:0:0:
270,223,242703,2,0,P|266:171|277:128,1,80,6|8,1:0|0:0,0:0:0:0:
294,106,242953,1,8,0:0:0:0:
294,106,243036,2,0,P|298:158|287:201,1,80,14|0,0:0|1:0,0:0:0:0:
193,55,243370,1,8,0:0:0:0:
193,55,243453,1,0,0:0:0:0:
193,55,243536,1,8,0:0:0:0:
193,55,243620,1,8,0:0:0:0:
193,55,243703,6,0,P|258:62|380:51,1,160,6|8,1:0|0:0,0:0:0:0:
225,153,244203,1,2,0:0:0:0:
225,153,244286,1,8,0:0:0:0:
225,153,244370,2,0,P|171:155|132:151,1,80,0|0,1:0|1:0,0:0:0:0:
352,56,244703,2,0,L|367:162,1,80,10|0,0:0|0:0,0:0:0:0:
310,346,245036,6,0,P|284:289|304:190,1,160,2|8,1:0|0:0,0:0:0:0:
197,291,245536,1,2,0:0:0:0:
197,291,245619,1,8,0:0:0:0:
197,291,245703,2,0,L|117:302,1,80,0|0,1:0|1:0,0:0:0:0:
202,169,246036,1,10,0:0:0:0:
294,302,246203,1,0,0:0:0:0:
294,302,246286,1,0,0:0:0:0:
294,302,246370,6,0,L|464:309,1,160,6|8,1:0|0:0,0:0:0:0:
326,209,246870,1,2,0:0:0:0:
326,209,246953,1,8,0:0:0:0:
326,209,247036,2,0,L|241:209,1,80,0|0,1:0|1:0,0:0:0:0:
381,120,247370,2,0,P|415:151|424:185,1,80,10|0,0:0|0:0,0:0:0:0:
234,125,247703,6,0,L|227:25,1,80,2|0,1:0|0:0,0:0:0:0:
317,252,248036,2,0,L|413:270,1,80,10|0,0:0|1:0,0:0:0:0:
173,262,248370,2,0,L|76:280,1,80,10|0,0:0|0:0,0:0:0:0:
240,165,248703,2,0,L|244:205,2,40,8|0|0,0:0|0:0|0:0,0:0:0:0:
296,54,249036,6,0,P|345:41|443:108,1,160,6|8,1:0|0:0,0:0:0:0:
349,130,249536,1,0,1:0:0:0:
211,35,249703,1,8,0:0:0:0:
299,233,249870,1,0,1:0:0:0:
245,119,250036,1,8,0:0:0:0:
228,285,250203,1,0,1:0:0:0:
211,35,250370,5,8,0:0:0:0:
143,160,250536,1,8,0:0:0:0:
143,160,250620,1,8,0:0:0:0:
143,160,250703,2,0,L|97:162,1,40,8|0,0:0|0:0,0:0:0:0:
41,232,250870,2,0,L|112:252,1,40,0|0,1:0|1:0,0:0:0:0:
12,148,251036,1,12,1:0:0:0:
256,192,251120,12,0,252703,0:0:0:0:
338,77,252870,5,8,0:0:0:0:
338,77,252953,1,8,0:0:0:0:
338,77,253036,2,0,P|336:117|343:154,1,60.0000022888184,6|0,1:0|0:0,0:0:0:0:
260,264,253370,2,0,P|262:224|255:187,1,60.0000022888184,0|2,1:0|0:0,0:0:0:0:
175,240,253703,1,0,1:0:0:0:
343,240,253870,1,8,0:0:0:0:
175,240,254036,1,0,1:0:0:0:
175,240,254370,6,0,P|131:251|108:274,1,60.0000022888184,4|0,1:0|0:0,0:0:0:0:
200,149,254703,2,0,P|187:105|195:73,1,60.0000022888184,2|0,1:0|0:0,0:0:0:0:
270,217,255036,2,0,P|314:227|338:250,1,60.0000022888184,2|0,1:0|0:0,0:0:0:0:
175,240,255370,1,2,1:0:0:0:
175,240,255703,6,0,P|177:296|173:366,1,120.000004577637,6|0,1:0|1:0,0:0:0:0:
93,286,256203,1,0,0:0:0:0:
256,317,256370,1,0,1:0:0:0:
171,146,256536,1,12,0:0:0:0:
175,240,256703,2,0,L|260:236,1,60.0000022888184,8|0,0:0|0:0,0:0:0:0:
350,164,257036,6,0,L|352:90,1,60.0000022888184,6|0,1:0|0:0,0:0:0:0:
334,75,257286,1,8,0:0:0:0:
334,75,257370,2,0,P|288:78|248:76,1,60.0000022888184,2|12,1:0|0:0,0:0:0:0:
170,47,257703,1,2,1:0:0:0:
101,123,257870,1,8,0:0:0:0:
101,123,257953,1,8,0:0:0:0:
101,123,258036,2,0,L|105:178,1,40,10|8,0:0|0:0,0:0:0:0:
176,223,258203,2,0,L|187:169,1,40,8|8,0:0|0:0,0:0:0:0:
86,260,258370,6,0,P|136:254|259:263,1,160,6|8,1:0|0:0,0:0:0:0:
343,324,258870,2,0,L|342:387,2,40,2|8|0,0:0|0:0|1:0,0:0:0:0:
417,232,259203,1,2,1:0:0:0:
321,148,259370,2,0,L|224:166,1,80,8|0,0:0|0:0,0:0:0:0:
343,45,259703,6,0,L|440:63,1,80,2|0,1:0|1:0,0:0:0:0:
321,148,260036,1,10,0:0:0:0:
238,14,260203,1,2,1:0:0:0:
205,193,260370,1,8,0:0:0:0:
143,92,260536,1,2,0:0:0:0:
143,92,260620,1,8,0:0:0:0:
143,92,260703,2,0,L|53:95,1,80,0|10,1:0|0:0,0:0:0:0:
205,193,261036,5,6,1:0:0:0:
205,193,261382,5,0,0:0:0:0:
201,319,261556,1,0,0:0:0:0:
295,154,261729,5,8,0:0:0:0:
287,359,261903,1,8,0:0:0:0:
376,200,262076,5,8,0:0:0:0:
372,326,262250,1,8,0:0:0:0:
461,220,262423,1,8,0:0:0:0:
465,310,262637,5,10,0:0:0:0:
361,174,262871,1,10,0:0:0:0:
216,160,263105,1,10,0:0:0:0:
133,263,263340,1,10,0:0:0:0:
229,131,263655,5,10,0:0:0:0:
27,28,264055,5,10,0:0:0:0:
24,257,264546,5,10,0:0:0:0:
256,192,266759,5,6,1:0:0:0:
256,192,266934,12,0,272716,0:0:0:0:
