osu file format v14

[General]
AudioFilename: audio.ogg
AudioLeadIn: 0
PreviewTime: 470
Countdown: 0
SampleSet: Soft
StackLeniency: 0.7
Mode: 0
LetterboxInBreaks: 0
WidescreenStoryboard: 0

[Editor]
Bookmarks: 1081,3871,6662,17825,27418,28987,40150,45732,52708,63871,75034,76255,77825,90208,91778
DistanceSpacing: 0.9
BeatDivisor: 4
GridSize: 4
TimelineZoom: 1

[Metadata]
Title:Hallelujah!
TitleUnicode:ハレルヤ!
Artist:Asakura Kirika (CV: Akabane Kyouko)
ArtistUnicode:朝倉霧香(CV: 明羽杏子)
Creator:tomatas95
Version:Normal
Source:神様のような君へ Extended Edition
Tags:eroge 神君 かみきみ Kami-sama no You na Kimi e cube Kamikimi To you like goddess visual novel vn opening op video game hareruya japanese log off now log_off_now galgame j-pop jpop pop
BeatmapID:4514821
BeatmapSetID:2095242

[Difficulty]
HPDrainRate:3
CircleSize:3
OverallDifficulty:4
ApproachRate:5
SliderMultiplier:1.1
SliderTickRate:1

[Events]
//Background and Video events
Video,0,"ecchidesuuuiiyaaaa.mp4"
0,0,"meandmywifes.jpg",0,0
//Break Periods
//Storyboard Layer 0 (Background)
//Storyboard Layer 1 (Fail)
//Storyboard Layer 2 (Pass)
//Storyboard Layer 3 (Foreground)
//Storyboard Layer 4 (Overlay)
//Storyboard Sound Samples

[TimingPoints]
1081,348.837209302326,4,2,1,40,1,0
1081,-111.111111111111,4,2,1,40,0,0
1429,-111.111111111111,4,2,1,35,0,0
2301,-111.111111111111,4,2,1,45,0,0
2825,-111.111111111111,4,2,1,35,0,0
2999,-111.111111111111,4,2,1,40,0,0
3522,-111.111111111111,4,2,1,35,0,0
3871,-111.111111111111,4,2,1,70,0,0
4220,-111.111111111111,4,2,1,65,0,0
4394,-111.111111111111,4,2,1,60,0,0
5092,-111.111111111111,4,2,2,65,0,0
5441,-111.111111111111,4,2,1,60,0,0
5964,-111.111111111111,4,2,1,55,0,0
6139,-111.111111111111,4,2,1,60,0,0
6313,-111.111111111111,4,2,1,65,0,0
6487,-111.111111111111,4,2,1,70,0,0
6662,-100,4,2,1,75,0,0
6836,-100,4,2,1,70,0,0
6924,-100,4,2,2,5,0,0
7011,-100,4,2,1,70,0,0
9453,-100,4,2,1,75,0,0
9627,-100,4,2,1,70,0,0
10674,-100,4,2,2,75,0,0
10848,-100,4,2,1,70,0,0
11720,-100,4,2,1,65,0,0
12069,-100,4,2,1,70,0,0
12243,-100,4,2,1,75,0,0
12417,-100,4,2,1,70,0,0
12505,-100,4,2,2,5,0,0
12592,-100,4,2,1,70,0,0
15034,-100,4,2,2,75,0,0
15208,-100,4,2,1,75,0,0
15557,-100,4,2,1,65,0,0
16255,-100,4,2,1,70,0,0
16429,-100,4,2,1,65,0,0
16778,-100,4,2,1,70,0,0
17825,-111.111111111111,4,2,2,65,0,0
17999,-111.111111111111,4,2,1,60,0,0
18086,-111.111111111111,4,2,2,5,0,0
18174,-111.111111111111,4,2,1,60,0,0
20615,-111.111111111111,4,2,2,65,0,0
20789,-111.111111111111,4,2,1,60,0,0
20877,-111.111111111111,4,2,2,5,0,0
20964,-111.111111111111,4,2,1,60,0,0
23406,-111.111111111111,4,2,2,65,0,0
23580,-111.111111111111,4,2,1,60,0,0
23668,-111.111111111111,4,2,2,5,0,0
23755,-111.111111111111,4,2,1,60,0,0
26197,-111.111111111111,4,2,2,65,0,0
26371,-111.111111111111,4,2,1,60,0,0
27418,-111.111111111111,4,2,2,65,0,0
27767,-111.111111111111,4,2,1,65,0,0
28290,-111.111111111111,4,2,1,70,0,0
28464,-111.111111111111,4,2,1,65,0,0
28813,-111.111111111111,4,2,1,60,0,0
28987,-100,4,2,2,70,0,0
29249,-100,4,2,2,5,0,0
29336,-100,4,2,1,65,0,0
31778,-100,4,2,1,70,0,0
32040,-100,4,2,1,5,0,0
32127,-100,4,2,1,65,0,0
34569,-100,4,2,2,70,0,0
34831,-100,4,2,1,5,0,0
34918,-100,4,2,1,65,0,0
37360,-100,4,2,2,70,0,0
37622,-100,4,2,1,5,0,0
37709,-100,4,2,1,65,0,0
38581,-100,4,2,1,70,0,0
39627,-100,4,2,1,65,0,0
39801,-100,4,2,1,60,0,0
39976,-100,4,2,1,55,0,0
40150,-111.111111111111,4,2,3,60,0,0
40325,-111.111111111111,4,2,1,60,0,0
40499,-111.111111111111,4,2,1,55,0,0
40848,-111.111111111111,4,2,1,45,0,0
41197,-111.111111111111,4,2,1,40,0,0
41371,-111.111111111111,4,2,1,50,0,0
41546,-111.111111111111,4,2,3,55,0,0
41720,-111.111111111111,4,2,3,50,0,0
41894,-111.111111111111,4,2,1,45,0,0
42243,-111.111111111111,4,2,1,40,0,0
42592,-111.111111111111,4,2,1,35,0,0
42941,-111.111111111111,4,2,1,55,0,0
45208,-111.111111111111,4,2,1,50,0,0
45383,-111.111111111111,4,2,1,55,0,0
45644,-111.111111111111,4,2,1,5,0,0
45732,-100,4,2,2,60,0,0
45906,-100,4,2,1,60,0,0
46255,-100,4,2,1,65,0,0
47127,-100,4,2,1,70,0,0
48174,-100,4,2,1,75,0,0
49046,-100,4,2,1,80,0,0
49743,-100,4,2,1,85,0,0
50092,-100,4,2,1,70,0,0
50267,-100,4,2,1,75,0,0
51139,-100,4,2,2,70,0,0
51487,-100,4,2,1,70,0,0
52185,-100,4,2,1,60,0,0
52708,-90.9090909090909,4,2,1,85,0,1
53057,-90.9090909090909,4,2,1,80,0,1
53929,-90.9090909090909,4,2,1,85,0,1
54104,-90.9090909090909,4,2,1,80,0,1
55499,-90.9090909090909,4,2,1,85,0,1
55674,-90.9090909090909,4,2,1,80,0,1
56720,-90.9090909090909,4,2,2,85,0,1
56894,-90.9090909090909,4,2,1,80,0,1
58290,-90.9090909090909,4,2,2,85,0,1
58464,-90.9090909090909,4,2,1,80,0,1
59511,-90.9090909090909,4,2,1,85,0,1
59686,-90.9090909090909,4,2,1,80,0,1
61081,-90.9090909090909,4,2,2,85,0,1
61255,-90.9090909090909,4,2,1,80,0,1
61604,-90.9090909090909,4,2,1,70,0,1
62301,-90.9090909090909,4,2,2,75,0,1
62650,-90.9090909090909,4,2,1,70,0,1
62825,-90.9090909090909,4,2,2,70,0,1
63174,-90.9090909090909,4,2,2,75,0,1
63522,-90.9090909090909,4,2,2,80,0,0
63871,-90.9090909090909,4,2,1,85,0,1
64220,-90.9090909090909,4,2,1,80,0,1
65092,-90.9090909090909,4,2,1,85,0,1
65267,-90.9090909090909,4,2,1,80,0,1
66662,-90.9090909090909,4,2,1,85,0,1
66837,-90.9090909090909,4,2,1,80,0,1
67883,-90.9090909090909,4,2,2,85,0,1
68057,-90.9090909090909,4,2,1,80,0,1
69453,-90.9090909090909,4,2,2,85,0,1
69627,-90.9090909090909,4,2,1,80,0,1
72243,-90.9090909090909,4,2,2,85,0,1
72417,-90.9090909090909,4,2,1,80,0,1
72767,-90.9090909090909,4,2,1,70,0,1
73464,-90.9090909090909,4,2,2,75,0,1
73813,-90.9090909090909,4,2,1,70,0,1
73987,-90.9090909090909,4,2,1,75,0,1
74336,-90.9090909090909,4,2,1,80,0,1
74685,-90.9090909090909,4,2,1,85,0,1
74860,-90.9090909090909,4,2,1,85,0,0
75034,-100,4,2,1,50,0,0
75557,-100,4,2,1,55,0,0
76081,-100,4,2,1,60,0,0
76168,-100,4,2,1,5,0,0
76255,-111.111111111111,4,2,2,70,0,0
76604,-111.111111111111,4,2,1,65,0,0
76778,-111.111111111111,4,2,2,65,0,0
76953,-111.111111111111,4,2,1,65,0,0
77127,-111.111111111111,4,2,1,70,0,0
77476,-111.111111111111,4,2,1,75,0,0
77825,-100,4,2,1,75,0,0
77999,-100,4,2,1,70,0,0
78087,-100,4,2,2,5,0,0
78174,-100,4,2,1,70,0,0
80616,-100,4,2,1,75,0,0
80790,-100,4,2,1,70,0,0
81837,-100,4,2,2,75,0,0
82011,-100,4,2,1,70,0,0
82883,-100,4,2,1,65,0,0
83232,-100,4,2,1,70,0,0
83406,-100,4,2,1,75,0,0
83580,-100,4,2,1,70,0,0
83668,-100,4,2,2,5,0,0
83755,-100,4,2,1,70,0,0
86197,-100,4,2,2,75,0,0
86371,-100,4,2,1,75,0,0
86720,-100,4,2,1,65,0,0
87418,-100,4,2,1,70,0,0
87592,-100,4,2,2,75,0,0
87766,-100,4,2,1,75,0,0
88115,-100,4,2,1,65,0,0
88987,-100,4,2,2,75,0,0
89161,-100,4,2,1,75,0,0
89510,-100,4,2,1,65,0,0
90208,-100,4,2,1,70,0,0
90382,-100,4,2,1,65,0,0
90732,-100,4,2,1,75,0,0
90906,-100,4,2,1,70,0,0
91081,-100,4,2,1,65,0,0
91255,-100,4,2,1,60,0,0
91429,-100,4,2,1,55,0,0
91604,-100,4,2,1,50,0,0
91691,-100,4,2,1,40,0,0
91778,-100,4,2,1,5,0,0

[Colours]
Combo1 : 250,169,238
Combo2 : 130,185,247
Combo3 : 240,180,151
Combo4 : 247,174,192

[HitObjects]
0,65,1081,6,0,P|73:58|146:44,1,148.49999546814,2|2,0:0|0:0,0:0:0:0:
129,221,2301,2,0,P|79:225|31:234,2,98.9999969787599,2|0|2,0:0|0:0|0:0,0:0:0:0:
344,279,3871,6,0,P|333:230|325:181,1,98.9999969787599,6|8,3:2|0:0,0:0:0:0:
319,137,4394,1,2,3:2:0:0:
258,70,4743,1,2,3:2:0:0:
325,11,5092,2,0,L|440:26,1,98.9999969787599,6|0,3:2|3:0,0:0:0:0:
467,30,5615,2,0,P|453:72|473:127,1,98.9999969787599,8|8,0:0|0:0,0:0:0:0:
505,204,6313,1,10,0:0:0:0:
475,298,6662,6,0,L|345:283,1,110,6|8,3:2|0:0,0:0:0:0:
316,282,7185,1,2,0:0:0:0:
270,193,7534,2,0,L|335:185,1,55,0|8,3:0|0:0,0:0:0:0:
374,181,7883,2,0,P|361:126|353:71,1,110,2|2,3:2|0:0,0:0:0:0:
344,29,8406,1,8,0:0:0:0:
344,29,8581,1,2,0:0:0:0:
245,26,8929,2,0,P|216:39|182:45,1,55,0|8,3:0|0:0,0:0:0:0:
151,70,9278,6,0,P|107:44|42:55,1,110,2|2,3:2|0:0,0:0:0:0:
10,78,9801,1,8,0:0:0:0:
10,78,9976,1,2,0:0:0:0:
86,140,10325,1,0,3:0:0:0:
27,219,10674,2,0,P|15:267|54:325,1,110,4|0,3:2|3:0,0:0:0:0:
92,341,11197,1,8,0:0:0:0:
92,341,11371,2,0,P|145:329|200:320,1,110,2|0,0:0|3:0,0:0:0:0:
249,317,11894,1,8,0:0:0:0:
319,248,12243,6,0,P|347:294|342:348,2,110,4|8|10,3:2|0:0|0:0,0:0:0:0:
269,162,13290,1,8,0:0:0:0:
183,211,13639,2,0,P|129:222|74:231,1,110,10|8,0:0|0:0,0:0:0:0:
27,218,14162,1,2,0:0:0:0:
43,120,14511,2,0,P|97:111|151:99,1,110,0|0,3:0|3:2,0:0:0:0:
196,79,15034,6,0,L|181:13,2,55,12|2|8,0:0|0:0|0:0,0:0:0:0:
217,123,15557,1,2,3:2:0:0:
183,211,15906,1,2,3:2:0:0:
244,288,16255,2,0,P|289:271|361:293,1,110,4|0,3:2|3:0,0:0:0:0:
387,313,16778,1,8,0:0:0:0:
485,319,17127,2,0,L|500:253,1,55,8|0,0:0|3:0,0:0:0:0:
463,228,17476,2,0,L|448:162,1,55,8|8,0:0|0:0,0:0:0:0:
462,126,17825,5,6,3:2:0:0:
402,57,18174,2,0,P|447:37|496:42,2,98.9999969787599,2|2|0,3:2|3:2|3:2,0:0:0:0:
367,84,19046,2,0,P|294:75|216:57,1,148.49999546814,2|2,0:0|3:2,0:0:0:0:
144,12,19918,2,0,P|95:23|46:28,1,98.9999969787599,0|0,3:2|3:2,0:0:0:0:
4,107,20615,5,0,3:2:0:0:
45,185,20964,2,0,L|28:284,2,98.9999969787599,2|2|0,3:2|3:2|3:2,0:0:0:0:
83,161,21836,2,0,L|234:185,1,148.49999546814,2|2,0:0|3:2,0:0:0:0:
298,127,22708,2,0,L|395:111,1,98.9999969787599,0|0,3:2|3:2,0:0:0:0:
474,154,23406,5,0,3:2:0:0:
417,222,23755,2,0,P|460:244|509:238,2,98.9999969787599,2|2|0,3:2|3:2|3:2,0:0:0:0:
372,226,24627,2,0,P|316:238|227:253,1,148.49999546814,2|2,0:0|3:2,0:0:0:0:
216,341,25499,2,0,P|171:331|101:319,1,98.9999969787599,0|0,3:2|3:2,0:0:0:0:
36,358,26197,6,0,P|24:308|52:257,1,98.9999969787599,2|2,3:2|3:2,0:0:0:0:
97,195,26894,2,0,P|103:144|71:95,1,98.9999969787599,2|8,3:2|0:0,0:0:0:0:
51,70,27418,2,0,L|163:51,1,98.9999969787599,6|0,3:2|3:0,0:0:0:0:
192,48,27941,1,8,0:0:0:0:
253,112,28290,2,0,L|243:167,1,49.4999984893799,8|0,0:0|3:0,0:0:0:0:
216,195,28639,2,0,L|225:250,1,49.4999984893799,8|8,0:0|3:0,0:0:0:0:
237,291,28987,6,0,P|182:277|128:303,2,110,4|8|2,3:2|0:0|3:2,0:0:0:0:
327,344,30034,1,8,0:0:0:0:
327,344,30208,2,0,P|379:358|429:338,1,110,2|0,0:0|0:0,0:0:0:0:
467,305,30732,2,0,P|458:255|444:183,1,110,8|0,0:0|3:0,0:0:0:0:
497,111,31429,1,8,0:0:0:0:
417,51,31778,6,0,P|452:15|518:21,2,110,0|10|2,3:0|0:0|3:2,0:0:0:0:
366,136,32825,1,8,0:0:0:0:
366,136,32999,2,0,L|243:154,1,110,2|0,0:0|0:0,0:0:0:0:
232,195,33522,2,0,L|123:179,1,110,8|0,0:0|3:0,0:0:0:0:
25,160,34220,1,8,0:0:0:0:
10,62,34569,6,0,P|40:17|92:6,2,110,6|8|2,3:2|0:0|3:2,0:0:0:0:
103,94,35615,1,8,0:0:0:0:
103,94,35790,2,0,L|211:78,1,110,2|0,0:0|0:0,0:0:0:0:
246,42,36313,2,0,L|354:57,1,110,10|0,0:0|3:0,0:0:0:0:
444,15,37011,1,8,0:0:0:0:
499,97,37360,6,0,P|488:145|476:225,1,110,6|8,3:2|0:0,0:0:0:0:
474,258,37883,1,2,0:0:0:0:
474,258,38057,2,0,P|422:245|364:280,1,110,2|8,3:2|0:0,0:0:0:0:
344,309,38581,2,0,L|235:293,1,110,6|0,3:2|3:0,0:0:0:0:
185,290,39104,1,8,0:0:0:0:
87,271,39453,2,0,P|81:306|76:330,2,55,8|0|10,0:0|3:0|0:0,0:0:0:0:
54,187,40150,6,0,B|-45:144|-30:36|35:-3|94:20|119:73|94:101,1,296.99999093628,6|0,3:2|0:0,0:0:0:0:
142,169,41546,2,0,B|195:140|242:191|242:191|286:218|351:186|334:103|280:99,1,296.99999093628,2|0,3:2|0:0,0:0:0:0:
200,61,42941,6,0,P|241:18|334:31,1,148.49999546814,2|2,3:2|0:0,0:0:0:0:
411,4,43813,1,0,0:0:0:0:
462,76,44162,2,0,B|428:118|457:176|457:176|489:236|439:314|439:314|388:289|382:242,1,346.49998942566,2|8,0:0|0:0,0:0:0:0:
352,151,45732,6,0,P|298:164|245:176,1,110,14|0,0:2|3:0,0:0:0:0:
209,211,46255,2,0,P|155:198|102:185,1,110,10|0,0:0|3:0,0:0:0:0:
61,156,46778,1,10,0:0:0:0:
4,237,47127,2,0,P|32:279|19:348,1,110,10|0,0:0|3:0,0:0:0:0:
71,356,47650,2,0,P|93:310|159:287,1,110,10|0,0:0|3:0,0:0:0:0:
195,292,48174,1,10,0:0:0:0:
284,333,48522,6,0,L|402:311,1,110,10|0,0:0|3:0,0:0:0:0:
441,307,49046,2,0,P|421:255|460:192,1,110,10|0,0:0|3:0,0:0:0:0:
471,168,49569,1,10,0:0:0:0:
471,168,49743,2,0,P|486:114|442:55,1,110,6|0,3:2|3:0,0:0:0:0:
425,35,50267,1,8,0:0:0:0:
328,13,50615,1,8,0:0:0:0:
261,87,50964,1,8,0:0:0:0:
261,87,51139,6,0,P|272:137|287:214,1,110,6|0,3:2|3:0,0:0:0:0:
310,236,51662,1,8,0:0:0:0:
368,156,52011,1,8,0:0:0:0:
219,315,52708,6,0,L|92:336,1,121.000003692627,6|8,3:2|0:0,0:0:0:0:
44,336,53232,2,0,P|51:280|2:210,1,121.000003692627,2|0,0:0|3:0,0:0:0:0:
58,184,53755,1,8,0:0:0:0:
58,184,53929,2,0,P|102:218|188:210,1,121.000003692627,2|0,3:2|3:2,0:0:0:0:
220,314,54627,2,0,P|264:279|350:287,1,121.000003692627,2|0,0:0|3:0,0:0:0:0:
380,291,55150,1,8,0:0:0:0:
433,195,55499,6,0,L|496:205,2,60.5000018463135,8|0|8,0:0|3:0|0:0,0:0:0:0:
388,163,56022,2,0,L|265:183,1,121.000003692627,2|0,0:0|3:0,0:0:0:0:
166,220,56720,2,0,P|157:160|140:81,1,121.000003692627,2|0,3:2|3:0,0:0:0:0:
156,50,57243,1,8,0:0:0:0:
156,50,57418,2,0,P|215:77|275:63,1,121.000003692627,2|0,0:0|3:0,0:0:0:0:
308,29,57941,1,8,0:0:0:0:
416,19,58290,6,0,L|475:9,2,60.5000018463135,4|2|8,3:2|0:0|0:0,0:0:0:0:
399,71,58813,2,0,P|411:130|424:196,1,121.000003692627,0|0,3:0|3:0,0:0:0:0:
479,281,59511,1,2,3:2:0:0:
388,341,59860,1,0,3:0:0:0:
328,250,60208,2,0,P|270:237|216:273,1,121.000003692627,2|0,0:0|3:0,0:0:0:0:
180,305,60732,2,0,L|106:317,1,60.5000018463135,8|0,0:0|0:0,0:0:0:0:
70,336,61081,6,0,P|63:280|44:202,1,121.000003692627,6|8,3:2|0:0,0:0:0:0:
63,164,61604,1,2,3:2:0:0:
9,69,61953,1,2,3:2:0:0:
96,5,62301,2,0,P|136:42|210:27,1,121.000003692627,6|0,3:2|3:0,0:0:0:0:
249,15,62825,1,12,0:0:0:0:
296,112,63174,2,0,P|289:141|285:171,1,60.5000018463135,8|0,0:0|3:0,0:0:0:0:
247,205,63522,2,0,P|253:234|257:264,1,60.5000018463135,8|8,0:0|0:0,0:0:0:0:
282,313,63871,6,0,L|409:295,1,121.000003692627,6|8,3:2|0:0,0:0:0:0:
454,308,64394,1,2,0:0:0:0:
505,212,64743,2,0,P|497:169|492:136,1,60.5000018463135,0|8,3:0|0:0,0:0:0:0:
495,97,65092,2,0,P|447:106|398:37,1,121.000003692627,2|0,3:2|3:2,0:0:0:0:
383,12,65615,1,8,0:0:0:0:
383,12,65790,1,2,0:0:0:0:
274,17,66139,2,0,P|247:31|210:26,1,60.5000018463135,0|8,3:0|0:0,0:0:0:0:
177,65,66487,6,0,P|127:34|57:48,1,121.000003692627,0|0,3:0|3:0,0:0:0:0:
19,64,67011,1,8,0:0:0:0:
19,64,67185,1,2,0:0:0:0:
102,133,67534,1,0,3:0:0:0:
6,184,67883,2,0,P|18:232|37:319,1,121.000003692627,2|0,3:2|3:0,0:0:0:0:
53,358,68406,1,8,0:0:0:0:
53,358,68581,2,0,L|180:340,1,121.000003692627,2|0,0:0|3:0,0:0:0:0:
226,333,69104,1,8,0:0:0:0:
281,239,69453,5,4,3:2:0:0:
174,239,69802,1,10,0:0:0:0:
120,147,70150,1,10,0:0:0:0:
174,53,70499,1,8,0:0:0:0:
281,53,70848,1,8,0:0:0:0:
334,147,71197,1,10,0:0:0:0:
334,147,71371,2,0,L|455:128,1,121.000003692627,2|0,0:0|3:0,0:0:0:0:
508,131,71894,1,8,0:0:0:0:
504,239,72243,6,0,P|455:222|405:267,1,121.000003692627,6|8,3:2|0:0,0:0:0:0:
401,318,72767,1,2,3:2:0:0:
314,252,73115,1,2,3:2:0:0:
253,342,73464,2,0,L|132:323,1,121.000003692627,6|0,3:2|3:0,0:0:0:0:
84,315,73987,2,0,P|85:280|71:251,1,60.5000018463135,8|0,0:0|3:0,0:0:0:0:
64,203,74336,2,0,P|94:186|112:160,1,60.5000018463135,8|0,0:0|3:0,0:0:0:0:
157,137,74685,1,8,0:0:0:0:
157,137,74860,1,0,3:0:0:0:
495,25,76255,6,0,P|460:62|408:59,1,98.9999969787599,12|0,0:0|3:0,0:0:0:0:
366,86,76778,2,0,P|331:49|279:52,1,98.9999969787599,12|8,0:0|0:0,0:0:0:0:
205,9,77476,1,8,0:0:0:0:
133,77,77825,6,0,P|147:128|164:199,1,110,6|8,3:2|0:0,0:0:0:0:
175,230,78348,1,2,0:0:0:0:
85,272,78697,2,0,P|78:245|71:218,1,55,0|8,3:0|0:0,0:0:0:0:
50,173,79046,2,0,P|37:119|22:66,1,110,2|2,3:2|0:0,0:0:0:0:
52,28,79569,1,8,0:0:0:0:
52,28,79743,1,2,0:0:0:0:
133,77,80092,2,0,L|199:64,1,55,0|8,3:0|0:0,0:0:0:0:
224,34,80441,6,0,L|332:55,1,110,2|2,3:2|0:0,0:0:0:0:
384,47,80964,1,8,0:0:0:0:
384,47,81139,1,2,0:0:0:0:
467,99,81487,1,0,3:0:0:0:
434,192,81836,2,0,P|423:241|447:300,1,110,4|0,3:2|3:0,0:0:0:0:
414,337,82360,1,8,0:0:0:0:
414,337,82534,2,0,P|377:302|313:294,1,110,2|0,0:0|3:0,0:0:0:0:
270,295,83057,1,8,0:0:0:0:
258,196,83406,6,0,P|305:181|345:130,2,110,4|8|10,3:2|0:0|0:0,0:0:0:0:
253,96,84453,1,8,0:0:0:0:
165,51,84801,2,0,P|124:86|63:80,1,110,10|8,0:0|0:0,0:0:0:0:
27,109,85325,1,2,0:0:0:0:
25,208,85674,2,0,P|75:224|101:281,1,110,0|0,3:0|3:2,0:0:0:0:
119,318,86197,6,0,L|64:326,2,55,12|2|8,0:0|0:0|0:0,0:0:0:0:
168,324,86720,1,2,3:2:0:0:
229,246,87069,1,2,3:2:0:0:
221,147,87418,1,0,3:0:0:0:
221,147,87592,6,0,L|166:138,2,55,12|2|8,0:0|0:0|0:0,0:0:0:0:
270,141,88115,1,2,3:2:0:0:
331,219,88464,1,2,3:2:0:0:
331,219,88639,2,0,L|385:210,1,55,8|8,0:0|0:0,0:0:0:0:
433,219,88987,6,0,P|432:248|441:273,2,55,6|2|8,3:2|0:0|0:0,0:0:0:0:
468,184,89511,1,2,3:2:0:0:
464,85,89860,1,2,3:2:0:0:
376,38,90208,2,0,L|245:59,1,110,6|0,3:2|3:0,0:0:0:0:
222,76,90732,2,0,P|232:111|239:142,1,55,8|8,0:0|0:0,0:0:0:0:
274,160,91081,2,0,P|264:195|257:226,1,55,10|8,0:0|0:0,0:0:0:0:
218,240,91429,2,0,P|233:298|245:350,1,110,10|0,0:0|0:0,0:0:0:0:
