osu file format v14

[General]
AudioFilename: audio.ogg
AudioLeadIn: 0
PreviewTime: 470
Countdown: 0
SampleSet: Soft
StackLeniency: 0.7
Mode: 0
LetterboxInBreaks: 0
WidescreenStoryboard: 1

[Editor]
Bookmarks: 1081,3871,6662,17825,27418,28987,40150,45732,52708,63871,75034,76255,77825,90208,91778
DistanceSpacing: 0.9
BeatDivisor: 4
GridSize: 8
TimelineZoom: 1.7

[Metadata]
Title:Hallelujah!
TitleUnicode:ハレルヤ!
Artist:Asakura Kirika (CV: Akabane Kyouko)
ArtistUnicode:朝倉霧香(CV: 明羽杏子)
Creator:tomatas95
Version:Log Off Now's Kiseki
Source:神様のような君へ Extended Edition
Tags:eroge 神君 かみきみ Kami-sama no You na Kimi e cube Kamikimi To you like goddess visual novel vn opening op video game hareruya japanese log off now log_off_now galgame j-pop jpop pop
BeatmapID:4514820
BeatmapSetID:2095242

[Difficulty]
HPDrainRate:5
CircleSize:3.8
OverallDifficulty:8.5
ApproachRate:8.8
SliderMultiplier:1.6
SliderTickRate:1

[Events]
//Background and Video events
0,0,"ilovethisgamesomuch.jpg",0,0
Video,0,"ecchidesuuuiiyaaaa.mp4"
//Break Periods
2,43141,44579
//Storyboard Layer 0 (Background)
//Storyboard Layer 1 (Fail)
//Storyboard Layer 2 (Pass)
//Storyboard Layer 3 (Foreground)
//Storyboard Layer 4 (Overlay)
//Storyboard Sound Samples

[TimingPoints]
1081,348.837209302326,4,2,1,40,1,0
1081,-125,4,2,1,40,0,0
1429,-125,4,2,1,35,0,0
2301,-125,4,2,1,45,0,0
2825,-125,4,2,1,35,0,0
2999,-125,4,2,1,40,0,0
3522,-125,4,2,1,35,0,0
3871,-100,4,2,1,70,0,0
4220,-100,4,2,1,65,0,0
4394,-100,4,2,1,60,0,0
5092,-100,4,2,2,65,0,0
5441,-100,4,2,1,60,0,0
5964,-100,4,2,1,55,0,0
6139,-100,4,2,1,60,0,0
6313,-100,4,2,1,65,0,0
6487,-100,4,2,1,70,0,0
6662,-83.3333333333333,4,2,1,75,0,0
6836,-83.3333333333333,4,2,1,70,0,0
6924,-83.3333333333333,4,2,2,5,0,0
7011,-83.3333333333333,4,2,1,70,0,0
9453,-83.3333333333333,4,2,1,75,0,0
9627,-83.3333333333333,4,2,1,70,0,0
10674,-83.3333333333333,4,2,2,75,0,0
10848,-83.3333333333333,4,2,1,70,0,0
11720,-83.3333333333333,4,2,1,65,0,0
12069,-83.3333333333333,4,2,1,70,0,0
12243,-83.3333333333333,4,2,1,75,0,0
12417,-83.3333333333333,4,2,1,70,0,0
12505,-83.3333333333333,4,2,2,5,0,0
12592,-71.4285714285714,4,2,1,70,0,0
15034,-71.4285714285714,4,2,2,75,0,0
15208,-71.4285714285714,4,2,1,75,0,0
15557,-71.4285714285714,4,2,1,65,0,0
16255,-71.4285714285714,4,2,1,70,0,0
16429,-71.4285714285714,4,2,1,65,0,0
16778,-71.4285714285714,4,2,1,70,0,0
17825,-100,4,2,2,65,0,0
17999,-100,4,2,1,60,0,0
18086,-100,4,2,2,5,0,0
18174,-100,4,2,1,60,0,0
20615,-100,4,2,2,65,0,0
20789,-100,4,2,1,60,0,0
20877,-100,4,2,2,5,0,0
20964,-100,4,2,1,60,0,0
23406,-100,4,2,2,65,0,0
23580,-100,4,2,1,60,0,0
23668,-100,4,2,2,5,0,0
23755,-100,4,2,1,60,0,0
26197,-100,4,2,2,65,0,0
26371,-100,4,2,1,60,0,0
27418,-100,4,2,2,65,0,0
27767,-100,4,2,1,65,0,0
28290,-100,4,2,1,70,0,0
28464,-100,4,2,1,65,0,0
28813,-100,4,2,1,60,0,0
28987,-86.9565217391304,4,2,2,70,0,0
29249,-86.9565217391304,4,2,2,5,0,0
29336,-86.9565217391304,4,2,1,65,0,0
31778,-86.9565217391304,4,2,1,70,0,0
32040,-86.9565217391304,4,2,1,5,0,0
32127,-86.9565217391304,4,2,1,65,0,0
34569,-86.9565217391304,4,2,2,70,0,0
34831,-86.9565217391304,4,2,1,5,0,0
34918,-86.9565217391304,4,2,1,65,0,0
37360,-86.9565217391304,4,2,2,70,0,0
37622,-86.9565217391304,4,2,1,5,0,0
37708,-86.9565217391304,4,2,1,65,0,0
38581,-86.9565217391304,4,2,1,70,0,0
38929,-86.9565217391304,4,2,1,70,0,0
39627,-86.9565217391304,4,2,1,65,0,0
39801,-86.9565217391304,4,2,1,60,0,0
39976,-86.9565217391304,4,2,1,55,0,0
40150,-86.9565217391304,4,2,3,60,0,0
40325,-86.9565217391304,4,2,1,60,0,0
40499,-86.9565217391304,4,2,1,55,0,0
40848,-86.9565217391304,4,2,1,45,0,0
41197,-86.9565217391304,4,2,1,40,0,0
41371,-86.9565217391304,4,2,1,50,0,0
41546,-86.9565217391304,4,2,3,55,0,0
41720,-86.9565217391304,4,2,3,50,0,0
41894,-86.9565217391304,4,2,1,45,0,0
42243,-86.9565217391304,4,2,1,40,0,0
42592,-86.9565217391304,4,2,1,35,0,0
42941,-86.9565217391304,4,2,1,55,0,0
45208,-86.9565217391304,4,2,1,50,0,0
45383,-76.9230769230769,4,2,1,55,0,0
45644,-76.9230769230769,4,2,1,55,0,0
45732,-76.9230769230769,4,2,2,60,0,0
45906,-76.9230769230769,4,2,1,60,0,0
46255,-76.9230769230769,4,2,1,65,0,0
47127,-76.9230769230769,4,2,1,70,0,0
48174,-76.9230769230769,4,2,1,75,0,0
49046,-76.9230769230769,4,2,1,80,0,0
49743,-76.9230769230769,4,2,1,85,0,0
50092,-76.9230769230769,4,2,1,70,0,0
50267,-76.9230769230769,4,2,1,75,0,0
51139,-76.9230769230769,4,2,2,70,0,0
51487,-76.9230769230769,4,2,1,70,0,0
52185,-76.9230769230769,4,2,1,60,0,0
52708,-71.4285714285714,4,2,1,85,0,1
53057,-71.4285714285714,4,2,1,80,0,1
53929,-71.4285714285714,4,2,1,85,0,1
54104,-71.4285714285714,4,2,1,80,0,1
55499,-71.4285714285714,4,2,1,85,0,1
55674,-71.4285714285714,4,2,1,80,0,1
56720,-71.4285714285714,4,2,2,85,0,1
56894,-71.4285714285714,4,2,1,80,0,1
58290,-71.4285714285714,4,2,2,85,0,1
58464,-71.4285714285714,4,2,1,80,0,1
58639,-71.4285714285714,4,2,1,80,0,1
59511,-71.4285714285714,4,2,1,85,0,1
59686,-71.4285714285714,4,2,1,80,0,1
61081,-71.4285714285714,4,2,2,85,0,1
61255,-71.4285714285714,4,2,1,80,0,1
61429,-71.4285714285714,4,2,1,80,0,1
61604,-71.4285714285714,4,2,1,70,0,1
62301,-71.4285714285714,4,2,2,75,0,1
62650,-71.4285714285714,4,2,1,70,0,1
62825,-71.4285714285714,4,2,2,70,0,1
63174,-71.4285714285714,4,2,2,75,0,1
63522,-71.4285714285714,4,2,2,80,0,0
63871,-71.4285714285714,4,2,1,85,0,1
64220,-71.4285714285714,4,2,1,80,0,1
65092,-71.4285714285714,4,2,1,85,0,1
65267,-71.4285714285714,4,2,1,80,0,1
66662,-71.4285714285714,4,2,1,85,0,1
66837,-71.4285714285714,4,2,1,80,0,1
67883,-71.4285714285714,4,2,2,85,0,1
68057,-71.4285714285714,4,2,1,80,0,1
69453,-71.4285714285714,4,2,2,85,0,1
69627,-71.4285714285714,4,2,1,80,0,1
69714,-71.4285714285714,4,2,1,5,0,1
69801,-71.4285714285714,4,2,1,80,0,1
70412,-71.4285714285714,4,2,1,80,0,1
70499,-71.4285714285714,4,2,1,80,0,1
72243,-71.4285714285714,4,2,2,85,0,1
72417,-71.4285714285714,4,2,1,80,0,1
72591,-71.4285714285714,4,2,1,80,0,1
72767,-71.4285714285714,4,2,1,70,0,1
73464,-71.4285714285714,4,2,2,75,0,1
73812,-71.4285714285714,4,2,1,70,0,1
73987,-71.4285714285714,4,2,1,75,0,1
74336,-71.4285714285714,4,2,1,80,0,1
74685,-71.4285714285714,4,2,1,85,0,1
75034,-100,4,2,1,50,0,0
75557,-100,4,2,1,55,0,0
76081,-100,4,2,1,60,0,0
76168,-100,4,2,1,5,0,0
76255,-100,4,2,2,70,0,0
76429,-100,4,2,2,70,0,0
76604,-100,4,2,1,65,0,0
76778,-100,4,2,2,65,0,0
76953,-100,4,2,1,65,0,0
77127,-100,4,2,1,70,0,0
77476,-83.3333333333333,4,2,1,75,0,0
77825,-83.3333333333333,4,2,1,75,0,0
77999,-83.3333333333333,4,2,1,70,0,0
78087,-83.3333333333333,4,2,2,5,0,0
78174,-83.3333333333333,4,2,1,70,0,0
80616,-83.3333333333333,4,2,1,75,0,0
80790,-83.3333333333333,4,2,1,70,0,0
81837,-83.3333333333333,4,2,2,75,0,0
82011,-83.3333333333333,4,2,1,70,0,0
82883,-83.3333333333333,4,2,1,65,0,0
83232,-83.3333333333333,4,2,1,70,0,0
83406,-83.3333333333333,4,2,1,75,0,0
83580,-83.3333333333333,4,2,1,70,0,0
83668,-83.3333333333333,4,2,2,5,0,0
83755,-71.4285714285714,4,2,1,70,0,0
86197,-71.4285714285714,4,2,2,75,0,0
86371,-71.4285714285714,4,2,1,75,0,0
86720,-71.4285714285714,4,2,1,65,0,0
87418,-71.4285714285714,4,2,1,70,0,0
87592,-71.4285714285714,4,2,2,75,0,0
87766,-71.4285714285714,4,2,1,75,0,0
88115,-71.4285714285714,4,2,1,65,0,0
88987,-71.4285714285714,4,2,2,75,0,0
89161,-71.4285714285714,4,2,1,75,0,0
89510,-71.4285714285714,4,2,1,65,0,0
90208,-71.4285714285714,4,2,1,70,0,0
90382,-71.4285714285714,4,2,1,65,0,0
90732,-71.4285714285714,4,2,1,75,0,0
90906,-71.4285714285714,4,2,1,70,0,0
91081,-71.4285714285714,4,2,1,65,0,0
91255,-71.4285714285714,4,2,1,60,0,0
91429,-71.4285714285714,4,2,1,55,0,0
91604,-71.4285714285714,4,2,1,50,0,0
91691,-71.4285714285714,4,2,1,40,0,0
91778,-71.4285714285714,4,2,1,40,0,0

[Colours]
Combo1 : 250,169,238
Combo2 : 130,185,247
Combo3 : 240,180,151
Combo4 : 247,174,192

[HitObjects]
200,232,1081,5,2,0:0:0:0:
227,313,1255,2,0,P|242:359|249:382,2,64,2|0|2,0:0|0:0|0:0,0:0:0:0:
180,150,1953,2,0,P|134:135|110:128,2,64,2|2|2,0:0|0:0|0:0,0:0:0:0:
342,186,2651,2,0,P|388:170|411:163,1,64,2|0,0:0|0:0,0:0:0:0:
285,126,2999,2,0,P|258:165|294:252,1,128,2|0,0:0|0:0,0:0:0:0:
345,358,3522,1,2,0:0:0:0:
199,274,3697,1,2,0:0:0:0:
425,196,3871,5,6,3:2:0:0:
325,275,4046,2,0,L|273:259,2,40,8|8|8,0:0|0:0|0:0,0:0:0:0:
425,384,4394,1,2,3:2:0:0:
335,179,4743,5,2,3:2:0:0:
237,340,5092,6,0,L|78:290,1,160,6|0,3:2|3:0,0:0:0:0:
23,122,5615,1,8,0:0:0:0:
138,204,5790,1,0,3:0:0:0:
17,344,5964,6,0,L|-5:293,3,40,8|0|2|0,0:0|3:0|3:2|3:0,0:0:0:0:
34,221,6313,1,10,0:0:0:0:
60,207,6400,1,8,0:0:0:0:
90,204,6487,1,10,0:2:0:0:
119,211,6574,1,8,0:0:0:0:
144,227,6662,1,6,3:2:0:0:
234,384,6836,5,2,0:0:0:0:
301,192,7011,1,8,0:0:0:0:
158,322,7185,2,0,L|41:352,1,95.9999970703126,2|8,0:0|0:0,0:0:0:0:
200,139,7534,5,0,3:0:0:0:
264,308,7709,1,8,0:0:0:0:
342,102,7883,2,0,L|459:132,1,95.9999970703126,2|8,3:2|0:0,0:0:0:0:
351,348,8232,5,2,0:0:0:0:
288,177,8406,1,8,0:0:0:0:
458,213,8581,2,0,P|498:264|415:366,1,191.999994140625,2|0,0:0|3:0,0:0:0:0:
204,197,9104,5,8,0:0:0:0:
403,74,9278,2,0,L|373:191,1,95.9999970703126,2|8,3:2|0:0,0:0:0:0:
144,277,9627,5,2,0:0:0:0:
358,348,9801,1,8,0:0:0:0:
222,162,9976,2,0,L|252:279,1,95.9999970703126,2|8,0:0|0:0,0:0:0:0:
86,384,10325,2,0,L|116:267,1,95.9999970703126,0|8,3:0|0:0,0:0:0:0:
42,131,10674,6,0,P|95:194|213:148,1,191.999994140625,4|0,3:2|3:0,0:0:0:0:
278,16,11197,1,8,0:0:0:0:
438,114,11371,2,0,B|368:97|368:97|325:127|325:127|251:109,1,191.999994140625,2|0,0:0|3:0,0:0:0:0:
193,175,11894,5,8,0:0:0:0:
303,37,12069,1,0,3:0:0:0:
79,19,12243,2,0,P|97:63|120:128,1,95.9999970703126,4|0,3:2|0:0,0:0:0:0:
296,246,12592,6,0,L|430:207,1,111.999996582031,8|0,0:0|0:0,0:0:0:0:
173,369,12941,2,0,L|39:330,1,111.999996582031,10|0,0:0|3:0,0:0:0:0:
211,162,13290,1,8,0:0:0:0:
287,362,13464,1,0,3:0:0:0:
370,100,13639,6,0,P|437:82|473:100,1,111.999996582031,10|0,0:0|0:0,0:0:0:0:
316,270,13987,1,8,0:0:0:0:
240,150,14162,2,0,L|106:189,1,111.999996582031,2|8,0:0|0:0,0:0:0:0:
86,63,14511,5,0,3:0:0:0:
145,209,14685,1,8,0:0:0:0:
187,18,14860,1,0,3:2:0:0:
102,292,15034,5,12,0:0:0:0:
36,144,15208,1,2,0:0:0:0:
230,205,15383,1,8,0:0:0:0:
17,308,15557,5,2,3:2:0:0:
241,120,15732,1,8,0:0:0:0:
194,339,15906,5,2,3:2:0:0:
115,84,16081,1,8,0:0:0:0:
290,284,16255,6,0,L|511:347,1,223.999993164063,4|0,3:2|3:0,0:0:0:0:
362,205,16778,1,8,0:0:0:0:
293,384,16953,1,8,0:0:0:0:
293,384,17040,1,8,0:0:0:0:
293,384,17127,1,8,0:0:0:0:
240,176,17301,1,0,3:0:0:0:
397,287,17476,5,8,0:0:0:0:
430,261,17563,1,8,0:0:0:0:
448,224,17650,1,8,0:0:0:0:
446,182,17737,1,8,0:0:0:0:
424,145,17825,6,0,L|254:194,1,160,6|2,3:2|3:2,0:0:0:0:
67,14,18522,2,0,L|237:63,1,160,2|0,3:2|3:2,0:0:0:0:
107,189,19046,2,0,P|79:133|88:110,1,80,2|0,0:0|3:0,0:0:0:0:
185,215,19394,1,2,0:0:0:0:
185,215,19569,2,0,P|150:267|126:270,1,80,2|0,3:2|0:0,0:0:0:0:
166,125,19918,2,0,L|336:174,2,160,0|0|0,3:2|3:2|3:2,0:0:0:0:
61,309,20964,6,0,L|139:286,1,80,2|0,3:2|0:0,0:0:0:0:
185,215,21313,2,0,L|263:237,1,80,2|0,3:2|0:0,0:0:0:0:
350,368,21662,1,2,3:2:0:0:
350,368,21836,2,0,P|322:312|331:289,1,80,2|0,0:0|3:2,0:0:0:0:
454,255,22185,1,2,0:0:0:0:
454,255,22359,2,0,P|419:307|395:310,1,80,2|0,3:2|0:0,0:0:0:0:
323,159,22708,2,0,P|302:77|278:-11,1,160,0|0,3:2|3:2,0:0:0:0:
210,168,23406,6,0,P|156:137|63:194,1,160,0|2,3:2|3:2,0:0:0:0:
159,333,24104,2,0,P|213:364|306:307,1,160,2|0,3:2|3:2,0:0:0:0:
351,177,24627,2,0,P|323:233|332:256,1,80,2|0,0:0|3:2,0:0:0:0:
387,328,24976,1,2,0:0:0:0:
387,328,25150,2,0,P|411:258|446:174,2,160,2|0|0,3:2|3:2|3:2,0:0:0:0:
459,377,26022,1,2,0:0:0:0:
311,290,26197,6,0,P|246:309|221:318,1,80,2|0,3:2|0:0,0:0:0:0:
374,213,26546,2,0,P|439:232|464:241,1,80,2|0,3:2|0:0,0:0:0:0:
303,140,26894,2,0,P|238:159|213:168,1,80,2|0,3:2|0:0,0:0:0:0:
380,70,27243,1,8,0:0:0:0:
311,290,27418,6,0,P|191:324|145:341,1,160,6|0,3:2|3:0,0:0:0:0:
39,134,27941,1,8,0:0:0:0:
197,214,28115,2,0,P|222:204|268:194,2,40,8|8|8,0:0|0:0|0:0,0:0:0:0:
3,286,28464,1,0,3:0:0:0:
180,105,28639,1,8,0:0:0:0:
100,299,28813,1,8,3:0:0:0:
0,172,28987,6,0,L|115:205,1,92.0000017547608,4|0,3:2|0:0,0:0:0:0:
182,352,29336,2,0,L|270:326,1,92.0000017547608,8|0,0:0|0:0,0:0:0:0:
327,155,29685,2,0,P|295:195|311:259,1,92.0000017547608,2|0,3:2|0:0,0:0:0:0:
369,372,30034,1,8,0:0:0:0:
466,250,30208,2,0,L|377:275,1,92.0000017547608,2|0,0:0|3:0,0:0:0:0:
229,144,30557,1,2,0:0:0:0:
229,144,30732,2,0,P|285:189|255:314,2,184.000003509522,8|0|8,0:0|3:0|0:0,0:0:0:0:
121,260,31604,1,0,0:0:0:0:
121,260,31778,2,0,L|209:234,1,92.0000017547608,0|0,3:0|0:0,0:0:0:0:
316,147,32127,6,0,L|404:172,1,92.0000017547608,10|0,0:0|0:0,0:0:0:0:
194,62,32476,2,0,L|5:116,1,184.000003509522,2|8,3:2|0:0,0:0:0:0:
154,238,32999,2,0,P|191:192|182:142,1,92.0000017547608,2|0,0:0|3:0,0:0:0:0:
16,61,33348,1,2,0:0:0:0:
111,172,33522,1,8,0:0:0:0:
187,18,33697,1,0,3:0:0:0:
88,189,33871,2,0,L|-6:216,1,92.0000017547608,0|2,3:0|0:0,0:0:0:0:
97,79,34220,2,0,L|191:106,1,92.0000017547608,8|0,0:0|0:0,0:0:0:0:
257,260,34569,6,0,L|345:234,1,92.0000017547608,6|0,3:2|0:0,0:0:0:0:
418,128,34918,2,0,P|379:174|438:283,1,184.000003509522,8|2,0:0|3:2,0:0:0:0:
463,201,35441,1,2,0:0:0:0:
348,334,35615,1,8,0:0:0:0:
295,157,35790,2,0,P|248:118|139:177,1,184.000003509522,2|0,0:0|0:0,0:0:0:0:
196,290,36313,2,0,L|221:201,1,92.0000017547608,10|0,0:0|0:0,0:0:0:0:
100,45,36662,2,0,L|125:134,1,92.0000017547608,0|0,3:0|0:0,0:0:0:0:
66,295,37011,1,8,0:0:0:0:
33,177,37185,1,0,0:0:0:0:
173,307,37360,6,0,L|223:130,1,184.000003509522,6|8,3:2|0:0,0:0:0:0:
223,130,37883,1,2,0:0:0:0:
269,325,38057,2,0,P|314:351|377:340,1,92.0000017547608,2|0,3:2|0:0,0:0:0:0:
426,146,38406,1,8,0:0:0:0:
280,234,38581,2,0,L|68:296,1,184.000003509522,6|0,3:2|3:0,0:0:0:0:
26,168,39104,5,8,0:0:0:0:
52,146,39191,1,8,0:0:0:0:
85,136,39278,1,8,0:0:0:0:
119,140,39365,1,8,0:0:0:0:
149,156,39452,1,8,0:0:0:0:
83,359,39627,1,0,3:0:0:0:
28,248,39801,1,10,0:0:0:0:
182,276,39976,1,0,3:0:0:0:
64,378,40150,5,6,3:2:0:0:
207,191,41371,1,0,3:0:0:0:
207,191,41546,1,2,3:2:0:0:
327,299,42941,5,2,3:2:0:0:
282,189,45208,5,0,3:0:0:0:
353,281,45383,5,8,0:0:0:0:
357,264,45470,1,0,3:0:0:0:
361,247,45557,1,0,3:0:0:0:
366,230,45644,1,0,3:0:0:0:
370,214,45732,6,0,L|396:104,1,103.999995239258,14|0,0:2|3:0,0:0:0:0:
333,33,46081,1,0,3:0:0:0:
200,112,46255,2,0,P|179:177|234:222,1,103.999995239258,10|0,0:0|3:0,0:0:0:0:
257,276,46604,1,0,3:0:0:0:
364,136,46778,2,0,L|254:162,1,103.999995239258,10|0,0:0|3:0,0:0:0:0:
160,345,47127,5,10,0:0:0:0:
81,165,47301,1,0,3:0:0:0:
282,266,47476,1,0,3:0:0:0:
64,351,47650,5,10,0:0:0:0:
182,204,47825,1,0,3:0:0:0:
246,376,47999,1,0,3:0:0:0:
60,250,48174,1,10,0:0:0:0:
331,156,48348,1,0,3:0:0:0:
172,305,48522,6,0,L|62:279,1,103.999995239258,10|0,0:0|3:0,0:0:0:0:
198,115,48871,1,0,3:0:0:0:
265,265,49046,2,0,L|375:239,1,103.999995239258,10|0,0:0|3:0,0:0:0:0:
490,98,49394,5,0,3:0:0:0:
386,344,49569,1,10,0:0:0:0:
290,97,49743,2,0,P|251:43|112:88,1,207.999990478516,6|0,3:2|3:0,0:0:0:0:
158,245,50267,5,8,0:0:0:0:
198,115,50441,1,0,3:0:0:0:
254,273,50615,5,8,0:0:0:0:
69,222,50790,1,0,3:0:0:0:
298,139,50964,5,8,0:0:0:0:
228,368,51139,2,0,L|11:303,1,207.999990478516,6|0,3:2|3:0,0:0:0:0:
98,102,51662,1,8,0:0:0:0:
329,343,52011,1,8,0:0:0:0:
402,275,52185,5,10,0:0:0:0:
359,246,52272,1,8,0:0:0:0:
307,244,52359,1,8,0:0:0:0:
262,268,52446,1,8,0:0:0:0:
216,292,52534,1,10,0:0:0:0:
165,290,52621,1,8,0:0:0:0:
122,261,52708,2,0,P|98:197|151:127,1,111.999996582031,6|0,3:2|0:0,0:0:0:0:
257,3,53057,5,8,0:0:0:0:
314,156,53232,2,0,L|180:116,1,111.999996582031,2|8,0:0|0:0,0:0:0:0:
138,10,53581,5,0,3:0:0:0:
55,224,53755,1,8,0:0:0:0:
0,129,53929,2,0,P|64:105|134:158,1,111.999996582031,2|8,3:2|0:0,0:0:0:0:
201,337,54278,5,0,3:2:0:0:
46,257,54453,1,8,0:0:0:0:
248,240,54627,2,0,L|508:317,1,223.999993164063,2|0,0:0|3:0,0:0:0:0:
359,154,55150,1,8,0:0:0:0:
281,363,55325,2,0,P|217:387|147:334,1,111.999996582031,0|8,3:0|0:0,0:0:0:0:
121,166,55674,5,0,3:0:0:0:
224,277,55848,1,8,0:0:0:0:
64,379,56022,2,0,L|104:245,1,111.999996582031,2|8,0:0|0:0,0:0:0:0:
260,146,56371,2,0,L|227:38,1,111.999996582031,0|8,3:0|0:0,0:0:0:0:
1,229,56720,6,0,P|60:176|193:244,1,223.999993164063,2|0,3:2|3:0,0:0:0:0:
282,359,57243,1,8,0:0:0:0:
389,180,57418,1,2,0:0:0:0:
211,234,57592,5,8,0:0:0:0:
424,323,57767,1,0,3:0:0:0:
183,221,57941,1,8,0:0:0:0:
411,152,58115,1,0,3:0:0:0:
153,30,58290,6,0,P|125:91|165:158,1,111.999996582031,4|2,3:2|0:0,0:0:0:0:
232,314,58639,1,8,0:0:0:0:
334,99,58813,2,0,L|226:131,1,111.999996582031,0|8,3:0|0:0,0:0:0:0:
139,361,59162,1,0,3:0:0:0:
139,361,59249,1,0,3:0:0:0:
139,361,59336,1,8,0:0:0:0:
18,195,59511,6,0,L|125:227,1,111.999996582031,2|8,3:2|0:0,0:0:0:0:
241,384,59860,2,0,L|348:351,1,111.999996582031,0|8,3:0|0:0,0:0:0:0:
282,106,60208,2,0,P|228:150|271:290,1,223.999993164063,2|0,0:0|3:0,0:0:0:0:
454,134,60732,1,8,0:0:0:0:
309,204,60906,1,0,3:0:0:0:
511,269,61081,5,6,3:2:0:0:
305,91,61255,1,2,0:0:0:0:
406,253,61429,1,8,0:0:0:0:
458,29,61604,5,2,3:2:0:0:
276,197,61778,1,8,0:0:0:0:
478,20,61953,5,2,3:2:0:0:
227,93,62127,1,8,0:0:0:0:
503,11,62301,6,0,L|444:247,1,223.999993164063,6|0,3:2|3:0,0:0:0:0:
266,363,62825,1,12,0:0:0:0:
208,175,62999,2,0,L|191:113,2,55.9999982910157,8|8|8,0:0|0:0|0:0,0:0:0:0:
333,275,63348,1,0,3:0:0:0:
111,350,63522,5,8,0:0:0:0:
89,322,63609,1,8,0:0:0:0:
80,288,63696,1,8,0:0:0:0:
84,253,63783,1,8,0:0:0:0:
101,223,63871,2,0,L|208:256,1,111.999996582031,6|0,3:2|0:0,0:0:0:0:
351,132,64220,5,8,0:0:0:0:
205,55,64394,2,0,P|177:116|217:183,1,111.999996582031,2|8,0:0|0:0,0:0:0:0:
297,322,64743,5,0,3:0:0:0:
382,119,64918,1,8,0:0:0:0:
186,279,65092,2,0,L|54:238,1,111.999996582031,2|8,3:2|0:0,0:0:0:0:
14,74,65441,5,0,3:2:0:0:
156,160,65615,1,8,0:0:0:0:
58,341,65790,2,0,P|-7:261|82:139,1,223.999993164063,2|0,0:0|3:0,0:0:0:0:
269,67,66313,5,8,0:0:0:0:
186,279,66487,2,0,L|54:238,1,111.999996582031,0|8,3:0|0:0,0:0:0:0:
189,126,66836,5,0,3:0:0:0:
259,345,67011,1,8,0:0:0:0:
344,144,67185,2,0,P|395:124|449:144,1,111.999996582031,2|8,0:0|0:0,0:0:0:0:
370,360,67534,2,0,L|329:228,1,111.999996582031,0|8,3:0|0:0,0:0:0:0:
434,35,67883,6,0,B|499:88|499:88|448:257,1,223.999993164063,2|0,3:2|3:0,0:0:0:0:
412,384,68406,1,8,0:0:0:0:
313,135,68581,1,2,0:0:0:0:
508,290,68755,2,0,P|450:308|389:267,1,111.999996582031,8|0,0:0|3:0,0:0:0:0:
292,118,69104,2,0,P|234:100|173:141,1,111.999996582031,8|0,0:0|3:0,0:0:0:0:
112,352,69453,6,0,P|170:281|134:189,1,167.999994873047,4|0,3:2|0:0,0:0:0:0:
119,195,69801,2,0,L|-13:236,1,111.999996582031,10|0,0:0|0:0,0:0:0:0:
242,353,70150,6,0,L|439:291,1,167.999994873047,10|0,0:0|3:0,0:0:0:0:
443,288,70499,2,0,P|389:239|389:184,1,111.999996582031,8|0,0:0|3:0,0:0:0:0:
510,94,70848,6,0,L|472:215,1,111.999996582031,8|0,0:0|0:0,0:0:0:0:
419,374,71197,1,10,0:0:0:0:
356,185,71371,2,0,P|286:163|239:192,1,111.999996582031,2|8,0:0|0:0,0:0:0:0:
180,354,71720,1,0,3:0:0:0:
180,354,71807,1,0,3:0:0:0:
180,354,71894,1,8,0:0:0:0:
106,144,72069,1,0,3:0:0:0:
308,274,72243,5,6,3:2:0:0:
207,65,72418,1,0,0:0:0:0:
122,265,72592,1,8,0:0:0:0:
383,114,72767,5,2,3:2:0:0:
93,260,72941,1,8,0:0:0:0:
390,339,73115,5,2,3:2:0:0:
64,257,73289,1,8,0:0:0:0:
317,15,73464,6,0,L|249:233,1,223.999993164063,6|0,3:2|3:0,0:0:0:0:
363,373,73987,1,8,0:0:0:0:
426,184,74162,2,0,L|449:111,2,55.9999982910157,8|8|8,0:0|0:0|0:0,0:0:0:0:
264,349,74511,1,0,3:0:0:0:
488,266,74685,1,8,0:0:0:0:
332,187,74860,1,0,3:0:0:0:
421,356,75034,6,0,L|515:378,2,80,2|0|0,0:0|0:0|0:0,0:0:0:0:
352,287,75557,2,0,L|257:309,2,80,2|0|0,0:0|0:0|0:0,0:0:0:0:
417,213,76081,1,0,3:0:0:0:
214,376,76255,2,0,P|183:291|245:219,1,160,12|0,0:0|3:0,0:0:0:0:
294,184,76778,6,0,L|351:200,3,40,12|0|0|0,0:0|3:0|3:0|3:0,0:0:0:0:
218,147,77127,2,0,L|161:163,3,40,8|0|0|0,0:0|3:0|3:0|3:0,0:0:0:0:
297,100,77476,1,8,0:0:0:0:
311,81,77563,1,8,0:0:0:0:
316,57,77650,1,8,0:0:0:0:
310,34,77737,1,8,0:0:0:0:
295,17,77824,1,6,3:2:0:0:
167,69,77999,5,2,0:0:0:0:
331,180,78174,1,8,0:0:0:0:
142,276,78348,2,0,L|25:246,1,95.9999970703126,2|8,0:0|0:0,0:0:0:0:
208,162,78697,5,0,3:0:0:0:
262,339,78872,1,8,0:0:0:0:
340,151,79046,2,0,P|424:123|458:144,1,95.9999970703126,2|8,3:2|0:0,0:0:0:0:
389,306,79395,5,2,0:0:0:0:
236,177,79569,1,8,0:0:0:0:
458,38,79744,2,0,B|493:74|493:74|454:224,1,191.999994140625,2|0,0:0|3:0,0:0:0:0:
239,273,80267,5,8,0:0:0:0:
389,135,80441,2,0,L|359:252,1,95.9999970703126,2|8,3:2|0:0,0:0:0:0:
216,370,80790,5,2,0:0:0:0:
426,294,80964,1,8,0:0:0:0:
288,170,81139,2,0,P|242:147|173:178,1,95.9999970703126,2|8,0:0|0:0,0:0:0:0:
64,259,81487,2,0,P|106:230|114:155,1,95.9999970703126,0|8,3:0|0:0,0:0:0:0:
0,41,81836,6,0,P|53:104|171:58,1,191.999994140625,4|0,3:2|3:0,0:0:0:0:
261,5,82360,1,8,0:0:0:0:
366,140,82534,2,0,L|312:346,1,191.999994140625,2|0,0:0|3:0,0:0:0:0:
258,175,83057,5,8,0:0:0:0:
436,257,83232,1,0,3:0:0:0:
172,314,83406,2,0,L|54:293,1,95.9999970703126,4|0,3:2|0:0,0:0:0:0:
229,163,83755,6,0,L|190:29,1,111.999996582031,8|0,0:0|0:0,0:0:0:0:
358,272,84104,2,0,L|319:406,1,111.999996582031,10|0,0:0|3:0,0:0:0:0:
137,166,84453,1,8,0:0:0:0:
195,342,84627,1,0,3:0:0:0:
333,130,84802,6,0,P|352:78|332:27,1,111.999996582031,10|0,0:0|0:0,0:0:0:0:
156,51,85150,1,8,0:0:0:0:
156,51,85325,2,0,L|290:90,1,111.999996582031,2|8,0:0|0:0,0:0:0:0:
410,200,85674,2,0,L|276:239,1,111.999996582031,0|8,3:0|0:0,0:0:0:0:
129,147,86023,1,0,3:2:0:0:
356,70,86197,5,12,0:0:0:0:
202,244,86371,1,2,0:0:0:0:
225,42,86546,1,8,0:0:0:0:
339,253,86720,5,2,3:2:0:0:
239,73,86895,1,8,0:0:0:0:
206,320,87069,5,2,3:2:0:0:
295,156,87244,1,8,0:0:0:0:
360,354,87418,5,8,0:0:0:0:
360,354,87505,1,8,0:0:0:0:
360,354,87592,2,0,L|475:323,1,111.999996582031,12|2,0:0|0:0,0:0:0:0:
327,152,87941,1,8,0:0:0:0:
251,341,88115,5,2,3:2:0:0:
188,171,88290,1,8,0:0:0:0:
141,366,88464,5,2,3:2:0:0:
262,232,88639,1,8,0:0:0:0:
282,195,88726,1,8,0:0:0:0:
284,154,88813,1,8,0:0:0:0:
267,116,88900,1,8,0:0:0:0:
235,90,88987,6,0,L|83:132,1,111.999996582031,6|2,3:2|0:0,0:0:0:0:
33,154,89336,1,8,0:0:0:0:
265,283,89511,5,2,3:2:0:0:
93,220,89685,1,8,0:0:0:0:
363,148,89860,1,2,3:2:0:0:
163,333,90034,1,8,0:0:0:0:
105,115,90208,2,0,B|187:137|187:137|218:183|218:183|344:220,1,223.999993164063,6|0,3:2|3:0,0:0:0:0:
451,147,90732,6,0,L|505:132,3,55.9999982910157,8|8|8|8,0:0|0:0|0:0|0:0,0:0:0:0:
397,77,91081,2,0,L|342:62,3,55.9999982910157,10|8|8|8,0:0|0:0|0:0|0:0,0:0:0:0:
383,210,91429,2,0,L|368:155,1,55.9999982910157,10|8,0:0|0:0,0:0:0:0:
475,54,91604,2,0,L|460:-1,1,55.9999982910157,8|8,0:0|0:0,0:0:0:0:
