osu file format v14

[General]
AudioFilename: audio.ogg
AudioLeadIn: 0
PreviewTime: 470
Countdown: 0
SampleSet: Soft
StackLeniency: 0.7
Mode: 0
LetterboxInBreaks: 0
WidescreenStoryboard: 1

[Editor]
Bookmarks: 1081,3871,6662,17825,27418,28987,40150,45732,52708,63871,75034,76255,77825,90208,91778
DistanceSpacing: 0.9
BeatDivisor: 4
GridSize: 4
TimelineZoom: 1

[Metadata]
Title:Hallelujah!
TitleUnicode:ハレルヤ!
Artist:Asakura Kirika (CV: Akabane Kyouko)
ArtistUnicode:朝倉霧香(CV: 明羽杏子)
Creator:tomatas95
Version:Light Insane
Source:神様のような君へ Extended Edition
Tags:eroge 神君 かみきみ Kami-sama no You na Kimi e cube Kamikimi To you like goddess visual novel vn opening op video game hareruya japanese log off now log_off_now galgame j-pop jpop pop
BeatmapID:4514819
BeatmapSetID:2095242

[Difficulty]
HPDrainRate:4.5
CircleSize:3.5
OverallDifficulty:7.5
ApproachRate:8.2
SliderMultiplier:1.5
SliderTickRate:1

[Events]
//Background and Video events
0,0,"literallymywife.jpg",0,0
Video,0,"ecchidesuuuiiyaaaa.mp4"
//Break Periods
//Storyboard Layer 0 (Background)
//Storyboard Layer 1 (Fail)
//Storyboard Layer 2 (Pass)
//Storyboard Layer 3 (Foreground)
//Storyboard Layer 4 (Overlay)
//Storyboard Sound Samples

[TimingPoints]
1081,348.837209302326,4,2,1,40,1,0
1081,-142.857142857143,4,2,1,40,0,0
1429,-142.857142857143,4,2,1,35,0,0
2301,-142.857142857143,4,2,1,45,0,0
2825,-142.857142857143,4,2,1,35,0,0
2999,-142.857142857143,4,2,1,40,0,0
3522,-142.857142857143,4,2,1,35,0,0
3871,-111.111111111111,4,2,1,70,0,0
4220,-111.111111111111,4,2,1,65,0,0
4394,-111.111111111111,4,2,1,60,0,0
5092,-111.111111111111,4,2,2,65,0,0
5441,-111.111111111111,4,2,1,60,0,0
5964,-111.111111111111,4,2,1,55,0,0
6139,-111.111111111111,4,2,1,60,0,0
6313,-111.111111111111,4,2,1,65,0,0
6487,-111.111111111111,4,2,1,70,0,0
6662,-100,4,2,1,75,0,0
6836,-100,4,2,1,70,0,0
6924,-100,4,2,2,5,0,0
7011,-100,4,2,1,70,0,0
9453,-100,4,2,1,75,0,0
9627,-100,4,2,1,70,0,0
10674,-100,4,2,2,75,0,0
10848,-100,4,2,1,70,0,0
11720,-100,4,2,1,65,0,0
12069,-100,4,2,1,70,0,0
12243,-100,4,2,1,75,0,0
12417,-100,4,2,1,70,0,0
12505,-100,4,2,2,5,0,0
12592,-100,4,2,1,70,0,0
15034,-100,4,2,2,75,0,0
15208,-100,4,2,1,75,0,0
15557,-100,4,2,1,65,0,0
16255,-100,4,2,1,70,0,0
16429,-100,4,2,1,65,0,0
16778,-100,4,2,1,70,0,0
17825,-125,4,2,2,65,0,0
17999,-125,4,2,1,60,0,0
18086,-125,4,2,2,5,0,0
18174,-125,4,2,1,60,0,0
20441,-125,4,2,1,30,0,0
20615,-125,4,2,2,65,0,0
20789,-125,4,2,1,60,0,0
20877,-125,4,2,2,5,0,0
20964,-125,4,2,1,60,0,0
23232,-125,4,2,1,30,0,0
23406,-125,4,2,2,65,0,0
23580,-125,4,2,1,60,0,0
23668,-125,4,2,2,5,0,0
23755,-125,4,2,1,60,0,0
25674,-125,4,2,1,30,0,0
25848,-125,4,2,1,60,0,0
26197,-125,4,2,2,65,0,0
26371,-125,4,2,1,60,0,0
27418,-111.111111111111,4,2,2,65,0,0
27767,-111.111111111111,4,2,1,65,0,0
28290,-111.111111111111,4,2,1,70,0,0
28464,-111.111111111111,4,2,1,65,0,0
28813,-111.111111111111,4,2,1,60,0,0
28987,-111.111111111111,4,2,2,70,0,0
29249,-111.111111111111,4,2,2,5,0,0
29336,-111.111111111111,4,2,1,65,0,0
31778,-111.111111111111,4,2,1,70,0,0
32040,-111.111111111111,4,2,1,5,0,0
32127,-111.111111111111,4,2,1,65,0,0
34482,-111.111111111111,4,2,1,5,0,0
34569,-111.111111111111,4,2,2,70,0,0
34831,-111.111111111111,4,2,1,5,0,0
34918,-111.111111111111,4,2,1,65,0,0
37360,-111.111111111111,4,2,2,70,0,0
37622,-111.111111111111,4,2,1,5,0,0
37709,-111.111111111111,4,2,1,65,0,0
38581,-111.111111111111,4,2,1,70,0,0
39627,-111.111111111111,4,2,1,65,0,0
39801,-111.111111111111,4,2,1,60,0,0
39976,-111.111111111111,4,2,1,55,0,0
40150,-142.857142857143,4,2,3,60,0,0
40325,-142.857142857143,4,2,1,60,0,0
40499,-142.857142857143,4,2,1,55,0,0
40848,-142.857142857143,4,2,1,45,0,0
41197,-142.857142857143,4,2,1,40,0,0
41371,-142.857142857143,4,2,1,50,0,0
41546,-142.857142857143,4,2,3,55,0,0
41720,-142.857142857143,4,2,3,50,0,0
41894,-142.857142857143,4,2,1,45,0,0
42243,-142.857142857143,4,2,1,40,0,0
42592,-142.857142857143,4,2,1,35,0,0
42941,-142.857142857143,4,2,1,55,0,0
45208,-142.857142857143,4,2,1,50,0,0
45383,-142.857142857143,4,2,1,55,0,0
45644,-142.857142857143,4,2,1,5,0,0
45732,-100,4,2,2,60,0,0
45906,-100,4,2,1,60,0,0
46255,-100,4,2,1,65,0,0
47127,-100,4,2,1,70,0,0
48174,-100,4,2,1,75,0,0
49046,-100,4,2,1,80,0,0
49743,-100,4,2,1,85,0,0
50092,-100,4,2,1,70,0,0
50267,-100,4,2,1,75,0,0
51139,-100,4,2,2,70,0,0
51487,-100,4,2,1,70,0,0
52185,-100,4,2,1,60,0,0
52708,-90.9090909090909,4,2,1,85,0,1
53057,-90.9090909090909,4,2,1,80,0,1
53929,-90.9090909090909,4,2,1,85,0,1
54104,-90.9090909090909,4,2,1,80,0,1
55499,-90.9090909090909,4,2,1,85,0,1
55674,-90.9090909090909,4,2,1,80,0,1
56720,-90.9090909090909,4,2,2,85,0,1
56894,-90.9090909090909,4,2,1,80,0,1
58290,-90.9090909090909,4,2,2,85,0,1
58464,-90.9090909090909,4,2,1,80,0,1
59511,-90.9090909090909,4,2,1,85,0,1
59686,-90.9090909090909,4,2,1,80,0,1
61081,-90.9090909090909,4,2,2,85,0,1
61255,-90.9090909090909,4,2,1,80,0,1
61604,-90.9090909090909,4,2,1,70,0,1
62301,-90.9090909090909,4,2,2,75,0,1
62650,-90.9090909090909,4,2,1,70,0,1
62825,-90.9090909090909,4,2,2,70,0,1
63174,-90.9090909090909,4,2,2,75,0,1
63522,-90.9090909090909,4,2,2,80,0,0
63871,-90.9090909090909,4,2,1,85,0,1
64220,-90.9090909090909,4,2,1,80,0,1
65092,-90.9090909090909,4,2,1,85,0,1
65267,-90.9090909090909,4,2,1,80,0,1
66662,-90.9090909090909,4,2,1,85,0,1
66837,-90.9090909090909,4,2,1,80,0,1
67883,-90.9090909090909,4,2,2,85,0,1
68057,-90.9090909090909,4,2,1,80,0,1
69453,-90.9090909090909,4,2,2,85,0,1
69627,-90.9090909090909,4,2,1,80,0,1
69714,-90.9090909090909,4,2,2,5,0,1
69801,-90.9090909090909,4,2,1,80,0,1
72243,-90.9090909090909,4,2,2,85,0,1
72417,-90.9090909090909,4,2,1,80,0,1
72767,-90.9090909090909,4,2,1,70,0,1
73464,-90.9090909090909,4,2,2,75,0,1
73813,-90.9090909090909,4,2,1,70,0,1
73987,-90.9090909090909,4,2,1,75,0,1
74336,-90.9090909090909,4,2,1,80,0,1
74685,-90.9090909090909,4,2,1,85,0,1
74860,-90.9090909090909,4,2,1,85,0,1
75034,-100,4,2,1,50,0,0
75557,-100,4,2,1,55,0,0
76081,-100,4,2,1,60,0,0
76168,-100,4,2,1,5,0,0
76255,-111.111111111111,4,2,2,70,0,0
76604,-111.111111111111,4,2,1,65,0,0
76778,-111.111111111111,4,2,2,65,0,0
76953,-111.111111111111,4,2,1,65,0,0
77127,-111.111111111111,4,2,1,70,0,0
77476,-111.111111111111,4,2,1,75,0,0
77825,-100,4,2,1,75,0,0
77999,-100,4,2,1,70,0,0
78087,-100,4,2,2,5,0,0
78174,-100,4,2,1,70,0,0
80616,-100,4,2,1,75,0,0
80790,-100,4,2,1,70,0,0
81837,-100,4,2,2,75,0,0
82011,-100,4,2,1,70,0,0
82883,-100,4,2,1,65,0,0
83232,-100,4,2,1,70,0,0
83406,-100,4,2,1,75,0,0
83580,-100,4,2,1,70,0,0
83668,-100,4,2,2,5,0,0
83755,-100,4,2,1,70,0,0
86197,-100,4,2,2,75,0,0
86371,-100,4,2,1,75,0,0
86720,-100,4,2,1,65,0,0
87418,-100,4,2,1,70,0,0
87592,-100,4,2,2,75,0,0
87766,-100,4,2,1,75,0,0
88115,-100,4,2,1,65,0,0
88987,-100,4,2,2,75,0,0
89161,-100,4,2,1,75,0,0
89510,-100,4,2,1,65,0,0
90208,-100,4,2,1,70,0,0
90382,-100,4,2,1,65,0,0
90732,-100,4,2,1,75,0,0
90906,-100,4,2,1,70,0,0
91081,-100,4,2,1,65,0,0
91255,-100,4,2,1,60,0,0
91429,-100,4,2,1,55,0,0
91604,-100,4,2,1,50,0,0
91691,-100,4,2,1,40,0,0
91778,-100,4,2,1,40,0,0

[Colours]
Combo1 : 250,169,238
Combo2 : 130,185,247
Combo3 : 240,180,151
Combo4 : 247,174,192

[HitObjects]
105,93,1081,6,0,P|121:53|80:2,1,104.999996795654,2|0,0:0|0:0,0:0:0:0:
24,62,1604,2,0,P|2:122|84:168,1,157.499995193482,2|0,0:0|0:0,0:0:0:0:
154,164,2301,2,0,L|273:143,1,104.999996795654,2|0,0:0|0:0,0:0:0:0:
260,65,2825,1,0,0:0:0:0:
260,65,2999,2,0,L|90:94,1,157.499995193482,2|0,0:0|0:0,0:0:0:0:
29,240,3871,6,0,L|172:265,1,134.999995880127,6|8,3:2|0:0,0:0:0:0:
243,301,4394,2,0,P|251:268|245:236,1,67.4999979400635,2|0,3:2|0:0,0:0:0:0:
317,182,4743,2,0,P|292:159|260:148,1,67.4999979400635,2|0,3:2|0:0,0:0:0:0:
161,263,5092,6,0,L|29:240,1,134.999995880127,6|0,3:2|3:0,0:0:0:0:
110,166,5615,2,0,L|176:177,1,67.4999979400635,8|0,0:0|0:0,0:0:0:0:
243,301,5964,2,0,L|309:289,1,67.4999979400635,8|2,0:0|3:2,0:0:0:0:
472,262,6313,5,10,0:0:0:0:
472,262,6487,1,2,3:2:0:0:
416,323,6662,6,0,P|385:260|426:185,1,150,6|8,3:2|0:0,0:0:0:0:
478,123,7185,2,0,P|499:75|424:26,1,150,2|0,0:0|3:0,0:0:0:0:
346,2,7708,1,8,0:0:0:0:
389,103,7883,6,0,P|336:115|240:139,1,150,2|2,3:2|0:0,0:0:0:0:
169,199,8406,1,8,0:0:0:0:
86,156,8581,2,0,P|67:116|70:84,1,75,2|8,0:0|0:0,0:0:0:0:
215,36,8929,5,0,3:0:0:0:
153,103,9104,1,8,0:0:0:0:
125,16,9278,1,2,3:2:0:0:
243,138,9453,6,0,P|315:119|389:103,1,150,8|8,0:0|0:0,0:0:0:0:
477,134,9976,2,0,P|482:94|466:54,1,75,2|8,0:0|0:0,0:0:0:0:
384,30,10325,2,0,P|378:69|394:109,1,75,0|8,3:0|0:0,0:0:0:0:
456,230,10674,6,0,P|402:207|320:243,1,150,4|0,3:2|3:0,0:0:0:0:
156,285,11197,5,8,0:0:0:0:
218,215,11371,1,2,0:0:0:0:
127,197,11546,5,8,0:0:0:0:
247,303,11720,1,0,3:0:0:0:
221,124,11894,5,8,0:0:0:0:
156,285,12069,1,0,3:0:0:0:
52,142,12243,6,0,P|73:105|151:107,1,112.5,4|0,3:2|0:0,0:0:0:0:
148,104,12592,6,0,P|184:113|224:124,1,75,8|0,0:0|0:0,0:0:0:0:
277,48,12941,2,0,P|240:38|204:28,1,75,10|0,0:0|3:0,0:0:0:0:
310,143,13290,6,0,P|346:152|386:163,1,75,8|0,0:0|3:0,0:0:0:0:
439,87,13639,2,0,P|402:77|366:67,1,75,10|0,0:0|0:0,0:0:0:0:
220,123,13987,1,8,0:0:0:0:
292,215,14162,2,0,L|310:143,1,75,2|8,0:0|0:0,0:0:0:0:
204,28,14511,2,0,P|157:25|133:128,1,150,0|0,3:0|3:2,0:0:0:0:
178,200,15034,5,12,0:0:0:0:
220,123,15208,1,2,0:0:0:0:
90,202,15383,1,8,0:0:0:0:
217,281,15557,2,0,P|263:288|302:299,1,75,2|8,3:2|0:0,0:0:0:0:
360,215,15906,2,0,P|314:208|275:197,1,75,2|8,3:2|0:0,0:0:0:0:
416,285,16255,6,0,P|443:248|413:148,1,150,6|0,3:2|3:0,0:0:0:0:
334,53,16778,5,8,0:0:0:0:
286,200,16953,1,0,3:0:0:0:
316,53,17127,5,8,0:0:0:0:
268,200,17301,1,0,3:0:0:0:
225,105,17476,5,8,0:0:0:0:
418,159,17650,1,8,0:0:0:0:
418,159,17737,1,8,0:0:0:0:
418,159,17825,6,0,P|440:120|411:77,1,90,6|0,3:2|0:0,0:0:0:0:
413,71,18174,2,0,P|455:30|523:45,2,120,2|0|0,3:2|3:0|3:0,0:0:0:0:
326,97,19046,2,0,P|267:109|208:121,1,120,2|0,0:0|0:0,0:0:0:0:
110,106,19569,2,0,B|136:89|126:32|76:-5|4:15|-38:115|43:180,1,300,2|0,3:2|0:0,0:0:0:0:
128,194,20615,6,0,P|180:183|229:173,1,90,0|0,3:2|0:0,0:0:0:0:
225,176,20964,2,0,P|210:227|250:297,2,120,2|2|0,3:2|3:2|3:2,0:0:0:0:
294,225,21836,2,0,P|361:210|425:197,1,120,2|0,0:0|0:0,0:0:0:0:
503,172,22360,2,0,B|458:242|530:281|467:361|467:361|464:290|409:274,1,300,2|0,3:2|0:0,0:0:0:0:
383,352,23406,6,0,P|331:341|282:331,1,90,0|0,3:2|0:0,0:0:0:0:
287,328,23755,2,0,P|301:276|261:206,2,120,2|2|0,3:2|3:2|3:2,0:0:0:0:
218,279,24627,2,0,P|150:293|86:306,1,120,2|0,0:0|0:0,0:0:0:0:
24,261,25150,6,0,B|8:176|8:176|30:123|102:143,1,180,2|0,3:2|0:0,0:0:0:0:
132,214,25848,2,0,P|161:207|190:201,1,60,0|0,3:2|0:0,0:0:0:0:
281,225,26197,2,0,P|283:184|264:150,1,60,2|0,3:2|0:0,0:0:0:0:
345,116,26546,2,0,P|312:90|274:86,1,60,2|0,3:2|0:0,0:0:0:0:
337,12,26894,2,0,P|273:1|227:31,1,120,2|8,3:2|0:0,0:0:0:0:
217,111,27418,6,0,P|149:125|71:141,1,134.999995880127,6|0,3:2|3:0,0:0:0:0:
5,180,27941,2,0,P|-4:147|0:114,1,67.4999979400635,8|0,0:0|0:0,0:0:0:0:
79,72,28290,2,0,P|88:104|84:137,1,67.4999979400635,8|0,0:0|3:0,0:0:0:0:
82,227,28639,1,8,0:0:0:0:
82,227,28813,1,8,3:0:0:0:
133,299,28987,6,0,P|180:281|240:309,1,101.249996910095,4|0,3:2|0:0,0:0:0:0:
235,300,29336,2,0,P|276:303|309:287,1,67.4999979400635,8|0,0:0|0:0,0:0:0:0:
363,356,29685,2,0,P|387:322|388:285,1,67.4999979400635,2|0,3:2|0:0,0:0:0:0:
436,219,30034,1,8,0:0:0:0:
436,219,30208,6,0,P|478:270|478:337,1,134.999995880127,2|0,0:0|0:0,0:0:0:0:
390,297,30732,2,0,P|348:245|348:179,1,134.999995880127,8|0,0:0|3:0,0:0:0:0:
427,123,31255,2,0,P|459:116|499:106,2,67.4999979400635,2|8|0,0:0|0:0|0:0,0:0:0:0:
338,82,31778,2,0,P|292:91|235:106,1,101.249996910095,0|0,3:0|0:0,0:0:0:0:
228,107,32127,2,0,P|219:62|234:21,1,67.4999979400635,10|0,0:0|0:0,0:0:0:0:
135,8,32476,2,0,P|100:38|57:45,1,67.4999979400635,2|0,3:2|0:0,0:0:0:0:
56,134,32825,1,8,0:0:0:0:
56,134,32999,6,0,P|121:132|169:189,1,134.999995880127,2|0,0:0|0:0,0:0:0:0:
90,210,33522,2,0,P|57:218|24:225,1,67.4999979400635,8|0,0:0|0:0,0:0:0:0:
44,314,33871,2,0,P|76:305|109:298,1,67.4999979400635,0|2,3:0|0:0,0:0:0:0:
238,333,34220,2,0,P|199:319|211:248,1,101.249996910095,8|0,0:0|0:0,0:0:0:0:
199,256,34569,6,0,P|248:243|297:232,1,101.249996910095,6|0,3:2|0:0,0:0:0:0:
307,233,34918,2,0,P|298:193|314:142,1,67.4999979400635,8|0,0:0|0:0,0:0:0:0:
214,149,35267,2,0,P|244:96|333:91,1,134.999995880127,2|8,3:2|0:0,0:0:0:0:
284,0,35790,2,0,P|344:0|392:74,1,134.999995880127,2|0,0:0|0:0,0:0:0:0:
378,134,36313,2,0,L|529:162,2,134.999995880127,10|0|8,0:0|3:0|0:0,0:0:0:0:
286,160,37185,1,0,3:0:0:0:
354,214,37360,6,0,L|429:228,1,67.4999979400635,6|0,3:2|0:0,0:0:0:0:
400,314,37708,2,0,L|324:300,1,67.4999979400635,8|0,0:0|0:0,0:0:0:0:
254,254,38057,6,0,P|187:265|113:278,1,134.999995880127,2|8,3:2|0:0,0:0:0:0:
27,186,38581,2,0,P|41:138|131:138,1,134.999995880127,6|0,3:2|3:0,0:0:0:0:
108,210,39104,6,0,P|114:243|120:277,1,67.4999979400635,8|0,0:0|0:0,0:0:0:0:
194,86,39453,2,0,P|188:52|182:15,1,67.4999979400635,8|0,0:0|3:0,0:0:0:0:
116,123,39801,5,10,0:0:0:0:
116,123,39976,1,0,3:0:0:0:
187,173,40150,6,0,P|241:184|298:196,1,104.999996795654,6|0,3:2|0:0,0:0:0:0:
389,209,40674,2,0,P|431:209|433:107,1,157.499995193482,2|0,0:0|0:0,0:0:0:0:
362,129,41371,1,0,3:0:0:0:
362,129,41546,6,0,P|351:75|339:18,1,104.999996795654,2|0,3:2|0:0,0:0:0:0:
257,40,42069,2,0,P|273:117|288:194,1,157.499995193482,2|0,0:0|0:0,0:0:0:0:
377,332,42941,6,0,P|428:321|479:310,1,104.999996795654,2|0,3:2|0:0,0:0:0:0:
459,228,43464,2,0,P|407:238|356:249,1,104.999996795654,2|0,0:0|0:0,0:0:0:0:
255,316,44162,6,0,B|125:273|163:379|88:406|28:368|0:342|-6:293|29:253|82:264,1,367.49998878479,2|8,0:0|0:0,0:0:0:0:
141,105,45732,6,0,P|111:43|44:60,1,150,14|0,0:2|3:0,0:0:0:0:
51,172,46255,2,0,P|124:185|213:200,1,150,10|0,0:0|3:0,0:0:0:0:
214,118,46778,2,0,P|177:111|140:105,1,75,10|0,0:0|3:0,0:0:0:0:
244,16,47127,5,10,0:0:0:0:
274,171,47301,1,0,3:0:0:0:
361,43,47476,1,0,3:0:0:0:
370,225,47650,5,10,0:0:0:0:
288,86,47825,1,0,3:0:0:0:
268,260,47999,1,0,3:0:0:0:
399,119,48174,1,10,0:0:0:0:
398,312,48348,1,0,3:0:0:0:
179,243,48522,6,0,P|188:192|276:171,1,150,10|0,0:0|3:0,0:0:0:0:
212,323,49046,2,0,P|163:340|101:274,1,150,10|0,0:0|3:0,0:0:0:0:
69,112,49569,1,10,0:0:0:0:
22,209,49743,6,0,L|181:177,1,150,6|0,3:2|3:0,0:0:0:0:
333,153,50267,5,8,0:0:0:0:
191,62,50441,1,0,3:0:0:0:
254,218,50615,5,8,0:0:0:0:
294,57,50790,1,0,3:0:0:0:
169,179,50964,1,8,0:0:0:0:
275,317,51139,6,0,L|422:287,1,150,6|0,3:2|3:0,0:0:0:0:
467,195,51662,5,8,0:0:0:0:
276,133,52011,1,8,0:0:0:0:
374,144,52185,2,0,L|366:86,5,37.5,8|8|8|8|8|8,0:0|0:0|0:0|0:0|0:0|0:0,0:0:0:0:
359,14,52708,6,0,P|435:5|452:86,1,165.000005035401,6|8,3:2|0:0,0:0:0:0:
369,107,53232,2,0,L|202:75,1,165.000005035401,2|0,0:0|3:0,0:0:0:0:
41,64,53755,1,8,0:0:0:0:
138,4,53929,6,0,P|126:67|104:174,1,165.000005035401,2|0,3:2|3:2,0:0:0:0:
100,264,54453,1,8,0:0:0:0:
7,243,54627,2,0,P|14:184|116:174,1,165.000005035401,2|0,0:0|3:0,0:0:0:0:
252,150,55150,5,8,0:0:0:0:
177,207,55325,1,0,3:0:0:0:
240,56,55499,5,8,0:0:0:0:
339,186,55674,1,0,3:0:0:0:
238,43,55848,1,8,0:0:0:0:
348,193,56022,2,0,L|367:91,1,82.5000025177003,2|8,0:0|0:0,0:0:0:0:
455,135,56371,2,0,L|436:237,1,82.5000025177003,0|8,3:0|0:0,0:0:0:0:
375,315,56720,6,0,L|203:287,1,165.000005035401,2|0,3:2|3:0,0:0:0:0:
126,248,57243,5,8,0:0:0:0:
251,199,57418,1,2,0:0:0:0:
118,235,57592,5,8,0:0:0:0:
243,186,57767,1,0,3:0:0:0:
151,149,57941,5,8,0:0:0:0:
213,289,58115,1,0,3:0:0:0:
56,296,58290,6,0,P|21:253|70:165,1,165.000005035401,4|8,3:2|0:0,0:0:0:0:
134,68,58813,2,0,L|154:164,1,82.5000025177003,0|8,3:0|0:0,0:0:0:0:
243,186,59162,2,0,L|223:90,1,82.5000025177003,0|8,3:0|0:0,0:0:0:0:
323,0,59511,6,0,P|365:9|411:20,1,82.5000025177003,2|8,3:2|0:0,0:0:0:0:
306,87,59860,2,0,P|264:96|218:107,1,82.5000025177003,0|8,3:0|0:0,0:0:0:0:
327,175,60208,2,0,P|407:192|494:213,1,165.000005035401,2|0,0:0|3:0,0:0:0:0:
433,113,60732,5,8,0:0:0:0:
433,113,60906,1,0,3:0:0:0:
403,286,61081,6,0,P|322:268|235:247,1,165.000005035401,6|8,3:2|0:0,0:0:0:0:
75,253,61604,2,0,L|90:166,1,82.5000025177003,2|8,3:2|0:0,0:0:0:0:
256,168,61953,2,0,L|241:255,1,82.5000025177003,2|8,3:2|0:0,0:0:0:0:
150,301,62301,6,0,L|179:128,1,165.000005035401,6|0,3:2|3:0,0:0:0:0:
172,0,62825,5,12,0:0:0:0:
256,168,62999,1,0,3:0:0:0:
85,86,63174,5,8,0:0:0:0:
264,20,63348,1,0,3:0:0:0:
169,178,63522,5,8,0:0:0:0:
171,168,63610,1,8,0:0:0:0:
173,158,63697,1,8,0:0:0:0:
175,148,63784,1,8,0:0:0:0:
177,138,63871,6,0,P|257:124|353:108,1,165.000005035401,6|8,3:2|0:0,0:0:0:0:
508,110,64394,2,0,P|502:60|395:57,1,165.000005035401,2|0,0:0|3:0,0:0:0:0:
317,21,64918,1,8,0:0:0:0:
427,136,65092,6,0,P|415:207|402:302,1,165.000005035401,2|0,3:2|3:2,0:0:0:0:
322,346,65615,1,8,0:0:0:0:
238,305,65790,2,0,P|240:244|347:239,1,165.000005035401,2|0,0:0|3:0,0:0:0:0:
511,173,66313,5,8,0:0:0:0:
395,45,66487,1,0,3:0:0:0:
418,221,66662,1,8,0:0:0:0:
345,134,66836,5,0,3:0:0:0:
512,77,67011,1,8,0:0:0:0:
334,128,67185,2,0,L|228:113,1,82.5000025177003,2|8,0:0|0:0,0:0:0:0:
313,33,67534,2,0,L|419:48,1,82.5000025177003,0|8,3:0|0:0,0:0:0:0:
224,195,67883,6,0,P|185:172|190:58,1,165.000005035401,2|0,3:2|3:0,0:0:0:0:
252,116,68406,5,8,0:0:0:0:
156,251,68581,1,2,0:0:0:0:
258,104,68755,5,8,0:0:0:0:
238,273,68929,1,0,3:0:0:0:
264,92,69104,5,8,0:0:0:0:
322,267,69278,1,0,3:0:0:0:
457,166,69453,6,0,P|441:123|366:127,1,123.75000377655,4|0,3:2|0:0,0:0:0:0:
366,132,69801,2,0,L|384:224,1,82.5000025177003,10|0,0:0|0:0,0:0:0:0:
264,92,70150,2,0,L|279:172,1,82.5000025177003,10|0,0:0|3:0,0:0:0:0:
162,52,70499,2,0,L|180:144,1,82.5000025177003,8|0,0:0|3:0,0:0:0:0:
60,12,70848,6,0,L|94:189,1,165.000005035401,8|10,0:0|0:0,0:0:0:0:
81,263,71371,2,0,L|-14:285,1,82.5000025177003,2|8,0:0|0:0,0:0:0:0:
164,227,71720,2,0,L|348:269,1,165.000005035401,0|0,3:0|3:0,0:0:0:0:
486,173,72243,5,6,3:2:0:0:
425,247,72418,1,0,0:0:0:0:
412,112,72592,1,8,0:0:0:0:
350,185,72767,2,0,L|270:167,1,82.5000025177003,2|8,3:2|0:0,0:0:0:0:
166,312,73115,2,0,L|246:330,1,82.5000025177003,2|8,3:2|0:0,0:0:0:0:
324,264,73464,6,0,L|139:221,1,165.000005035401,6|0,3:2|3:0,0:0:0:0:
8,187,73987,5,8,0:0:0:0:
108,55,74162,1,0,3:0:0:0:
81,233,74336,5,8,0:0:0:0:
24,49,74511,1,0,3:0:0:0:
159,139,74685,5,8,0:0:0:0:
4,273,74860,1,0,3:0:0:0:
112,42,76255,6,0,P|174:52|247:65,1,134.999995880127,12|0,0:0|3:0,0:0:0:0:
406,36,76778,5,12,0:0:0:0:
260,156,76953,1,0,3:0:0:0:
421,129,77127,5,8,0:0:0:0:
245,64,77301,1,0,3:0:0:0:
350,190,77476,5,8,0:0:0:0:
316,4,77650,1,0,3:0:0:0:
260,156,77825,6,0,P|186:168|100:183,1,150,6|8,3:2|0:0,0:0:0:0:
56,248,78348,2,0,P|24:202|61:105,1,150,2|0,0:0|3:0,0:0:0:0:
132,94,78871,1,8,0:0:0:0:
134,267,79046,6,0,P|207:254|281:241,1,150,2|2,3:2|0:0,0:0:0:0:
442,217,79569,1,8,0:0:0:0:
367,269,79743,2,0,P|360:232|354:195,1,75,2|8,0:0|0:0,0:0:0:0:
388,40,80092,5,0,3:0:0:0:
446,118,80267,1,8,0:0:0:0:
485,29,80441,1,2,3:2:0:0:
342,116,80615,6,0,P|268:103|194:90,1,150,8|8,0:0|0:0,0:0:0:0:
31,60,81139,6,0,P|18:94|25:131,1,75,2|8,0:0|0:0,0:0:0:0:
188,161,81487,2,0,P|200:126|194:90,1,75,0|8,3:0|0:0,0:0:0:0:
121,22,81836,6,0,P|111:91|99:180,1,150,4|0,3:2|3:0,0:0:0:0:
127,304,82360,5,8,0:0:0:0:
188,161,82534,1,2,0:0:0:0:
138,310,82708,5,8,0:0:0:0:
199,167,82883,1,0,3:0:0:0:
263,257,83057,5,8,0:0:0:0:
100,170,83232,1,0,3:0:0:0:
265,93,83406,6,0,P|313:103|402:119,1,112.5,4|0,3:2|0:0,0:0:0:0:
386,115,83755,6,0,P|401:79|394:32,1,75,8|0,0:0|0:0,0:0:0:0:
426,197,84104,2,0,P|464:191|501:162,1,75,10|0,0:0|3:0,0:0:0:0:
374,272,84453,2,0,P|397:302|441:320,1,75,8|0,0:0|3:0,0:0:0:0:
283,264,84801,2,0,P|268:300|275:347,1,75,10|0,0:0|0:0,0:0:0:0:
262,175,85150,1,8,0:0:0:0:
262,175,85325,6,0,P|299:182|336:190,1,75,2|8,0:0|0:0,0:0:0:0:
385,114,85674,2,0,P|311:101|238:86,1,150,0|0,3:0|3:2,0:0:0:0:
104,94,86197,5,12,0:0:0:0:
168,152,86371,1,2,0:0:0:0:
122,8,86546,1,8,0:0:0:0:
21,120,86720,2,0,L|6:203,1,75,2|8,3:2|0:0,0:0:0:0:
141,299,87069,2,0,L|167:151,1,150,2|0,3:2|3:0,0:0:0:0:
295,13,87592,5,12,0:0:0:0:
238,86,87767,1,2,0:0:0:0:
209,1,87941,1,8,0:0:0:0:
330,99,88115,2,0,L|413:84,1,75,2|8,3:2|0:0,0:0:0:0:
487,52,88464,1,2,3:2:0:0:
487,146,88639,2,0,L|478:192,3,37.5,8|8|8|8,0:0|0:0|0:0|0:0,0:0:0:0:
440,255,88987,6,0,P|481:264|530:238,2,75,6|2|8,3:2|0:0|0:0,0:0:0:0:
349,263,89511,2,0,P|359:298|386:325,1,75,2|8,3:2|0:0,0:0:0:0:
297,188,89860,2,0,P|271:215|262:251,1,75,2|8,3:2|0:0,0:0:0:0:
384,188,90208,6,0,P|354:122|284:108,1,150,6|0,3:2|3:0,0:0:0:0:
202,48,90732,2,0,L|190:91,3,37.5,8|8|8|8,0:0|0:0|0:0|0:0,0:0:0:0:
99,106,91081,2,0,L|111:149,3,37.5,10|8|8|8,0:0|0:0|0:0|0:0,0:0:0:0:
186,195,91429,6,0,L|172:237,1,37.5,10|8,0:0|0:0,0:0:0:0:
95,272,91604,2,0,L|107:315,1,37.5,8|8,0:0|0:0,0:0:0:0:
