osu file format v14

[General]
AudioFilename: audio.ogg
AudioLeadIn: 0
PreviewTime: 470
Countdown: 0
SampleSet: Soft
StackLeniency: 0.7
Mode: 0
LetterboxInBreaks: 0
WidescreenStoryboard: 1

[Editor]
Bookmarks: 1081,3871,6662,17825,27418,28987,40150,45732,52708,63871,75034,76255,77825,90208,91778
DistanceSpacing: 0.9
BeatDivisor: 4
GridSize: 8
TimelineZoom: 1

[Metadata]
Title:Hallelujah!
TitleUnicode:ハレルヤ!
Artist:Asakura Kirika (CV: Akabane Kyouko)
ArtistUnicode:朝倉霧香(CV: 明羽杏子)
Creator:tomatas95
Version:I'm created to be your wife and...S-Senpai, don't make me say more!
Source:神様のような君へ Extended Edition
Tags:eroge 神君 かみきみ Kami-sama no You na Kimi e cube Kamikimi To you like goddess visual novel vn opening op video game hareruya japanese log off now log_off_now galgame j-pop jpop pop
BeatmapID:4514816
BeatmapSetID:2095242

[Difficulty]
HPDrainRate:5
CircleSize:3.8
OverallDifficulty:8.5
ApproachRate:8.7
SliderMultiplier:1.8
SliderTickRate:1

[Events]
//Background and Video events
0,0,"hazukibigloveeee.jpg",0,0
Video,0,"ecchidesuuuiiyaaaa.mp4"
//Break Periods
//Storyboard Layer 0 (Background)
//Storyboard Layer 1 (Fail)
//Storyboard Layer 2 (Pass)
//Storyboard Layer 3 (Foreground)
//Storyboard Layer 4 (Overlay)
//Storyboard Sound Samples

[TimingPoints]
1081,348.837209302326,4,2,1,40,1,0
1081,-142.857142857143,4,2,1,40,0,0
1429,-142.857142857143,4,2,1,35,0,0
2301,-142.857142857143,4,2,1,45,0,0
2825,-142.857142857143,4,2,1,35,0,0
2999,-142.857142857143,4,2,1,40,0,0
3522,-142.857142857143,4,2,1,35,0,0
3871,-111.111111111111,4,2,1,70,0,0
4220,-111.111111111111,4,2,1,65,0,0
4394,-111.111111111111,4,2,1,60,0,0
5092,-99.9999999999999,4,2,2,65,0,0
5441,-99.9999999999999,4,2,1,60,0,0
5964,-99.9999999999999,4,2,1,55,0,0
6139,-99.9999999999999,4,2,1,60,0,0
6313,-99.9999999999999,4,2,1,65,0,0
6487,-99.9999999999999,4,2,1,70,0,0
6662,-100,4,2,1,75,0,0
6836,-100,4,2,1,70,0,0
6924,-100,4,2,2,5,0,0
7011,-100,4,2,1,70,0,0
9453,-100,4,2,1,75,0,0
9627,-100,4,2,1,70,0,0
10674,-100,4,2,2,75,0,0
10848,-100,4,2,1,70,0,0
11720,-100,4,2,1,65,0,0
12069,-100,4,2,1,70,0,0
12243,-100,4,2,1,75,0,0
12417,-100,4,2,1,70,0,0
12505,-100,4,2,2,5,0,0
12592,-100,4,2,1,70,0,0
15034,-100,4,2,2,75,0,0
15208,-100,4,2,1,75,0,0
15557,-100,4,2,1,65,0,0
16255,-100,4,2,1,70,0,0
16429,-100,4,2,1,65,0,0
16778,-100,4,2,1,70,0,0
17825,-125,4,2,2,65,0,0
17999,-125,4,2,1,60,0,0
18086,-125,4,2,2,5,0,0
18174,-125,4,2,1,60,0,0
20615,-125,4,2,2,65,0,0
20789,-125,4,2,1,60,0,0
20877,-125,4,2,2,5,0,0
20964,-125,4,2,1,60,0,0
23406,-125,4,2,2,65,0,0
23580,-125,4,2,1,60,0,0
23668,-125,4,2,2,5,0,0
23755,-125,4,2,1,60,0,0
26197,-125,4,2,2,65,0,0
26371,-125,4,2,1,60,0,0
27418,-111.111111111111,4,2,2,65,0,0
27767,-111.111111111111,4,2,1,65,0,0
28290,-111.111111111111,4,2,1,70,0,0
28464,-111.111111111111,4,2,1,65,0,0
28813,-111.111111111111,4,2,1,60,0,0
28987,-99.9999999999999,4,2,2,70,0,0
29249,-99.9999999999999,4,2,2,5,0,0
29336,-111.111111111111,4,2,1,65,0,0
31778,-111.111111111111,4,2,1,70,0,0
32040,-111.111111111111,4,2,1,5,0,0
32127,-111.111111111111,4,2,1,65,0,0
34569,-111.111111111111,4,2,2,70,0,0
34831,-111.111111111111,4,2,1,5,0,0
34918,-111.111111111111,4,2,1,65,0,0
37272,-99.9999999999999,4,2,1,5,0,0
37360,-99.9999999999999,4,2,2,70,0,0
37622,-99.9999999999999,4,2,1,5,0,0
37708,-111.111111111111,4,2,1,65,0,0
38581,-99.9999999999999,4,2,1,70,0,0
38929,-111.111111111111,4,2,1,70,0,0
39365,-99.9999999999999,4,2,1,5,0,0
39453,-111.111111111111,4,2,1,70,0,0
39627,-111.111111111111,4,2,1,65,0,0
39801,-111.111111111111,4,2,1,60,0,0
39976,-111.111111111111,4,2,1,55,0,0
40150,-166.666666666667,4,2,3,60,0,0
40325,-166.666666666667,4,2,1,60,0,0
40499,-166.666666666667,4,2,1,55,0,0
40848,-166.666666666667,4,2,1,45,0,0
41197,-166.666666666667,4,2,1,40,0,0
41371,-166.666666666667,4,2,1,50,0,0
41546,-166.666666666667,4,2,3,55,0,0
41720,-166.666666666667,4,2,3,50,0,0
41894,-166.666666666667,4,2,1,45,0,0
42243,-166.666666666667,4,2,1,40,0,0
42592,-166.666666666667,4,2,1,35,0,0
42941,-166.666666666667,4,2,1,55,0,0
45208,-166.666666666667,4,2,1,50,0,0
45383,-166.666666666667,4,2,1,55,0,0
45644,-166.666666666667,4,2,1,5,0,0
45732,-100,4,2,2,60,0,0
45906,-100,4,2,1,60,0,0
46255,-100,4,2,1,65,0,0
47127,-100,4,2,1,70,0,0
48174,-100,4,2,1,75,0,0
49046,-100,4,2,1,80,0,0
49743,-100,4,2,1,85,0,0
50092,-100,4,2,1,70,0,0
50267,-100,4,2,1,75,0,0
51139,-90.9090909090909,4,2,2,70,0,0
51487,-100,4,2,1,70,0,0
52185,-100,4,2,1,60,0,0
52708,-83.3333333333333,4,2,1,85,0,1
53057,-90.9090909090909,4,2,1,80,0,1
53929,-90.9090909090909,4,2,1,85,0,1
54104,-90.9090909090909,4,2,1,80,0,1
55499,-90.9090909090909,4,2,1,85,0,1
55674,-90.9090909090909,4,2,1,80,0,1
56720,-90.9090909090909,4,2,2,85,0,1
56894,-90.9090909090909,4,2,1,80,0,1
58290,-83.3333333333333,4,2,2,85,0,1
58464,-83.3333333333333,4,2,1,80,0,1
58639,-90.9090909090909,4,2,1,80,0,1
59511,-90.9090909090909,4,2,1,85,0,1
59686,-90.9090909090909,4,2,1,80,0,1
61081,-90.9090909090909,4,2,2,85,0,1
61255,-90.9090909090909,4,2,1,80,0,1
61429,-90.9090909090909,4,2,1,80,0,1
61604,-90.9090909090909,4,2,1,70,0,1
62301,-90.9090909090909,4,2,2,75,0,1
62650,-90.9090909090909,4,2,1,70,0,1
62825,-90.9090909090909,4,2,2,70,0,1
63174,-90.9090909090909,4,2,2,75,0,1
63522,-90.9090909090909,4,2,2,80,0,0
63871,-83.3333333333333,4,2,1,85,0,1
64220,-90.9090909090909,4,2,1,80,0,1
65092,-90.9090909090909,4,2,1,85,0,1
65267,-90.9090909090909,4,2,1,80,0,1
66662,-90.9090909090909,4,2,1,85,0,1
66837,-90.9090909090909,4,2,1,80,0,1
67883,-90.9090909090909,4,2,2,85,0,1
68057,-90.9090909090909,4,2,1,80,0,1
69453,-90.9090909090909,4,2,2,85,0,1
69627,-90.9090909090909,4,2,1,80,0,1
69714,-90.9090909090909,4,2,1,5,0,1
69801,-90.9090909090909,4,2,1,80,0,1
72243,-83.3333333333333,4,2,2,85,0,1
72417,-83.3333333333333,4,2,1,80,0,1
72591,-90.9090909090909,4,2,1,80,0,1
72767,-90.9090909090909,4,2,1,70,0,1
73464,-90.9090909090909,4,2,2,75,0,1
73813,-90.9090909090909,4,2,1,70,0,1
73987,-90.9090909090909,4,2,1,75,0,1
74336,-90.9090909090909,4,2,1,80,0,1
74685,-90.9090909090909,4,2,1,85,0,1
74860,-90.9090909090909,4,2,1,85,0,0
75034,-100,4,2,1,50,0,0
75557,-100,4,2,1,55,0,0
76081,-100,4,2,1,60,0,0
76168,-100,4,2,1,5,0,0
76255,-111.111111111111,4,2,2,70,0,0
76604,-111.111111111111,4,2,1,65,0,0
76778,-111.111111111111,4,2,2,65,0,0
76953,-111.111111111111,4,2,1,65,0,0
77127,-111.111111111111,4,2,1,70,0,0
77476,-111.111111111111,4,2,1,75,0,0
77825,-100,4,2,1,75,0,0
77999,-100,4,2,1,70,0,0
78087,-100,4,2,2,5,0,0
78174,-100,4,2,1,70,0,0
80616,-100,4,2,1,75,0,0
80790,-100,4,2,1,70,0,0
81837,-100,4,2,2,75,0,0
82011,-100,4,2,1,70,0,0
82883,-100,4,2,1,65,0,0
83232,-100,4,2,1,70,0,0
83406,-100,4,2,1,75,0,0
83580,-100,4,2,1,70,0,0
83668,-100,4,2,2,5,0,0
83755,-100,4,2,1,70,0,0
86197,-100,4,2,2,75,0,0
86371,-100,4,2,1,75,0,0
86720,-100,4,2,1,65,0,0
87418,-100,4,2,1,70,0,0
87592,-100,4,2,2,75,0,0
87766,-100,4,2,1,75,0,0
88115,-100,4,2,1,65,0,0
88987,-100,4,2,2,75,0,0
89161,-100,4,2,1,75,0,0
89510,-100,4,2,1,65,0,0
90208,-100,4,2,1,70,0,0
90382,-100,4,2,1,65,0,0
90732,-100,4,2,1,75,0,0
90906,-100,4,2,1,70,0,0
91081,-100,4,2,1,65,0,0
91255,-100,4,2,1,60,0,0
91429,-100,4,2,1,55,0,0
91604,-100,4,2,1,50,0,0
91691,-100,4,2,1,40,0,0
91778,-100,4,2,1,40,0,0

[Colours]
Combo1 : 250,169,238
Combo2 : 130,185,247
Combo3 : 240,180,151
Combo4 : 247,174,192

[HitObjects]
34,23,1081,6,0,P|44:71|62:163,1,125.999996154785,2|0,0:0|0:0,0:0:0:0:
28,220,1604,2,0,B|76:240|114:204|114:204|154:168|205:188,1,188.999994232178,2|0,0:0|0:0,0:0:0:0:
239,261,2301,2,0,P|283:203|229:110,1,188.999994232178,2|0,0:0|0:0,0:0:0:0:
202,187,2999,2,0,P|280:202|415:227,1,188.999994232178,2|0,0:0|0:0,0:0:0:0:
387,222,3871,6,0,P|398:147|412:59,1,161.999995056153,6|8,3:2|0:0,0:0:0:0:
507,58,4394,2,0,P|501:95|494:139,1,80.9999975280763,2|0,3:2|0:0,0:0:0:0:
320,111,4743,2,0,P|325:73|332:29,1,80.9999975280763,2|0,3:2|0:0,0:0:0:0:
387,222,5092,6,0,P|294:204|201:186,1,180,6|0,3:2|3:0,0:0:0:0:
0,222,5615,2,0,P|42:213|87:205,1,90,8|0,0:0|0:0,0:0:0:0:
210,187,5964,5,8,0:0:0:0:
159,255,6139,1,2,3:2:0:0:
141,131,6313,1,10,0:0:0:0:
160,264,6487,1,2,3:2:0:0:
59,114,6662,6,0,P|81:73|203:74,1,180,6|8,3:2|0:0,0:0:0:0:
322,105,7185,2,0,P|368:113|414:122,1,90,2|8,0:0|0:0,0:0:0:0:
278,33,7534,5,0,3:0:0:0:
334,188,7708,1,8,0:0:0:0:
493,118,7883,6,0,P|491:53|381:54,1,180,2|2,3:2|0:0,0:0:0:0:
322,105,8406,5,8,0:0:0:0:
393,253,8581,2,0,P|439:261|485:270,1,90,2|8,0:0|0:0,0:0:0:0:
400,122,8929,5,0,3:0:0:0:
306,262,9104,1,8,0:0:0:0:
240,116,9278,1,2,3:2:0:0:
198,276,9453,5,8,0:0:0:0:
322,180,9627,1,2,0:0:0:0:
157,149,9801,1,8,0:0:0:0:
223,27,9976,2,0,P|231:73|240:119,1,90,2|8,0:0|0:0,0:0:0:0:
84,216,10325,2,0,P|76:170|67:124,1,90,0|8,3:0|0:0,0:0:0:0:
44,331,10674,6,0,P|81:268|178:279,1,180,4|0,3:2|3:0,0:0:0:0:
316,284,11197,5,8,0:0:0:0:
167,175,11371,1,2,0:0:0:0:
338,189,11546,5,8,0:0:0:0:
177,278,11720,1,0,3:0:0:0:
322,293,11894,5,8,0:0:0:0:
159,166,12069,1,0,3:0:0:0:
307,45,12243,6,0,P|322:111|336:181,1,135,4|0,3:2|0:0,0:0:0:0:
338,189,12592,6,0,L|428:201,1,90,8|0,0:0|0:0,0:0:0:0:
177,278,12941,2,0,L|87:290,1,90,10|0,0:0|3:0,0:0:0:0:
322,293,13290,6,0,L|412:305,1,90,8|0,0:0|3:0,0:0:0:0:
159,166,13639,2,0,L|69:178,1,90,10|0,0:0|0:0,0:0:0:0:
211,81,13987,5,8,0:0:0:0:
338,189,14162,2,0,L|428:201,1,90,2|8,0:0|0:0,0:0:0:0:
243,327,14511,2,0,P|248:273|262:138,1,180,0|0,3:0|3:2,0:0:0:0:
278,13,15034,5,12,0:0:0:0:
362,176,15208,1,2,0:0:0:0:
191,64,15383,1,8,0:0:0:0:
369,0,15557,6,0,L|459:12,1,90,2|8,3:2|0:0,0:0:0:0:
260,147,15906,2,0,L|170:159,1,90,2|8,3:2|0:0,0:0:0:0:
2,97,16255,6,0,P|35:22|112:49,1,180,4|0,3:2|3:0,0:0:0:0:
100,226,16778,5,8,0:0:0:0:
191,64,16953,1,0,3:0:0:0:
190,255,17127,5,8,0:0:0:0:
83,122,17302,1,0,3:0:0:0:
128,323,17476,5,8,0:0:0:0:
128,323,17563,1,8,0:0:0:0:
128,323,17650,2,0,L|48:308,1,45,8|8,0:0|0:0,0:0:0:0:
1,293,17825,6,0,P|12:241|23:181,1,108,6|0,3:2|0:0,0:0:0:0:
25,176,18174,6,0,P|95:189|177:201,2,144,2|2|0,3:2|3:2|3:2,0:0:0:0:
39,88,19046,2,0,P|109:101|191:113,1,144,2|0,0:0|0:0,0:0:0:0:
257,149,19569,6,0,P|265:111|241:58,1,72,2|0,3:2|0:0,0:0:0:0:
322,12,19918,2,0,P|350:37|408:43,1,72,0|0,3:2|0:0,0:0:0:0:
408,136,20267,2,0,P|371:148|337:195,1,72,0|0,3:2|0:0,0:0:0:0:
276,292,20615,6,0,P|295:257|366:284,1,108,0|0,3:2|0:0,0:0:0:0:
363,271,20964,2,0,L|505:244,2,144,2|2|0,3:2|3:2|3:2,0:0:0:0:
276,292,21836,2,0,L|134:265,1,144,2|0,0:0|0:0,0:0:0:0:
61,223,22360,6,0,P|50:256|56:292,1,72,2|0,3:2|0:0,0:0:0:0:
61,138,22708,2,0,P|27:146|0:168,1,72,0|0,3:2|0:0,0:0:0:0:
133,96,23057,2,0,P|110:70|76:57,1,72,0|0,3:2|0:0,0:0:0:0:
134,181,23406,6,0,L|251:203,1,108,0|0,3:2|0:0,0:0:0:0:
250,201,23755,2,0,P|236:134|301:76,2,144,2|2|0,3:2|3:2|3:2,0:0:0:0:
315,155,24627,6,0,L|464:183,1,144,2|0,0:0|0:0,0:0:0:0:
466,95,25150,2,0,P|456:50|448:16,1,72,2|0,3:2|0:0,0:0:0:0:
374,88,25499,2,0,P|364:43|356:9,1,72,0|0,3:2|0:0,0:0:0:0:
282,81,25848,2,0,P|272:36|264:2,1,72,0|0,3:2|0:0,0:0:0:0:
149,156,26197,6,0,L|228:141,1,72,2|0,3:2|0:0,0:0:0:0:
70,113,26546,2,0,L|-9:128,1,72,2|0,3:2|0:0,0:0:0:0:
57,20,26894,2,0,P|117:2|143:69,1,144,2|8,3:2|0:0,0:0:0:0:
119,240,27418,6,0,P|64:199|73:108,1,161.999995056153,6|0,3:2|3:0,0:0:0:0:
219,142,27941,2,0,L|139:157,1,80.9999975280763,8|0,0:0|0:0,0:0:0:0:
42,194,28290,5,8,0:0:0:0:
119,240,28464,1,0,3:0:0:0:
40,283,28639,1,8,0:0:0:0:
41,181,28813,1,0,3:0:0:0:
131,240,28987,6,0,L|267:274,1,135,4|0,3:2|0:0,0:0:0:0:
273,277,29336,2,0,P|281:235|296:177,1,80.9999975280763,8|0,0:0|0:0,0:0:0:0:
453,226,29685,2,0,P|443:265|435:305,1,80.9999975280763,2|0,3:2|0:0,0:0:0:0:
351,333,30034,5,8,0:0:0:0:
351,333,30208,2,0,L|381:162,1,161.999995056153,2|0,0:0|0:0,0:0:0:0:
422,6,30732,2,0,P|455:24|465:80,1,80.9999975280763,8|0,0:0|0:0,0:0:0:0:
462,144,31081,5,0,3:0:0:0:
378,173,31255,1,2,0:0:0:0:
311,114,31429,2,0,L|222:100,1,80.9999975280763,8|0,0:0|0:0,0:0:0:0:
59,62,31778,6,0,P|79:21|153:35,1,121.499996292114,0|0,3:0|0:0,0:0:0:0:
153,36,32127,2,0,P|147:77|140:116,1,80.9999975280763,10|0,0:0|0:0,0:0:0:0:
108,236,32476,2,0,P|101:275|95:316,1,80.9999975280763,2|0,3:2|0:0,0:0:0:0:
64,160,32825,1,8,0:0:0:0:
184,192,32999,6,0,L|349:216,1,161.999995056153,2|0,0:0|0:0,0:0:0:0:
274,292,33522,2,0,L|193:280,1,80.9999975280763,8|0,0:0|0:0,0:0:0:0:
64,160,33871,5,0,3:0:0:0:
108,236,34046,1,2,0:0:0:0:
136,117,34220,2,0,P|142:77|148:36,1,80.9999975280763,8|0,0:0|0:0,0:0:0:0:
297,0,34569,6,0,P|249:0|246:73,1,121.499996292114,6|0,3:2|0:0,0:0:0:0:
241,74,34918,2,0,P|279:83|322:94,1,80.9999975280763,8|0,0:0|0:0,0:0:0:0:
456,13,35267,2,0,P|418:22|375:33,1,80.9999975280763,2|0,3:2|0:0,0:0:0:0:
342,173,35615,1,8,0:0:0:0:
492,179,35790,6,0,P|481:113|391:117,1,161.999995056153,2|0,0:0|0:0,0:0:0:0:
418,215,36313,2,0,P|428:254|437:293,1,80.9999975280763,10|0,0:0|0:0,0:0:0:0:
316,318,36662,2,0,P|305:278|296:239,1,80.9999975280763,0|0,3:0|0:0,0:0:0:0:
207,79,37011,2,0,P|251:72|270:144,1,121.499996292114,8|0,0:0|0:0,0:0:0:0:
275,148,37360,6,0,P|192:162|96:181,1,180,6|8,3:2|0:0,0:0:0:0:
13,212,37883,5,0,0:0:0:0:
112,92,38057,1,2,3:2:0:0:
133,261,38232,5,0,3:0:0:0:
28,124,38406,1,8,0:0:0:0:
58,322,38581,6,0,L|249:293,1,180,6|0,3:2|3:0,0:0:0:0:
405,237,39104,2,0,L|247:213,1,121.499996292114,8|0,0:0|0:0,0:0:0:0:
272,220,39453,2,0,P|266:174|251:123,1,80.9999975280763,8|0,0:0|3:0,0:0:0:0:
251,49,39801,1,10,0:0:0:0:
251,49,39976,1,0,3:0:0:0:
367,87,40150,6,0,B|333:42|407:-46|514:-16|530:96|461:142|457:109|399:168|435:238,1,377.999988464356,6|0,3:2|3:0,0:0:0:0:
484,296,41546,2,0,B|456:333|391:333|368:290|374:289|370:253|312:206|234:241|232:333|286:389|371:359|367:295,1,377.999988464356,2|0,3:2|0:0,0:0:0:0:
432,233,42941,6,0,P|423:183|412:111,1,107.999996704102,2|0,3:2|0:0,0:0:0:0:
446,50,43464,2,0,L|509:61,1,53.9999983520508,2|0,0:0|0:0,0:0:0:0:
365,61,43813,2,0,L|302:72,1,53.9999983520508,0|2,0:0|0:0,0:0:0:0:
168,56,44162,2,0,P|190:10|241:14,1,107.999996704102,2|0,0:0|0:0,0:0:0:0:
240,98,44685,6,0,P|231:133|225:169,1,53.9999983520508,2|0,0:0|0:0,0:0:0:0:
145,161,45034,2,0,P|154:196|160:232,1,53.9999983520508,2|0,0:0|3:0,0:0:0:0:
217,346,45383,6,0,P|241:316|218:265,1,80.9999975280763,8|0,0:0|0:0,0:0:0:0:
228,270,45732,5,14,0:2:0:0:
312,168,45906,1,0,3:0:0:0:
351,291,46081,1,0,3:0:0:0:
225,116,46255,5,10,0:0:0:0:
395,194,46429,1,0,3:0:0:0:
293,47,46604,1,0,3:0:0:0:
401,208,46778,5,10,0:0:0:0:
286,35,46953,1,0,3:0:0:0:
277,224,47127,5,10,0:0:0:0:
176,23,47301,1,0,3:0:0:0:
156,234,47476,1,0,3:0:0:0:
293,47,47650,1,10,0:0:0:0:
287,241,47825,5,0,3:0:0:0:
167,1,47999,1,0,3:0:0:0:
143,255,48174,1,10,0:0:0:0:
307,29,48348,1,0,3:0:0:0:
298,257,48522,5,10,0:0:0:0:
75,141,48697,1,0,3:0:0:0:
293,47,48871,1,0,3:0:0:0:
166,255,49046,5,10,0:0:0:0:
162,0,49220,1,0,3:0:0:0:
340,177,49394,1,0,3:0:0:0:
165,10,49569,1,10,0:0:0:0:
327,255,49743,6,0,P|380:249|412:138,1,180,6|0,3:2|3:0,0:0:0:0:
265,57,50267,5,8,0:0:0:0:
487,125,50441,1,0,3:0:0:0:
261,202,50615,5,8,0:0:0:0:
503,125,50790,1,0,3:0:0:0:
277,61,50964,1,8,0:0:0:0:
426,266,51139,6,0,L|391:62,1,198.000006042481,6|0,3:2|3:0,0:0:0:0:
277,61,51662,2,0,P|236:88|180:78,1,90,8|0,0:0|0:0,0:0:0:0:
57,7,52011,1,8,0:0:0:0:
6,79,52185,5,8,0:0:0:0:
6,79,52272,1,8,0:0:0:0:
6,79,52360,2,0,L|25:163,1,45,8|8,0:0|0:0,0:0:0:0:
88,172,52534,2,0,L|75:222,1,45,8|8,0:0|0:0,0:0:0:0:
38,287,52708,6,0,B|92:309|135:268|135:268|181:227|239:250,1,215.999993408203,6|8,3:2|0:0,0:0:0:0:
349,208,53232,2,0,P|341:249|331:316,1,99.0000030212403,2|8,0:0|0:0,0:0:0:0:
265,167,53581,5,0,3:0:0:0:
427,156,53755,1,8,0:0:0:0:
237,249,53929,2,0,L|120:271,1,99.0000030212403,2|8,3:2|0:0,0:0:0:0:
349,207,54278,5,0,3:2:0:0:
178,149,54453,1,8,0:0:0:0:
283,69,54627,2,0,L|261:186,1,99.0000030212403,2|8,0:0|0:0,0:0:0:0:
75,21,54976,5,0,3:0:0:0:
99,189,55150,1,8,0:0:0:0:
187,35,55325,1,0,3:0:0:0:
139,267,55499,5,8,0:0:0:0:
266,167,55674,1,0,3:0:0:0:
125,90,55848,1,8,0:0:0:0:
237,268,56022,2,0,L|334:249,1,99.0000030212403,2|8,0:0|0:0,0:0:0:0:
123,180,56371,2,0,L|25:198,1,99.0000030212403,0|8,3:0|0:0,0:0:0:0:
186,26,56720,6,0,P|285:48|382:71,1,198.000006042481,2|0,3:2|3:0,0:0:0:0:
473,112,57243,5,8,0:0:0:0:
271,171,57418,1,2,0:0:0:0:
506,194,57592,5,8,0:0:0:0:
280,87,57767,1,0,3:0:0:0:
487,108,57941,5,8,0:0:0:0:
260,181,58115,1,0,3:0:0:0:
392,0,58290,6,0,L|365:233,1,215.999993408203,4|8,3:2|0:0,0:0:0:0:
414,300,58813,2,0,L|512:311,1,99.0000030212403,0|8,3:0|0:0,0:0:0:0:
307,295,59162,2,0,L|208:306,1,99.0000030212403,0|8,3:0|0:0,0:0:0:0:
41,228,59511,6,0,P|52:276|59:325,1,99.0000030212403,2|8,3:2|0:0,0:0:0:0:
208,306,59860,2,0,P|197:257|190:208,1,99.0000030212403,0|8,3:0|0:0,0:0:0:0:
131,25,60208,2,0,P|67:34|82:148,1,198.000006042481,2|0,0:0|3:0,0:0:0:0:
153,113,60732,5,8,0:0:0:0:
53,219,60906,1,0,3:0:0:0:
131,25,61081,6,0,P|223:44|330:62,1,198.000006042481,6|8,3:2|0:0,0:0:0:0:
446,118,61604,2,0,P|454:69|464:20,1,99.0000030212403,2|8,3:2|0:0,0:0:0:0:
325,61,61953,2,0,P|316:109|306:158,1,99.0000030212403,2|8,3:2|0:0,0:0:0:0:
346,300,62301,6,0,P|418:304|402:197,1,198.000006042481,6|0,3:2|3:0,0:0:0:0:
226,77,62825,5,12,0:0:0:0:
171,308,62999,1,0,0:0:0:0:
137,91,63174,5,8,0:0:0:0:
260,294,63348,1,0,3:0:0:0:
128,46,63522,5,8,0:0:0:0:
130,56,63609,1,8,0:0:0:0:
132,68,63696,1,8,0:0:0:0:
134,79,63783,1,8,0:0:0:0:
137,91,63871,6,0,L|362:58,1,215.999993408203,6|8,3:2|0:0,0:0:0:0:
299,207,64394,2,0,L|201:221,1,99.0000030212403,2|8,0:0|0:0,0:0:0:0:
233,121,64743,5,0,3:0:0:0:
113,232,64918,1,8,0:0:0:0:
240,319,65092,2,0,L|337:304,1,99.0000030212403,2|8,3:2|0:0,0:0:0:0:
450,138,65441,5,0,3:2:0:0:
299,207,65615,1,8,0:0:0:0:
429,320,65790,2,0,P|419:269|402:217,1,99.0000030212403,2|8,0:0|0:0,0:0:0:0:
404,21,66139,5,0,3:0:0:0:
285,184,66313,1,8,0:0:0:0:
476,122,66487,1,0,3:0:0:0:
284,58,66662,5,8,0:0:0:0:
404,224,66837,1,0,3:0:0:0:
404,21,67011,1,8,0:0:0:0:
285,184,67185,2,0,L|187:169,1,99.0000030212403,2|8,0:0|0:0,0:0:0:0:
378,107,67534,2,0,L|476:122,1,99.0000030212403,0|8,3:0|0:0,0:0:0:0:
348,295,67884,6,0,L|120:260,1,198.000006042481,2|0,3:2|3:0,0:0:0:0:
17,193,68407,5,8,0:0:0:0:
208,71,68581,1,2,0:0:0:0:
70,257,68756,5,8,0:0:0:0:
130,27,68930,1,0,3:0:0:0:
152,264,69104,5,8,0:0:0:0:
45,50,69278,1,0,3:0:0:0:
237,262,69453,6,0,L|391:236,1,148.50000453186,4|0,3:2|0:0,0:0:0:0:
441,177,69801,2,0,P|465:220|459:269,1,99.0000030212403,10|0,0:0|0:0,0:0:0:0:
419,87,70150,2,0,P|444:45|489:25,1,99.0000030212403,10|0,0:0|3:0,0:0:0:0:
352,151,70499,2,0,P|303:150|264:121,1,99.0000030212403,8|0,0:0|3:0,0:0:0:0:
95,101,70848,6,0,P|112:10|204:3,1,198.000006042481,8|10,0:0|0:0,0:0:0:0:
184,95,71371,2,0,L|168:192,1,99.0000030212403,2|8,0:0|0:0,0:0:0:0:
264,121,71720,5,0,3:0:0:0:
85,186,71894,1,8,0:0:0:0:
95,101,72069,1,0,3:0:0:0:
254,206,72243,6,0,P|360:226|477:249,1,215.999993408203,6|8,3:2|0:0,0:0:0:0:
338,305,72767,2,0,P|289:295|240:286,1,99.0000030212403,2|8,3:2|0:0,0:0:0:0:
367,145,73115,2,0,P|415:154|464:163,1,99.0000030212403,2|8,3:2|0:0,0:0:0:0:
278,9,73464,6,0,L|253:213,1,198.000006042481,6|0,3:2|3:0,0:0:0:0:
151,300,73987,5,8,0:0:0:0:
95,104,74161,1,0,3:0:0:0:
253,205,74336,5,8,0:0:0:0:
33,233,74511,1,0,3:0:0:0:
197,88,74685,5,8,0:0:0:0:
152,311,74860,1,0,3:0:0:0:
193,32,76255,6,0,P|274:46|356:60,1,161.999995056153,12|0,0:0|3:0,0:0:0:0:
475,97,76778,5,12,0:0:0:0:
304,168,76953,1,0,3:0:0:0:
430,222,77127,5,8,0:0:0:0:
352,59,77301,1,0,3:0:0:0:
353,286,77476,5,8,0:0:0:0:
332,283,77563,1,8,0:0:0:0:
312,280,77650,1,8,0:0:0:0:
292,277,77737,1,8,0:0:0:0:
272,274,77825,6,0,L|76:251,1,180,6|8,3:2|0:0,0:0:0:0:
15,141,78348,2,0,L|113:152,1,90,2|8,0:0|0:0,0:0:0:0:
287,144,78697,5,0,3:0:0:0:
117,70,78871,1,8,0:0:0:0:
188,230,79046,6,0,L|211:36,1,180,2|2,3:2|0:0,0:0:0:0:
294,5,79569,1,8,0:0:0:0:
346,85,79743,2,0,L|444:96,1,90,2|8,0:0|0:0,0:0:0:0:
469,245,80092,5,0,3:0:0:0:
318,171,80267,1,8,0:0:0:0:
478,254,80441,1,2,3:2:0:0:
346,85,80615,5,8,0:0:0:0:
396,261,80790,1,2,0:0:0:0:
435,95,80964,1,8,0:0:0:0:
312,256,81139,2,0,L|214:244,1,90,2|8,0:0|0:0,0:0:0:0:
422,182,81487,2,0,L|520:193,1,90,0|8,3:0|0:0,0:0:0:0:
355,41,81836,6,0,P|265:55|172:67,1,180,4|0,3:2|3:0,0:0:0:0:
36,95,82360,5,8,0:0:0:0:
87,254,82534,1,2,0:0:0:0:
83,26,82708,5,8,0:0:0:0:
134,185,82882,1,0,3:0:0:0:
29,83,83057,5,8,0:0:0:0:
92,266,83231,1,0,3:0:0:0:
298,95,83406,6,0,P|271:51|192:62,1,135,4|0,3:2|0:0,0:0:0:0:
188,69,83755,6,0,P|201:118|216:170,1,90,8|0,0:0|0:0,0:0:0:0:
138,201,84104,2,0,P|126:157|113:114,1,90,10|0,0:0|3:0,0:0:0:0:
322,8,84453,6,0,P|308:57|294:109,1,90,8|0,0:0|3:0,0:0:0:0:
372,140,84802,2,0,P|383:96|396:53,1,90,10|0,0:0|0:0,0:0:0:0:
212,155,85150,5,8,0:0:0:0:
378,224,85325,2,0,L|473:208,1,90,2|8,0:0|0:0,0:0:0:0:
359,310,85674,2,0,L|151:275,1,180,0|0,3:0|3:2,0:0:0:0:
42,222,86197,5,12,0:0:0:0:
216,161,86371,1,2,0:0:0:0:
93,293,86546,1,8,0:0:0:0:
107,109,86720,6,0,L|129:212,1,90,2|8,3:2|0:0,0:0:0:0:
316,215,87069,2,0,L|278:38,1,180,2|0,3:2|3:0,0:0:0:0:
216,161,87592,5,12,0:0:0:0:
378,111,87767,1,2,0:0:0:0:
219,177,87941,5,8,0:0:0:0:
381,127,88115,2,0,L|469:108,1,90,2|8,3:2|0:0,0:0:0:0:
278,38,88464,5,2,3:2:0:0:
316,215,88639,1,8,0:0:0:0:
316,215,88726,1,8,0:0:0:0:
316,215,88813,2,0,L|306:170,1,45,8|8,0:0|0:0,0:0:0:0:
280,51,88987,5,6,3:2:0:0:
411,205,89162,1,2,0:0:0:0:
409,21,89336,1,8,0:0:0:0:
306,170,89511,2,0,P|257:165|205:157,1,90,2|8,3:2|0:0,0:0:0:0:
272,310,89860,2,0,P|321:315|373:323,1,90,2|8,3:2|0:0,0:0:0:0:
185,80,90208,6,0,P|131:151|191:231,1,180,6|0,3:2|3:0,0:0:0:0:
305,169,90732,6,0,L|314:124,1,45,8|8,0:0|0:0,0:0:0:0:
280,265,90906,2,0,L|271:310,1,45,8|8,0:0|0:0,0:0:0:0:
395,180,91081,6,0,L|404:135,1,45,10|8,0:0|0:0,0:0:0:0:
370,276,91255,2,0,L|361:321,1,45,8|8,0:0|0:0,0:0:0:0:
485,191,91429,6,0,L|494:146,1,45,10|8,0:0|0:0,0:0:0:0:
460,287,91603,2,0,L|451:332,1,45,8|8,0:0|0:0,0:0:0:0:
