osu file format v14

[General]
AudioFilename: audio.ogg
AudioLeadIn: 0
PreviewTime: 470
Countdown: 0
SampleSet: Soft
StackLeniency: 0.7
Mode: 0
LetterboxInBreaks: 0
WidescreenStoryboard: 1

[Editor]
Bookmarks: 1081,3871,6662,17825,27418,28987,40150,45732,52708,63871,75034,76255,77825,90208,91778
DistanceSpacing: 0.9
BeatDivisor: 4
GridSize: 4
TimelineZoom: 1

[Metadata]
Title:Hallelujah!
TitleUnicode:ハレルヤ!
Artist:Asakura Kirika (CV: Akabane Kyouko)
ArtistUnicode:朝倉霧香(CV: 明羽杏子)
Creator:tomatas95
Version:Hard
Source:神様のような君へ Extended Edition
Tags:eroge 神君 かみきみ Kami-sama no You na Kimi e cube Kamikimi To you like goddess visual novel vn opening op video game hareruya japanese log off now log_off_now galgame j-pop jpop pop
BeatmapID:4514817
BeatmapSetID:2095242

[Difficulty]
HPDrainRate:4
CircleSize:3.3
OverallDifficulty:6.5
ApproachRate:8
SliderMultiplier:1.3
SliderTickRate:1

[Events]
//Background and Video events
0,0,"kirikakawaiiii.jpg",0,0
Video,0,"ecchidesuuuiiyaaaa.mp4"
//Break Periods
//Storyboard Layer 0 (Background)
//Storyboard Layer 1 (Fail)
//Storyboard Layer 2 (Pass)
//Storyboard Layer 3 (Foreground)
//Storyboard Layer 4 (Overlay)
//Storyboard Sound Samples

[TimingPoints]
1081,348.837209302326,4,2,1,40,1,0
1081,-125,4,2,1,40,0,0
1429,-125,4,2,1,35,0,0
2301,-125,4,2,1,45,0,0
2825,-125,4,2,1,35,0,0
2999,-125,4,2,1,40,0,0
3522,-125,4,2,1,35,0,0
3871,-111.111111111111,4,2,1,70,0,0
4220,-111.111111111111,4,2,1,65,0,0
4394,-111.111111111111,4,2,1,60,0,0
5092,-111.111111111111,4,2,2,65,0,0
5441,-111.111111111111,4,2,1,60,0,0
5964,-111.111111111111,4,2,1,55,0,0
6139,-111.111111111111,4,2,1,60,0,0
6313,-111.111111111111,4,2,1,65,0,0
6487,-111.111111111111,4,2,1,70,0,0
6662,-100,4,2,1,75,0,0
6836,-100,4,2,1,70,0,0
6924,-100,4,2,2,5,0,0
7011,-100,4,2,1,70,0,0
9453,-100,4,2,1,75,0,0
9627,-100,4,2,1,70,0,0
10674,-100,4,2,2,75,0,0
10848,-100,4,2,1,70,0,0
11720,-100,4,2,1,65,0,0
12069,-100,4,2,1,70,0,0
12243,-100,4,2,1,75,0,0
12417,-100,4,2,1,70,0,0
12505,-100,4,2,2,5,0,0
12592,-100,4,2,1,70,0,0
15034,-100,4,2,2,75,0,0
15208,-100,4,2,1,75,0,0
15557,-100,4,2,1,65,0,0
16255,-100,4,2,1,70,0,0
16429,-100,4,2,1,65,0,0
16778,-100,4,2,1,70,0,0
17825,-125,4,2,2,65,0,0
17999,-125,4,2,1,60,0,0
18086,-125,4,2,2,5,0,0
18174,-125,4,2,1,60,0,0
20441,-125,4,2,1,30,0,0
20615,-125,4,2,2,65,0,0
20789,-125,4,2,1,60,0,0
20877,-125,4,2,2,5,0,0
20964,-125,4,2,1,60,0,0
23232,-125,4,2,1,30,0,0
23406,-125,4,2,2,65,0,0
23580,-125,4,2,1,60,0,0
23668,-125,4,2,2,5,0,0
23755,-125,4,2,1,60,0,0
26197,-125,4,2,2,65,0,0
26371,-125,4,2,1,60,0,0
27418,-111.111111111111,4,2,2,65,0,0
27767,-111.111111111111,4,2,1,65,0,0
28290,-111.111111111111,4,2,1,70,0,0
28464,-111.111111111111,4,2,1,65,0,0
28813,-111.111111111111,4,2,1,60,0,0
28987,-100,4,2,2,70,0,0
29249,-100,4,2,2,5,0,0
29336,-100,4,2,1,65,0,0
31778,-100,4,2,1,70,0,0
32040,-100,4,2,1,5,0,0
32127,-100,4,2,1,65,0,0
34569,-100,4,2,2,70,0,0
34831,-100,4,2,1,5,0,0
34918,-100,4,2,1,65,0,0
37360,-100,4,2,2,70,0,0
37622,-100,4,2,1,5,0,0
37709,-100,4,2,1,65,0,0
38581,-100,4,2,1,70,0,0
39627,-100,4,2,1,65,0,0
39801,-100,4,2,1,60,0,0
39976,-100,4,2,1,55,0,0
40150,-125,4,2,3,60,0,0
40325,-125,4,2,1,60,0,0
40499,-125,4,2,1,55,0,0
40848,-125,4,2,1,45,0,0
41197,-125,4,2,1,40,0,0
41371,-125,4,2,1,50,0,0
41546,-125,4,2,3,55,0,0
41720,-125,4,2,3,50,0,0
41894,-125,4,2,1,45,0,0
42243,-125,4,2,1,40,0,0
42592,-125,4,2,1,35,0,0
42941,-125,4,2,1,55,0,0
45208,-125,4,2,1,50,0,0
45383,-125,4,2,1,55,0,0
45644,-125,4,2,1,5,0,0
45732,-100,4,2,2,60,0,0
45906,-100,4,2,1,60,0,0
46255,-100,4,2,1,65,0,0
47127,-100,4,2,1,70,0,0
48174,-100,4,2,1,75,0,0
49046,-100,4,2,1,80,0,0
49743,-100,4,2,1,85,0,0
50092,-100,4,2,1,70,0,0
50267,-100,4,2,1,75,0,0
51139,-100,4,2,2,70,0,0
51487,-100,4,2,1,70,0,0
52185,-100,4,2,1,60,0,0
52708,-90.9090909090909,4,2,1,85,0,1
53057,-90.9090909090909,4,2,1,80,0,1
53929,-90.9090909090909,4,2,1,85,0,1
54104,-90.9090909090909,4,2,1,80,0,1
55499,-90.9090909090909,4,2,1,85,0,1
55674,-90.9090909090909,4,2,1,80,0,1
56720,-90.9090909090909,4,2,2,85,0,1
56894,-90.9090909090909,4,2,1,80,0,1
58290,-90.9090909090909,4,2,2,85,0,1
58464,-90.9090909090909,4,2,1,80,0,1
59511,-90.9090909090909,4,2,1,85,0,1
59686,-90.9090909090909,4,2,1,80,0,1
61081,-90.9090909090909,4,2,2,85,0,1
61255,-90.9090909090909,4,2,1,80,0,1
61604,-90.9090909090909,4,2,1,70,0,1
62301,-90.9090909090909,4,2,2,75,0,1
62650,-90.9090909090909,4,2,1,70,0,1
62825,-90.9090909090909,4,2,2,70,0,1
63174,-90.9090909090909,4,2,2,75,0,1
63522,-90.9090909090909,4,2,2,80,0,0
63871,-90.9090909090909,4,2,1,85,0,1
64220,-90.9090909090909,4,2,1,80,0,1
65092,-90.9090909090909,4,2,1,85,0,1
65267,-90.9090909090909,4,2,1,80,0,1
66662,-90.9090909090909,4,2,1,85,0,1
66837,-90.9090909090909,4,2,1,80,0,1
67883,-90.9090909090909,4,2,2,85,0,1
68057,-90.9090909090909,4,2,1,80,0,1
69453,-90.9090909090909,4,2,2,85,0,1
69627,-90.9090909090909,4,2,1,80,0,1
69714,-90.9090909090909,4,2,1,5,0,1
69801,-90.9090909090909,4,2,1,80,0,1
72243,-90.9090909090909,4,2,2,85,0,1
72417,-90.9090909090909,4,2,1,80,0,1
72767,-90.9090909090909,4,2,1,70,0,1
73464,-90.9090909090909,4,2,2,75,0,1
73813,-90.9090909090909,4,2,1,70,0,1
73987,-90.9090909090909,4,2,1,75,0,1
74336,-90.9090909090909,4,2,1,80,0,1
74685,-90.9090909090909,4,2,1,85,0,1
74860,-90.9090909090909,4,2,1,85,0,0
75034,-100,4,2,1,50,0,0
75557,-100,4,2,1,55,0,0
76081,-100,4,2,1,60,0,0
76168,-100,4,2,1,5,0,0
76255,-111.111111111111,4,2,2,70,0,0
76604,-111.111111111111,4,2,1,65,0,0
76778,-111.111111111111,4,2,2,65,0,0
76953,-111.111111111111,4,2,1,65,0,0
77127,-111.111111111111,4,2,1,70,0,0
77476,-111.111111111111,4,2,1,75,0,0
77825,-100,4,2,1,75,0,0
77999,-100,4,2,1,70,0,0
78087,-100,4,2,2,5,0,0
78174,-100,4,2,1,70,0,0
80616,-100,4,2,1,75,0,0
80790,-100,4,2,1,70,0,0
81837,-100,4,2,2,75,0,0
82011,-100,4,2,1,70,0,0
82883,-100,4,2,1,65,0,0
83232,-100,4,2,1,70,0,0
83406,-100,4,2,1,75,0,0
83580,-100,4,2,1,70,0,0
83668,-100,4,2,2,5,0,0
83755,-100,4,2,1,70,0,0
86197,-100,4,2,2,75,0,0
86371,-100,4,2,1,75,0,0
86720,-100,4,2,1,65,0,0
87418,-100,4,2,1,70,0,0
87592,-100,4,2,2,75,0,0
87766,-100,4,2,1,75,0,0
88115,-100,4,2,1,65,0,0
88987,-100,4,2,2,75,0,0
89161,-100,4,2,1,75,0,0
89510,-100,4,2,1,65,0,0
90208,-100,4,2,1,70,0,0
90382,-100,4,2,1,65,0,0
90732,-100,4,2,1,75,0,0
90906,-100,4,2,1,70,0,0
91081,-100,4,2,1,65,0,0
91255,-100,4,2,1,60,0,0
91429,-100,4,2,1,55,0,0
91604,-100,4,2,1,50,0,0
91691,-100,4,2,1,40,0,0
91778,-100,4,2,1,5,0,0

[Colours]
Combo1 : 250,169,238
Combo2 : 130,185,247
Combo3 : 240,180,151
Combo4 : 247,174,192

[HitObjects]
12,107,1081,6,0,L|126:88,1,104,2|0,0:0|0:0,0:0:0:0:
145,8,1604,2,0,P|195:64|184:139,1,156,2|0,0:0|0:0,0:0:0:0:
153,220,2301,2,0,P|102:163|114:89,1,156,2|0,0:0|0:0,0:0:0:0:
185,139,2999,2,0,L|344:112,1,156,2|0,0:0|0:0,0:0:0:0:
492,68,3871,6,0,P|447:31|385:51,1,116.999996429443,6|8,3:2|0:0,0:0:0:0:
427,126,4394,2,0,L|413:205,1,58.4999982147217,2|0,3:2|0:0,0:0:0:0:
329,171,4743,2,0,L|342:91,1,58.4999982147217,2|0,3:2|0:0,0:0:0:0:
304,30,5092,2,0,P|266:38|166:55,1,116.999996429443,6|0,3:2|3:0,0:0:0:0:
101,42,5615,2,0,P|103:71|115:98,1,58.4999982147217,8|0,0:0|0:0,0:0:0:0:
62,168,5964,2,0,P|88:180|117:184,1,58.4999982147217,8|2,0:0|3:2,0:0:0:0:
193,139,6313,1,10,0:0:0:0:
193,139,6487,1,2,3:2:0:0:
262,201,6662,6,0,L|399:180,1,130,6|8,3:2|0:0,0:0:0:0:
378,273,7185,2,0,L|309:283,1,65,2|8,0:0|0:0,0:0:0:0:
217,285,7534,1,0,3:0:0:0:
217,285,7708,1,8,0:0:0:0:
142,348,7883,6,0,P|96:364|61:292,1,130,2|2,3:2|0:0,0:0:0:0:
0,231,8406,1,8,0:0:0:0:
73,173,8581,2,0,P|119:157|154:229,1,130,2|0,0:0|3:0,0:0:0:0:
217,285,9104,1,8,0:0:0:0:
313,282,9278,6,0,L|441:262,1,130,2|2,3:2|0:0,0:0:0:0:
509,198,9801,1,8,0:0:0:0:
509,198,9976,2,0,P|502:163|514:130,1,65,2|8,0:0|0:0,0:0:0:0:
436,86,10325,2,0,P|442:51|430:18,1,65,0|8,3:0|0:0,0:0:0:0:
345,62,10674,6,0,L|216:81,1,130,4|0,3:2|3:0,0:0:0:0:
141,23,11197,1,8,0:0:0:0:
63,77,11371,2,0,P|32:131|62:185,1,130,2|0,0:0|3:0,0:0:0:0:
156,199,11894,2,0,L|146:135,1,65,8|0,0:0|3:0,0:0:0:0:
216,80,12243,6,0,L|344:60,1,130,4|8,3:2|0:0,0:0:0:0:
421,7,12767,1,0,0:0:0:0:
505,48,12941,2,0,P|517:88|505:127,1,65,10|0,0:0|3:0,0:0:0:0:
436,162,13290,2,0,P|424:122|436:83,1,65,8|0,0:0|3:0,0:0:0:0:
508,208,13639,6,0,P|451:216|361:225,1,130,10|8,0:0|0:0,0:0:0:0:
383,317,14162,2,0,P|440:309|530:300,2,130,2|0|0,0:0|3:0|3:2,0:0:0:0:
300,279,15034,5,12,0:0:0:0:
378,223,15208,1,2,0:0:0:0:
290,183,15383,1,8,0:0:0:0:
368,126,15557,2,0,P|371:92|356:53,1,65,2|8,3:2|0:0,0:0:0:0:
274,37,15906,2,0,P|270:70|286:110,1,65,2|8,3:2|0:0,0:0:0:0:
290,183,16255,6,0,P|223:190|153:200,1,130,4|0,3:2|3:0,0:0:0:0:
79,173,16778,2,0,P|73:204|81:236,1,65,8|0,0:0|3:0,0:0:0:0:
16,291,17127,2,0,P|40:312|71:321,1,65,8|0,0:0|3:0,0:0:0:0:
153,286,17476,2,0,P|169:283|185:282,3,32.5,8|8|8|8,0:0|0:0|0:0|0:0,0:0:0:0:
221,313,17825,6,0,P|269:307|319:347,1,104,6|2,3:2|3:2,0:0:0:0:
436,269,18522,2,0,P|388:275|338:235,1,104,2|0,3:2|3:2,0:0:0:0:
408,192,19046,2,0,L|425:75,1,104,2|0,0:0|0:0,0:0:0:0:
474,11,19569,2,0,B|407:-18|353:32|353:32|297:83|227:55,1,260,2|0,3:2|0:0,0:0:0:0:
161,0,20615,5,0,3:2:0:0:
63,91,20964,2,0,P|53:48|-3:28,2,104,2|2|0,3:2|3:2|3:2,0:0:0:0:
107,166,21836,2,0,P|145:145|150:85,1,104,2|0,0:0|0:0,0:0:0:0:
233,57,22360,2,0,B|270:13|316:-4|388:46|388:46|378:88|367:139,1,260,2|0,3:2|0:0,0:0:0:0:
280,132,23406,5,0,3:2:0:0:
201,226,23755,2,0,P|152:208|97:238,2,104,2|2|0,3:2|3:2|3:2,0:0:0:0:
286,218,24627,2,0,P|279:268|240:301,1,104,2|0,0:0|0:0,0:0:0:0:
203,378,25150,2,0,P|162:347|153:296,1,104,2|0,3:2|3:2,0:0:0:0:
286,218,25848,2,0,L|347:227,1,52,0|0,3:2|0:0,0:0:0:0:
343,316,26197,6,0,L|240:300,1,104,2|2,3:2|3:2,0:0:0:0:
198,220,26720,1,0,0:0:0:0:
198,220,26894,2,0,L|95:235,1,104,2|8,3:2|0:0,0:0:0:0:
21,192,27418,6,0,P|9:248|36:299,1,116.999996429443,6|0,3:2|3:0,0:0:0:0:
95,235,27941,2,0,P|106:178|79:128,1,116.999996429443,8|8,0:0|0:0,0:0:0:0:
59,36,28464,2,0,L|-1:47,2,58.4999982147217,0|8|8,3:0|0:0|3:0,0:0:0:0:
148,64,28987,6,0,L|263:87,1,97.5,4|0,3:2|0:0,0:0:0:0:
253,86,29336,2,0,P|262:45|342:35,2,130,8|2|8,0:0|3:2|0:0,0:0:0:0:
338,129,30208,2,0,L|465:103,1,130,2|0,0:0|0:0,0:0:0:0:
489,197,30732,2,0,L|361:222,1,130,8|0,0:0|3:0,0:0:0:0:
291,268,31255,1,2,0:0:0:0:
291,268,31429,2,0,P|276:235|278:204,1,65,8|0,0:0|0:0,0:0:0:0:
168,191,31778,6,0,P|191:242|167:292,1,97.5,0|0,3:0|0:0,0:0:0:0:
176,288,32127,2,0,L|40:309,2,130,10|2|8,0:0|3:2|0:0,0:0:0:0:
168,191,32999,2,0,L|32:212,1,130,2|0,0:0|0:0,0:0:0:0:
1,125,33522,2,0,P|-10:78|61:35,1,130,8|0,0:0|3:0,0:0:0:0:
87,117,34046,1,2,0:0:0:0:
87,117,34220,2,0,L|151:107,1,65,8|0,0:0|0:0,0:0:0:0:
214,39,34569,6,0,L|322:55,1,97.5,6|0,3:2|0:0,0:0:0:0:
319,56,34918,2,0,P|335:107|300:170,2,130,8|2|8,0:0|3:2|0:0,0:0:0:0:
407,18,35790,2,0,P|435:74|496:92,1,130,2|0,0:0|0:0,0:0:0:0:
484,187,36313,2,0,P|420:183|375:227,2,130,10|0|8,0:0|3:0|0:0,0:0:0:0:
460,271,37185,1,2,0:0:0:0:
389,332,37360,6,0,L|260:312,1,130,6|8,3:2|0:0,0:0:0:0:
205,242,37883,1,0,0:0:0:0:
205,242,38057,2,0,P|210:190|220:101,1,130,2|8,3:2|0:0,0:0:0:0:
159,49,38581,6,0,P|217:24|276:49,1,130,6|0,3:2|3:0,0:0:0:0:
218,112,39104,2,0,P|159:137|101:112,1,130,8|8,0:0|0:0,0:0:0:0:
16,86,39627,2,0,P|18:60|23:15,2,65,0|10|0,3:0|0:0|3:0,0:0:0:0:
61,178,40150,6,0,B|67:140|103:112|103:112|168:160|130:234|130:234|66:293|109:364,1,364,6|0,3:2|3:0,0:0:0:0:
177,309,41546,2,0,B|304:267|266:371|340:397|398:360|426:335|433:287|397:248|346:259,1,364,2|0,3:2|0:0,0:0:0:0:
269,220,42941,6,0,P|254:170|282:114,1,104,2|0,3:2|0:0,0:0:0:0:
191,85,43464,2,0,P|226:47|289:43,1,104,2|0,0:0|0:0,0:0:0:0:
463,120,44162,2,0,B|519:84|489:-15|400:-12|368:42|368:42|347:124|273:123,1,364,2|8,0:0|0:0,0:0:0:0:
160,16,45732,6,0,P|121:57|41:50,1,130,14|0,0:2|3:0,0:0:0:0:
8,149,46255,2,0,P|63:162|96:235,1,130,10|0,0:0|3:0,0:0:0:0:
164,296,46778,1,10,0:0:0:0:
164,296,46953,1,0,3:0:0:0:
223,228,47127,2,0,L|197:74,1,130,10|0,0:0|3:0,0:0:0:0:
231,13,47650,1,8,0:0:0:0:
289,81,47825,2,0,L|361:67,1,65,2|0,3:2|3:0,0:0:0:0:
427,17,48174,1,10,0:0:0:0:
512,60,48348,1,0,3:0:0:0:
510,151,48522,6,0,P|498:213|491:305,1,130,10|0,0:0|3:0,0:0:0:0:
417,325,49046,2,0,P|369:283|293:231,1,130,10|0,0:0|3:0,0:0:0:0:
248,182,49569,1,10,0:0:0:0:
160,205,49743,2,0,P|110:205|87:123,1,130,6|0,3:2|3:0,0:0:0:0:
106,44,50267,5,8,0:0:0:0:
167,115,50441,1,0,3:0:0:0:
199,26,50615,1,8,0:0:0:0:
260,98,50790,1,0,3:0:0:0:
293,11,50964,1,8,0:0:0:0:
354,81,51139,6,0,L|484:60,1,130,6|0,3:2|3:0,0:0:0:0:
464,152,51662,2,0,L|399:162,1,65,8|0,0:0|0:0,0:0:0:0:
361,247,52011,2,0,L|426:257,1,65,8|10,0:0|0:0,0:0:0:0:
433,261,52272,1,8,0:0:0:0:
438,268,52360,2,0,L|428:319,3,32.5,8|8|10|8,0:0|0:0|0:0|0:0,0:0:0:0:
422,340,52708,6,0,P|359:329|256:311,1,143.000004364014,6|8,3:2|0:0,0:0:0:0:
259,224,53232,2,0,P|188:236|118:248,1,143.000004364014,2|0,0:0|3:0,0:0:0:0:
42,302,53755,1,8,0:0:0:0:
34,210,53929,6,0,L|6:50,1,143.000004364014,2|0,3:2|0:0,0:0:0:0:
74,16,54453,1,8,0:0:0:0:
144,76,54627,2,0,P|214:63|284:51,1,143.000004364014,2|0,0:0|3:0,0:0:0:0:
370,15,55150,1,8,0:0:0:0:
445,69,55325,6,0,P|475:120|435:186,1,143.000004364014,0|0,3:0|3:0,0:0:0:0:
348,174,55848,1,8,0:0:0:0:
348,174,56022,2,0,P|354:138|360:103,1,71.5000021820069,2|8,0:0|0:0,0:0:0:0:
284,51,56371,2,0,P|248:57|213:63,1,71.5000021820069,0|8,3:0|0:0,0:0:0:0:
127,27,56720,6,0,P|69:15|27:88,1,143.000004364014,2|0,3:2|3:0,0:0:0:0:
115,117,57243,1,8,0:0:0:0:
115,117,57418,2,0,P|108:152|102:187,1,71.5000021820069,2|8,0:0|0:0,0:0:0:0:
143,271,57767,1,0,3:0:0:0:
201,198,57941,1,8,0:0:0:0:
235,284,58115,1,0,3:0:0:0:
293,212,58290,6,0,P|352:190|424:237,1,143.000004364014,4|8,3:2|0:0,0:0:0:0:
348,288,58813,2,0,L|368:365,1,71.5000021820069,0|8,3:0|0:0,0:0:0:0:
418,226,59162,2,0,L|438:149,1,71.5000021820069,0|8,3:0|0:0,0:0:0:0:
469,69,59511,6,0,P|426:61|382:88,1,71.5000021820069,2|8,3:2|0:0,0:0:0:0:
343,4,59860,2,0,P|314:37|316:89,1,71.5000021820069,0|8,3:0|0:0,0:0:0:0:
349,145,60208,2,0,P|278:157|208:169,1,143.000004364014,2|0,0:0|3:0,0:0:0:0:
117,221,60732,1,8,0:0:0:0:
123,129,60906,1,0,3:0:0:0:
37,165,61081,6,0,P|28:106|99:40,1,143.000004364014,6|8,3:2|0:0,0:0:0:0:
160,1,61604,2,0,P|195:7|230:13,1,71.5000021820069,2|8,3:2|0:0,0:0:0:0:
310,63,61953,2,0,P|345:56|380:50,1,71.5000021820069,2|8,3:2|0:0,0:0:0:0:
473,50,62301,6,0,P|462:120|453:198,1,143.000004364014,6|0,3:2|3:0,0:0:0:0:
405,272,62825,1,12,0:0:0:0:
351,196,62999,1,0,3:0:0:0:
312,281,63174,1,8,0:0:0:0:
259,204,63348,1,0,3:0:0:0:
220,290,63522,1,8,0:0:0:0:
133,258,63697,5,8,0:0:0:0:
133,258,63784,1,8,0:0:0:0:
133,258,63871,2,0,P|105:215|141:120,1,143.000004364014,6|8,3:2|0:0,0:0:0:0:
40,101,64394,2,0,P|66:57|168:50,1,143.000004364014,2|0,0:0|3:0,0:0:0:0:
229,96,64918,1,8,0:0:0:0:
313,121,65092,6,0,P|354:85|311:3,1,143.000004364014,2|0,3:2|3:2,0:0:0:0:
240,26,65615,1,8,0:0:0:0:
240,26,65790,2,0,L|228:108,1,71.5000021820069,2|8,0:0|0:0,0:0:0:0:
183,177,66139,1,0,3:0:0:0:
266,216,66313,1,8,0:0:0:0:
191,268,66487,1,0,3:0:0:0:
274,308,66662,6,0,L|436:288,1,143.000004364014,8|8,0:0|0:0,0:0:0:0:
501,254,67185,2,0,P|511:287|506:322,1,71.5000021820069,2|8,0:0|0:0,0:0:0:0:
415,290,67534,2,0,P|404:256|409:221,1,71.5000021820069,0|8,3:0|0:0,0:0:0:0:
478,156,67883,6,0,P|504:117|451:43,1,143.000004364014,2|0,3:2|3:0,0:0:0:0:
376,2,68406,1,8,0:0:0:0:
350,91,68581,1,2,0:0:0:0:
285,23,68755,1,8,0:0:0:0:
259,114,68929,1,0,3:0:0:0:
259,114,69017,1,0,3:0:0:0:
259,114,69104,2,0,L|181:98,1,71.5000021820069,8|0,0:0|3:0,0:0:0:0:
124,32,69453,6,0,P|80:29|45:88,1,107.25000327301,4|0,3:2|0:0,0:0:0:0:
44,86,69801,2,0,P|45:122|64:160,1,71.5000021820069,10|0,0:0|0:0,0:0:0:0:
4,219,70150,2,0,P|36:236|78:238,1,71.5000021820069,10|0,0:0|3:0,0:0:0:0:
99,320,70499,2,0,P|130:300|153:265,1,71.5000021820069,8|0,0:0|3:0,0:0:0:0:
139,187,70848,6,0,L|286:169,1,143.000004364014,8|10,0:0|0:0,0:0:0:0:
366,137,71371,2,0,P|374:171|365:206,1,71.5000021820069,2|8,0:0|0:0,0:0:0:0:
281,238,71720,2,0,P|272:202|281:168,1,71.5000021820069,0|8,3:0|0:0,0:0:0:0:
257,78,72069,1,0,3:0:0:0:
342,40,72243,6,0,L|483:60,1,143.000004364014,6|8,3:2|0:0,0:0:0:0:
436,147,72767,2,0,L|365:136,1,71.5000021820069,2|8,3:2|0:0,0:0:0:0:
280,169,73115,2,0,L|209:180,1,71.5000021820069,2|8,3:2|0:0,0:0:0:0:
104,192,73464,6,0,P|47:189|39:98,1,143.000004364014,6|0,3:2|3:0,0:0:0:0:
2,18,73987,2,0,L|80:32,1,71.5000021820069,8|0,0:0|0:0,0:0:0:0:
129,107,74336,1,8,0:0:0:0:
171,25,74511,1,0,3:0:0:0:
221,103,74685,1,8,0:0:0:0:
265,21,74860,1,0,3:0:0:0:
485,134,76255,6,0,P|487:78|464:18,1,116.999996429443,12|0,0:0|3:0,0:0:0:0:
393,61,76778,2,0,P|404:91|402:120,1,58.4999982147217,12|0,0:0|3:0,0:0:0:0:
363,202,77127,1,8,0:0:0:0:
304,128,77301,1,0,3:0:0:0:
270,217,77476,1,8,0:0:0:0:
182,203,77650,5,0,3:0:0:0:
182,203,77737,1,0,3:0:0:0:
182,203,77825,2,0,P|145:171|172:92,1,130,6|8,3:2|0:0,0:0:0:0:
240,139,78348,2,0,L|307:127,1,65,2|8,0:0|0:0,0:0:0:0:
402,117,78697,1,0,3:0:0:0:
402,117,78871,1,8,0:0:0:0:
438,33,79046,6,0,P|411:-4|326:8,1,130,2|2,3:2|0:0,0:0:0:0:
256,48,79569,1,8,0:0:0:0:
303,127,79743,2,0,L|327:262,1,130,2|0,0:0|3:0,0:0:0:0:
343,345,80267,1,8,0:0:0:0:
432,331,80441,6,0,P|479:302|454:221,1,130,2|2,3:2|0:0,0:0:0:0:
394,188,80964,1,8,0:0:0:0:
325,254,81139,2,0,L|261:242,1,65,2|8,0:0|0:0,0:0:0:0:
199,175,81487,2,0,L|135:186,1,65,0|8,3:0|0:0,0:0:0:0:
77,257,81836,6,0,P|46:205|67:132,1,130,4|0,3:2|3:0,0:0:0:0:
33,52,82360,1,8,0:0:0:0:
121,73,82534,2,0,L|248:50,1,130,2|0,0:0|3:0,0:0:0:0:
331,10,83057,2,0,L|394:21,1,65,8|0,0:0|3:0,0:0:0:0:
479,56,83406,6,0,P|468:106|455:205,1,130,4|8,3:2|0:0,0:0:0:0:
476,273,83929,1,0,0:0:0:0:
412,338,84104,2,0,L|341:323,1,65,10|0,0:0|3:0,0:0:0:0:
332,234,84453,2,0,L|403:249,1,65,8|0,0:0|3:0,0:0:0:0:
456,183,84801,6,0,P|462:135|387:110,1,130,10|8,0:0|0:0,0:0:0:0:
309,77,85325,2,0,P|325:18|386:17,2,130,2|0|0,0:0|3:0|3:2,0:0:0:0:
270,159,86197,5,12,0:0:0:0:
213,85,86371,1,2,0:0:0:0:
177,169,86546,1,8,0:0:0:0:
118,99,86720,2,0,P|111:64|100:13,1,65,2|8,3:2|0:0,0:0:0:0:
14,40,87069,2,0,P|23:94|41:175,1,130,2|0,3:2|3:0,0:0:0:0:
106,228,87592,5,12,0:0:0:0:
177,169,87767,1,2,0:0:0:0:
193,260,87941,1,8,0:0:0:0:
264,200,88115,2,0,P|293:184|333:188,1,65,2|8,3:2|0:0,0:0:0:0:
368,104,88464,2,0,P|396:121|412:157,1,65,2|8,3:2|0:0,0:0:0:0:
487,205,88813,5,8,0:0:0:0:
487,205,88900,1,8,0:0:0:0:
487,205,88987,2,0,P|503:178|504:146,2,65,6|2|8,3:2|0:0|0:0,0:0:0:0:
411,148,89511,2,0,P|417:116|422:84,1,65,2|8,3:2|0:0,0:0:0:0:
354,23,89860,2,0,P|324:39|287:37,1,65,2|8,3:2|0:0,0:0:0:0:
245,115,90208,6,0,P|190:75|122:89,1,130,6|0,3:2|3:0,0:0:0:0:
171,166,90732,2,0,L|157:239,1,65,8|8,0:0|0:0,0:0:0:0:
69,249,91081,2,0,L|12:200,1,65,10|8,0:0|0:0,0:0:0:0:
9,125,91429,2,0,P|67:105|145:77,1,130,10|0,0:0|0:0,0:0:0:0:
