osu file format v14

[General]
AudioFilename: audio.ogg
AudioLeadIn: 0
PreviewTime: 125589
Countdown: 0
SampleSet: Soft
StackLeniency: 0.7
Mode: 0
LetterboxInBreaks: 0
WidescreenStoryboard: 1

[Editor]
Bookmarks: 16303,90017,154017,190589,235160,278017,284374
DistanceSpacing: 1.3
BeatDivisor: 4
GridSize: 16
TimelineZoom: 3.799998

[Metadata]
Title:Shizuku
TitleUnicode:雫
Artist:Asaki
ArtistUnicode:あさき
Creator:seros
Version:SERYUKI'S ANOTHER
Source:ポップンミュージック 12 いろは
Tags:kalibe yukic bongo yuuki_noa snowy_wind yuuki noa snowy wind ttmnzk tt mouse drop 神曲 shinkyoku おんなのこ Onnanoko ロングバージョン Teardrops Long Version orie Pop'n Music 12 Iroha Kaimei Riddles Lively beatmania IIDX INFINITAS (2020) DDR DanceDanceRevolution X3 VS 2ndMIX REFLEC BEAT limelight plus ノスタルジア FORTE nostalgia ポップンリズミン pop'n rhythm ダンキラ!!! DANKIRA!!! Boys, be DANCING! hd bemani konami japanese rock j-rock jrock pop j-pop jpop poetic rhythm game
BeatmapID:4101132
BeatmapSetID:1975936

[Difficulty]
HPDrainRate:5
CircleSize:4
OverallDifficulty:8
ApproachRate:9.2
SliderMultiplier:1.8
SliderTickRate:1

[Events]
//Background and Video events
0,0,"84919303_p0.jpg",0,0
//Break Periods
//Storyboard Layer 0 (Background)
//Storyboard Layer 1 (Fail)
//Storyboard Layer 2 (Pass)
//Storyboard Layer 3 (Foreground)
//Storyboard Layer 4 (Overlay)
//Storyboard Sound Samples

[TimingPoints]
15732,285.714285714286,4,2,1,60,1,0
16303,-100,4,2,1,25,0,0
16874,-100,4,2,30,70,0,0
17874,-100,4,2,31,70,0,0
18159,-100,4,2,32,70,0,0
18589,-100,4,2,33,70,0,0
18874,-100,4,2,34,70,0,0
19017,-100,4,2,34,60,0,0
19160,-100,4,2,35,70,0,0
19302,-100,4,2,33,70,0,0
19446,-100,4,2,36,70,0,0
19589,-100,4,2,37,70,0,0
19731,-100,4,2,33,70,0,0
19874,-100,4,2,36,70,0,0
20017,-100,4,2,35,70,0,0
20160,-100,4,2,38,70,0,0
20445,-100,4,2,39,70,0,0
20874,-100,4,2,40,70,0,0
21160,-100,4,2,36,70,0,0
21303,-111.111111111111,4,2,39,70,0,0
21588,-111.111111111111,4,2,36,70,0,0
21731,-100,4,2,38,70,0,0
22017,-100,4,2,35,70,0,0
22159,-100,4,2,41,70,0,0
22303,-100,4,2,38,70,0,0
22446,-111.111111111111,4,2,42,70,0,0
22874,-111.111111111111,4,2,43,70,0,0
23017,-100,4,2,43,70,0,0
23159,-100,4,2,35,70,0,0
23303,-100,4,2,36,70,0,0
23589,-100,4,2,40,70,0,0
24017,-100,4,2,1,70,0,0
24303,-100,4,2,33,70,0,0
24446,-100,4,2,36,70,0,0
24589,-100,4,2,35,70,0,0
24732,-100,4,2,43,70,0,0
25732,-100,4,2,1,70,0,0
26017,-100,4,2,30,70,0,0
26446,-100,4,2,45,70,0,0
26732,-100,4,2,30,70,0,0
27017,-100,4,2,46,70,0,0
27302,-100,4,2,32,70,0,0
28017,-100,4,2,34,70,0,0
28303,-100,4,2,35,70,0,0
28445,-100,4,2,32,70,0,0
28589,-100,4,2,36,70,0,0
28732,-100,4,2,37,70,0,0
28874,-100,4,2,32,70,0,0
29017,-100,4,2,36,70,0,0
29160,-100,4,2,35,70,0,0
29303,-100,4,2,38,70,0,0
29732,-100,4,2,39,70,0,0
30017,-100,4,2,34,70,0,0
30160,-100,4,2,36,70,0,0
30446,-100,4,2,39,70,0,0
30731,-100,4,2,36,70,0,0
30874,-100,4,2,38,70,0,0
31016,-100,4,2,38,60,0,0
31160,-100,4,2,38,70,0,0
31302,-100,4,2,41,70,0,0
31445,-100,4,2,41,60,0,0
31589,-100,4,2,47,85,0,0
32017,-100,4,2,43,85,0,0
32303,-100,4,2,35,85,0,0
32445,-100,4,2,32,85,0,0
32588,-100,4,2,37,85,0,0
32732,-100,4,2,40,85,0,0
33446,-100,4,2,32,85,0,0
33589,-100,4,2,36,85,0,0
33732,-100,4,2,35,85,0,0
33874,-100,4,2,43,85,0,0
34303,-100,4,2,1,85,0,0
35160,-125,4,2,1,60,0,0
36017,-125,4,2,1,50,0,0
39588,-125,4,2,1,60,0,0
39732,-125,4,2,1,50,0,0
41946,-125,4,2,1,60,0,0
42017,-125,4,2,1,50,0,0
42588,-125,4,2,1,60,0,0
42732,-125,4,2,1,50,0,0
43660,-125,4,2,1,60,0,0
43732,-125,4,2,1,50,0,0
47160,-125,4,2,1,60,0,0
47302,-125,4,2,1,50,0,0
47588,-125,4,2,1,60,0,0
47732,-125,4,2,1,50,0,0
50302,-125,4,2,1,60,0,0
50588,-125,4,2,1,50,0,0
54445,-125,4,2,1,60,0,0
54589,-125,4,2,1,50,0,0
55588,-125,4,2,1,60,0,0
55660,-125,4,2,1,50,0,0
56731,-125,4,2,1,60,0,0
56874,-125,4,2,1,50,0,0
57445,-125,4,2,1,60,0,0
57589,-125,4,2,1,50,0,0
57874,-125,4,2,1,60,0,0
58017,-125,4,2,1,50,0,0
58588,-125,4,2,1,60,0,0
58732,-125,4,2,1,50,0,0
59731,-125,4,2,1,60,0,0
59874,-125,4,2,1,50,0,0
60446,-125,4,2,1,60,0,0
60588,-125,4,2,1,50,0,0
61089,-125,4,2,1,60,0,0
61160,-125,4,2,1,50,0,0
61874,-125,4,2,24,60,0,0
61945,-125,4,2,20,60,0,0
62016,-125,4,2,21,60,0,0
62160,-125,4,2,22,60,0,0
62303,-125,4,2,24,60,0,0
62446,-125,4,2,21,60,0,0
62589,-100,4,2,23,60,0,0
62874,-100,4,2,1,60,0,0
69874,-111.111111111111,4,2,1,60,0,0
70589,-100,4,2,1,60,0,0
71160,-100,4,2,1,40,0,0
71732,-100,4,2,30,75,0,0
72446,-100,4,2,30,70,0,0
72732,-100,4,2,31,70,0,0
73302,-100,4,2,31,60,0,0
73446,-100,4,2,1,70,0,0
73732,-100,4,2,35,60,0,0
74302,-100,4,2,36,60,0,0
74446,-100,4,2,37,60,0,0
74732,-100,4,2,36,60,0,0
74874,-100,4,2,35,60,0,0
75017,-100,4,2,38,60,0,0
75302,-100,4,2,1,70,0,0
75446,-100,4,2,37,70,0,0
75589,-100,4,2,37,60,0,0
75732,-100,4,2,35,70,0,0
76017,-100,4,2,36,70,0,0
76160,-100,4,2,37,70,0,0
76445,-100,4,2,36,70,0,0
76589,-100,4,2,38,60,0,0
76731,-100,4,2,41,70,0,0
76874,-100,4,2,34,70,0,0
77303,-100,4,2,42,70,0,0
77732,-100,4,2,43,70,0,0
77874,-100,4,2,43,60,0,0
78017,-100,4,2,35,70,0,0
78160,-100,4,2,36,70,0,0
78446,-100,4,2,40,70,0,0
78731,-100,4,2,1,70,0,0
79016,-100,4,2,1,60,0,0
79160,-100,4,2,32,70,0,0
79302,-100,4,2,36,70,0,0
79446,-100,4,2,35,70,0,0
79589,-100,4,2,38,70,0,0
79874,-100,4,2,43,70,0,0
80589,-100,4,2,48,80,0,0
80874,-100,4,2,38,70,0,0
81303,-100,4,2,35,70,0,0
81445,-100,4,2,35,60,0,0
81589,-100,4,2,35,70,0,0
81731,-100,4,2,35,60,0,0
81803,-100,4,2,35,70,0,0
82159,-100,4,2,36,70,0,0
82303,-100,4,2,32,70,0,0
82446,-100,4,2,32,60,0,0
82589,-100,4,2,37,70,0,0
82731,-100,4,2,49,70,0,0
82874,-100,4,2,37,70,0,0
83017,-100,4,2,37,60,0,0
83160,-100,4,2,34,70,0,0
83445,-100,4,2,37,70,0,0
83589,-100,4,2,36,70,0,0
83731,-100,4,2,35,70,0,0
83874,-100,4,2,36,70,0,0
84016,-100,4,2,35,70,0,0
84160,-100,4,2,38,70,0,0
84588,-100,4,2,39,70,0,0
84732,-100,4,2,39,60,0,0
84874,-100,4,2,35,70,0,0
85017,-100,4,2,36,70,0,0
85303,-100,4,2,39,70,0,0
85588,-100,4,2,35,70,0,0
85874,-100,4,2,38,70,0,0
86017,-100,4,2,35,70,0,0
86159,-100,4,2,41,70,0,0
86446,-100,4,2,47,70,0,0
86874,-100,4,2,43,70,0,0
87159,-100,4,2,35,70,0,0
87303,-100,4,2,36,70,0,0
87446,-100,4,2,37,70,0,0
87517,-100,4,2,37,60,0,0
87589,-100,4,2,34,70,0,0
88303,-100,4,2,32,70,0,0
88446,-100,4,2,36,70,0,0
88589,-100,4,2,35,70,0,0
88732,-111.111111111111,4,2,43,70,0,0
89017,-111.111111111111,4,2,1,70,0,0
89160,-100,4,2,1,70,0,0
89374,-100,4,2,1,60,0,0
89446,-100,4,2,1,70,0,0
89946,-100,4,2,1,60,0,0
90017,-100,4,2,1,80,0,0
90588,-100,4,2,1,60,0,0
90732,-100,4,2,1,80,0,0
90946,-100,4,2,1,60,0,0
91017,-100,4,2,1,80,0,0
91159,-100,4,2,1,60,0,0
91303,-100,4,2,1,80,0,0
93445,-100,4,2,1,60,0,0
93589,-100,4,2,1,80,0,0
94017,-100,4,2,1,60,0,0
97303,-100,4,2,1,85,0,0
97446,-100,4,2,1,75,0,0
99160,-100,4,2,1,60,0,0
125874,-100,4,2,23,60,0,0
125946,-100,4,2,20,60,0,0
126016,-100,4,2,23,60,0,0
126160,-100,4,2,22,60,0,0
126303,-100,4,2,24,60,0,0
126446,-100,4,2,21,60,0,0
126517,-100,4,2,23,60,0,0
126874,-100,4,2,1,60,0,0
135160,-100,4,2,1,40,0,0
135732,-100,4,2,30,75,0,0
136017,-100,4,2,1,60,0,0
136160,-100,4,2,30,75,0,0
136446,-100,4,2,30,70,0,0
136732,-100,4,2,31,70,0,0
137446,-100,4,2,1,70,0,0
137732,-100,4,2,35,60,0,0
138159,-100,4,2,33,60,0,0
138303,-100,4,2,36,60,0,0
138446,-100,4,2,37,60,0,0
138731,-100,4,2,36,60,0,0
138874,-100,4,2,35,60,0,0
139017,-100,4,2,38,60,0,0
139303,-100,4,2,1,70,0,0
139446,-100,4,2,37,70,0,0
139731,-100,4,2,35,70,0,0
139946,-100,4,2,35,60,0,0
140017,-100,4,2,36,70,0,0
140160,-100,4,2,37,70,0,0
140302,-100,4,2,37,60,0,0
140446,-100,4,2,36,70,0,0
140588,-100,4,2,38,60,0,0
140732,-100,4,2,41,70,0,0
140874,-100,4,2,34,70,0,0
141303,-100,4,2,42,70,0,0
141732,-100,4,2,43,70,0,0
141946,-100,4,2,43,60,0,0
142017,-100,4,2,35,70,0,0
142160,-100,4,2,36,70,0,0
142446,-100,4,2,40,70,0,0
142731,-100,4,2,1,70,0,0
143160,-100,4,2,32,70,0,0
143232,-100,4,2,32,60,0,0
143303,-100,4,2,36,70,0,0
143446,-100,4,2,35,70,0,0
143589,-100,4,2,38,70,0,0
143803,-100,4,2,38,60,0,0
143874,-100,4,2,43,70,0,0
144303,-100,4,2,52,70,0,0
144446,-100,4,2,52,60,0,0
144589,-100,4,2,48,80,0,0
144874,-100,4,2,38,70,0,0
145303,-100,4,2,35,70,0,0
145445,-100,4,2,35,60,0,0
145589,-100,4,2,35,70,0,0
146159,-100,4,2,36,70,0,0
146303,-100,4,2,32,70,0,0
146589,-100,4,2,37,70,0,0
146732,-100,4,2,49,70,0,0
146874,-100,4,2,37,70,0,0
147160,-100,4,2,34,70,0,0
147445,-100,4,2,37,70,0,0
147589,-100,4,2,36,70,0,0
147731,-100,4,2,35,70,0,0
147874,-100,4,2,36,70,0,0
148017,-100,4,2,35,70,0,0
148160,-100,4,2,38,70,0,0
148302,-100,4,2,38,60,0,0
148446,-100,4,2,38,70,0,0
148589,-100,4,2,39,70,0,0
148731,-100,4,2,39,60,0,0
148874,-100,4,2,35,70,0,0
149017,-100,4,2,36,70,0,0
149160,-100,4,2,1,60,0,0
149303,-100,4,2,39,70,0,0
149589,-100,4,2,35,70,0,0
149874,-100,4,2,38,70,0,0
150017,-100,4,2,35,70,0,0
150160,-100,4,2,41,70,0,0
150446,-100,4,2,47,70,0,0
150660,-100,4,2,47,60,0,0
150732,-100,4,2,1,60,0,0
150874,-100,4,2,43,70,0,0
151088,-100,4,2,43,60,0,0
151160,-100,4,2,35,70,0,0
151302,-100,4,2,36,70,0,0
151446,-100,4,2,37,70,0,0
151589,-100,4,2,34,70,0,0
152017,-100,4,2,1,60,0,0
152303,-100,4,2,32,70,0,0
152446,-100,4,2,36,70,0,0
152589,-100,4,2,35,70,0,0
152732,-100,4,2,43,70,0,0
153017,-100,4,2,1,70,0,0
153231,-100,4,2,1,60,0,0
153302,-100,4,2,1,70,0,0
153374,-100,4,2,1,60,0,0
153446,-100,4,2,1,70,0,0
154017,-100,4,2,1,80,0,0
155446,-100,4,2,1,60,0,0
172303,-100,4,2,3,60,0,0
172946,-100,4,2,3,60,0,0
173017,-100,4,2,3,60,0,0
173445,-100,4,2,3,60,0,0
173589,-100,4,2,3,60,0,0
174089,-100,4,2,3,60,0,0
174160,-100,4,2,3,60,0,0
174803,-100,4,2,3,60,0,0
174874,-100,4,2,3,60,0,0
175017,-100,4,2,3,60,0,0
175160,-100,4,2,3,60,0,0
177088,-100,4,2,3,60,0,0
177160,-100,4,2,3,60,0,0
178517,-100,4,2,3,60,0,0
178589,-100,4,2,3,60,0,0
181089,-100,4,2,3,60,0,0
181160,-100,4,2,3,60,0,0
181589,-100,4,2,3,60,0,0
181732,-100,4,2,3,60,0,0
183660,-100,4,2,3,60,0,0
183732,-100,4,2,3,60,0,0
185946,-100,4,2,3,60,0,0
186017,-100,4,2,3,60,0,0
191732,-100,4,2,1,60,0,0
192874,-133.333333333333,4,2,1,60,0,0
194589,-200,4,2,1,60,0,0
195160,-100,4,2,1,60,0,0
195589,-133.333333333333,4,2,1,60,0,0
199732,-111.111111111111,4,2,1,60,0,0
204303,-100,4,2,1,60,0,0
215589,-200,4,2,1,60,0,0
216589,-100,4,2,1,60,0,0
220446,-100,4,2,1,70,0,0
220589,-100,4,2,37,70,0,0
220874,-100,4,2,35,70,0,0
221160,-100,4,2,36,70,0,0
221303,-100,4,2,37,70,0,0
221517,-100,4,2,37,60,0,0
221589,-100,4,2,36,70,0,0
221732,-100,4,2,38,60,0,0
221874,-100,4,2,41,70,0,0
222017,-100,4,2,34,70,0,0
222446,-100,4,2,42,70,0,0
222660,-100,4,2,42,60,0,0
222732,-100,4,2,42,70,0,0
222874,-100,4,2,43,70,0,0
223160,-100,4,2,35,70,0,0
223303,-100,4,2,36,70,0,0
223589,-100,4,2,40,70,0,0
223803,-100,4,2,40,60,0,0
223874,-100,4,2,1,70,0,0
224303,-100,4,2,32,70,0,0
224517,-100,4,2,32,60,0,0
224589,-100,4,2,35,70,0,0
224660,-100,4,2,35,60,0,0
224732,-100,4,2,38,70,0,0
225017,-100,4,2,43,70,0,0
225446,-100,4,2,50,70,0,0
225732,-100,4,2,48,80,0,0
226017,-100,4,2,38,70,0,0
226159,-100,4,2,38,60,0,0
226303,-100,4,2,38,70,0,0
226446,-100,4,2,35,70,0,0
227302,-100,4,2,36,70,0,0
227446,-100,4,2,32,70,0,0
227732,-100,4,2,37,70,0,0
227874,-100,4,2,49,70,0,0
228017,-100,4,2,37,70,0,0
228303,-100,4,2,34,70,0,0
228589,-100,4,2,37,70,0,0
228732,-100,4,2,36,70,0,0
228875,-100,4,2,35,70,0,0
229017,-100,4,2,36,70,0,0
229160,-100,4,2,35,70,0,0
229303,-100,4,2,38,70,0,0
229732,-100,4,2,39,70,0,0
230017,-100,4,2,35,70,0,0
230159,-100,4,2,36,70,0,0
230303,-100,4,2,1,60,0,0
230446,-100,4,2,39,70,0,0
230732,-100,4,2,35,70,0,0
231017,-100,4,2,38,70,0,0
231160,-100,4,2,35,70,0,0
231303,-100,4,2,41,70,0,0
231589,-100,4,2,47,70,0,0
231874,-100,4,2,1,60,0,0
232017,-100,4,2,43,70,0,0
232303,-100,4,2,35,70,0,0
232445,-100,4,2,36,70,0,0
232589,-100,4,2,37,70,0,0
232732,-100,4,2,34,70,0,0
233160,-100,4,2,1,60,0,0
233446,-100,4,2,32,70,0,0
233589,-100,4,2,36,70,0,0
233732,-100,4,2,35,70,0,0
233874,-100,4,2,43,70,0,0
234016,-100,4,2,43,60,0,0
234160,-100,4,2,1,70,0,0
234374,-100,4,2,1,60,0,0
234446,-100,4,2,1,70,0,0
234874,-100,4,2,1,60,0,0
235160,-90.9090909090909,4,2,30,80,0,0
235589,-90.9090909090909,4,2,45,80,0,0
235874,-90.9090909090909,4,2,30,80,0,0
236160,-90.9090909090909,4,2,46,80,0,0
236446,-90.9090909090909,4,2,36,80,0,0
236589,-90.9090909090909,4,2,32,80,0,0
236731,-90.9090909090909,4,2,32,60,0,0
236874,-90.9090909090909,4,2,51,80,0,0
237016,-90.9090909090909,4,2,37,80,0,0
237160,-90.9090909090909,4,2,35,80,0,0
237731,-90.9090909090909,4,2,36,80,0,0
237874,-90.9090909090909,4,2,37,80,0,0
238017,-90.9090909090909,4,2,33,80,0,0
238160,-90.9090909090909,4,2,36,80,0,0
238303,-90.9090909090909,4,2,35,80,0,0
238446,-90.9090909090909,4,2,38,80,0,0
238732,-90.9090909090909,4,2,1,80,0,0
238874,-90.9090909090909,4,2,37,80,0,0
239160,-90.9090909090909,4,2,35,80,0,0
239303,-90.9090909090909,4,2,36,80,0,0
239446,-90.9090909090909,4,2,37,70,0,0
239589,-90.9090909090909,4,2,39,80,0,0
239874,-90.9090909090909,4,2,36,80,0,0
239945,-90.9090909090909,4,2,36,60,0,0
240017,-90.9090909090909,4,2,36,80,0,0
240160,-90.9090909090909,4,2,38,80,0,0
240445,-90.9090909090909,4,2,41,80,0,0
240732,-90.9090909090909,4,2,47,80,0,0
240946,-90.9090909090909,4,2,47,60,0,0
241017,-90.9090909090909,4,2,47,80,0,0
241160,-90.9090909090909,4,2,43,80,0,0
241302,-90.9090909090909,4,2,43,60,0,0
241446,-90.9090909090909,4,2,35,80,0,0
241589,-90.9090909090909,4,2,36,80,0,0
241732,-90.9090909090909,4,2,37,80,0,0
241874,-90.9090909090909,4,2,40,80,0,0
242303,-90.9090909090909,4,2,1,60,0,0
242589,-90.9090909090909,4,2,32,80,0,0
242732,-90.9090909090909,4,2,36,80,0,0
242874,-90.9090909090909,4,2,35,80,0,0
243017,-90.9090909090909,4,2,34,80,0,0
243302,-90.9090909090909,4,2,38,80,0,0
243446,-90.9090909090909,4,2,35,80,0,0
243732,-90.9090909090909,4,2,52,80,0,0
244017,-90.9090909090909,4,2,53,80,0,0
244089,-90.9090909090909,4,2,1,80,0,0
244303,-90.9090909090909,4,2,30,80,0,0
244732,-90.9090909090909,4,2,45,80,0,0
245017,-90.9090909090909,4,2,30,80,0,0
245303,-90.9090909090909,4,2,46,80,0,0
245588,-90.9090909090909,4,2,36,80,0,0
245732,-90.9090909090909,4,2,32,80,0,0
245874,-90.9090909090909,4,2,37,80,0,0
246017,-90.9090909090909,4,2,51,80,0,0
246160,-90.9090909090909,4,2,37,80,0,0
246303,-90.9090909090909,4,2,35,80,0,0
246446,-90.9090909090909,4,2,36,80,0,0
246589,-90.9090909090909,4,2,34,80,0,0
246874,-90.9090909090909,4,2,36,80,0,0
247017,-90.9090909090909,4,2,39,80,0,0
247303,-90.9090909090909,4,2,36,80,0,0
247446,-90.9090909090909,4,2,35,80,0,0
247589,-90.9090909090909,4,2,38,80,0,0
248017,-90.9090909090909,4,2,39,85,0,0
248159,-90.9090909090909,4,2,39,60,0,0
248303,-90.9090909090909,4,2,35,85,0,0
248446,-90.9090909090909,4,2,36,85,0,0
248660,-90.9090909090909,4,2,36,60,0,0
248732,-90.9090909090909,4,2,39,85,0,0
249017,-90.9090909090909,4,2,36,85,0,0
249160,-90.9090909090909,4,2,38,85,0,0
249589,-90.9090909090909,4,2,41,85,0,0
249732,-90.9090909090909,4,2,55,85,0,0
249874,-90.9090909090909,4,2,47,85,0,0
250303,-90.9090909090909,4,2,38,85,0,0
250445,-90.9090909090909,4,2,36,85,0,0
250589,-90.9090909090909,4,2,35,85,0,0
250732,-90.9090909090909,4,2,32,85,0,0
250874,-90.9090909090909,4,2,37,85,0,0
251017,-90.9090909090909,4,2,40,85,0,0
251231,-90.9090909090909,4,2,40,60,0,0
251303,-90.9090909090909,4,2,40,85,0,0
251446,-90.9090909090909,4,2,32,85,0,0
251588,-90.9090909090909,4,2,32,60,0,0
251732,-90.9090909090909,4,2,32,85,0,0
251874,-90.9090909090909,4,2,36,85,0,0
252017,-90.9090909090909,4,2,38,85,0,0
252160,-90.9090909090909,4,2,50,85,0,0
252374,-90.9090909090909,4,2,50,60,0,0
252446,-90.9090909090909,4,2,32,85,0,0
252589,-90.9090909090909,4,2,54,85,0,0
252874,-90.9090909090909,4,2,55,85,0,0
253160,-90.9090909090909,4,2,54,85,0,0
253303,-90.9090909090909,4,2,55,85,0,0
253446,-90.9090909090909,4,2,1,70,0,0
261446,-71.4285714285714,4,2,1,60,0,0
261732,-90.9090909090909,4,2,1,60,0,0
261874,-83.3333333333333,4,2,1,60,0,0
262589,-90.9090909090909,4,2,1,60,0,0
263017,-71.4285714285714,4,2,1,60,0,0
263589,-66.6666666666667,4,2,1,60,0,0
264017,-90.9090909090909,4,2,1,60,0,0
270446,-71.4285714285714,4,2,1,60,0,0
270874,-90.9090909090909,4,2,1,60,0,0
272160,-71.4285714285714,4,2,1,60,0,0
272732,-90.9090909090909,4,2,1,60,0,0
273446,-71.4285714285714,4,2,1,60,0,0
273874,-90.9090909090909,4,2,1,60,0,0
274732,-117.647058823529,4,2,1,60,0,0
275017,-71.4285714285714,4,2,1,60,0,0
276303,-90.9090909090909,4,2,1,60,0,0
278446,-71.4285714285714,4,2,1,60,0,0
278874,-90.9090909090909,4,2,1,60,0,0
280874,-90.9090909090909,4,2,1,40,0,0
281589,-90.9090909090909,4,2,1,20,0,0
282232,-90.9090909090909,4,2,1,10,0,0
283089,-90.9090909090909,4,2,1,6,0,0

[Colours]
Combo1 : 208,250,112
Combo2 : 186,194,193
Combo3 : 135,130,120
Combo4 : 198,189,217
Combo5 : 228,163,228
Combo6 : 149,234,202
Combo7 : 159,189,221
Combo8 : 240,77,77

[HitObjects]
23,122,16303,69,0,0:0:0:0:
28,143,16446,1,0,0:0:0:0:
7,149,16588,1,0,0:0:0:0:
2,128,16731,1,0,0:0:0:0:
20,135,16874,6,0,P|105:146|206:163,1,180,6|8,1:2|0:3,0:0:0:0:
431,237,17303,2,0,P|384:247|333:261,1,90,2|0,1:2|0:0,0:0:0:0:
506,292,17588,1,2,1:2:0:0:
314,229,17731,1,8,0:3:0:0:
223,256,17874,2,0,P|212:159|203:72,1,180,2|2,1:2|1:2,0:0:0:0:
303,1,18303,2,0,P|299:51|298:105,1,90,8|0,0:3|0:0,0:0:0:0:
314,229,18588,101,2,1:2:0:0:
252,314,18731,1,0,1:0:0:0:
147,308,18874,1,10,0:3:0:0:
93,216,19017,1,0,0:0:0:0:
93,216,19160,6,0,P|44:225|-13:238,1,90,2|2,1:2|0:2,0:0:0:0:
288,177,19446,1,10,0:2:0:0:
216,125,19588,2,0,P|170:124|113:119,1,90,2|2,1:2|0:2,0:0:0:0:
325,173,19874,101,2,1:2:0:0:
509,290,20017,1,10,0:2:0:0:
421,302,20160,2,0,P|428:223|445:107,1,180,2|2,1:2|1:2,0:0:0:0:
392,51,20588,1,8,0:3:0:0:
478,198,20731,1,0,0:0:0:0:
393,325,20874,1,2,1:2:0:0:
308,300,21017,5,0,1:0:0:0:
273,384,21160,1,10,0:3:0:0:
57,326,21303,2,0,P|138:319|219:314,1,161.999995056153,2|2,1:2|1:2,0:0:0:0:
86,142,21731,2,0,P|94:189|104:244,1,90,10|0,0:3|0:0,0:0:0:0:
237,112,22017,2,0,P|244:57|249:15,1,90,2|2,1:2|1:2,0:0:0:0:
152,54,22303,101,8,0:3:0:0:
398,97,22446,2,0,P|317:103|236:112,1,161.999995056153,2|0,1:2|1:0,0:0:0:0:
483,232,22874,1,10,0:3:0:0:
308,193,23017,2,0,P|362:197|407:203,1,90,0|2,0:0|1:2,0:0:0:0:
344,287,23303,5,2,1:2:0:0:
233,366,23446,1,10,0:3:0:0:
104,314,23588,2,0,P|95:221|90:127,1,180,2|0,1:2|1:0,0:0:0:0:
14,294,24017,2,0,P|11:339|9:390,1,90,8|0,0:3|0:0,0:0:0:0:
0,163,24303,1,2,1:2:0:0:
109,219,24446,1,2,1:2:0:0:
260,75,24588,101,10,0:3:0:0:
190,32,24731,2,0,B|112:40|2:55,1,180,2|0,1:2|1:0,0:0:0:0:
282,55,25160,2,0,P|326:56|371:61,1,90,8|0,0:3|0:0,0:0:0:0:
184,127,25446,1,0,1:0:0:0:
353,226,25588,1,0,1:0:0:0:
467,66,25731,1,8,0:3:0:0:
467,66,26017,6,0,P|463:181|460:248,1,180,6|8,1:2|0:3,0:0:0:0:
389,323,26446,2,0,P|430:331|484:343,1,90,2|0,1:2|0:0,0:0:0:0:
301,314,26731,1,2,1:2:0:0:
227,363,26874,1,8,0:3:0:0:
139,337,27017,102,0,P|131:245|119:145,1,180,2|2,1:2|1:2,0:0:0:0:
17,58,27446,1,8,0:3:0:0:
2,222,27588,1,0,0:0:0:0:
163,236,27731,2,0,P|257:243|344:253,1,180,2|10,1:2|0:3,0:0:0:0:
430,287,28160,1,0,0:0:0:0:
506,229,28303,2,0,P|497:179|487:121,1,90,2|2,1:2|0:2,0:0:0:0:
393,8,28588,5,10,0:2:0:0:
296,158,28731,2,0,P|299:97|304:47,1,90,2|2,1:2|0:2,0:0:0:0:
393,8,29017,1,2,1:2:0:0:
261,189,29160,1,10,0:2:0:0:
178,143,29303,102,0,P|75:157|-12:174,1,180,2|0,1:2|1:0,0:0:0:0:
179,249,29731,2,0,P|120:244|83:243,1,90,10|0,0:3|0:0,0:0:0:0:
261,189,30017,5,2,1:2:0:0:
195,267,30160,1,2,1:2:0:0:
295,280,30303,1,8,0:3:0:0:
512,345,30446,102,0,P|422:356|333:370,1,180,6|2,1:2|1:2,0:0:0:0:
151,375,30874,2,0,P|209:380|249:386,1,90,10|0,0:3|0:0,0:0:0:0:
89,210,31160,2,0,P|45:215|-6:222,2,90,2|2|0,1:2|1:2|0:0,0:0:0:0:
321,163,31588,6,0,P|206:146|140:138,1,180,2|0,1:2|1:0,0:0:0:0:
481,197,32017,1,10,0:3:0:0:
391,239,32160,1,8,1:2:0:0:
221,107,32303,2,0,P|214:41|210:6,2,90,0|2|8,1:2|1:2|0:2,0:0:0:0:
300,261,32731,102,0,P|307:171|315:82,1,180,2|0,1:2|1:0,0:0:0:0:
358,350,33160,2,0,P|295:357|246:364,1,90,8|0,0:3|0:0,0:0:0:0:
39,247,33446,1,2,1:2:0:0:
141,206,33588,1,2,1:2:0:0:
214,287,33731,1,10,0:3:0:0:
479,279,33874,6,0,P|388:269|295:260,1,180,6|0,1:2|1:0,0:0:0:0:
299,260,34303,1,8,0:3:0:0:
116,216,34446,101,0,0:0:0:0:
116,216,34517,1,0,1:0:0:0:
116,216,34588,1,0,1:0:0:0:
83,111,34731,1,0,1:0:0:0:
321,0,34874,5,8,0:3:0:0:
356,99,35017,1,0,1:0:0:0:
217,215,35160,38,0,P|222:143|229:71,1,144,4|8,1:0|0:3,0:0:0:0:
308,25,35588,2,0,P|314:65|318:105,1,72,0|0,1:0|0:0,0:0:0:0:
310,183,35874,1,0,1:0:0:0:
420,200,36017,2,0,P|381:207|327:216,1,72,8|0,0:3|0:0,0:0:0:0:
287,280,36303,2,0,P|216:266|123:252,2,144,0|8|0,1:0|0:3|1:0,0:0:0:0:
354,354,37017,1,0,1:0:0:0:
441,322,37160,2,0,P|482:317|517:314,1,72,8|0,0:3|0:0,0:0:0:0:
317,366,37446,6,0,P|244:369|168:374,1,144,0|8,1:0|0:3,0:0:0:0:
0,274,37874,2,0,P|36:278|149:293,1,144,0|0,1:0|1:0,0:0:0:0:
226,247,38303,2,0,P|234:311|242:352,1,72,8|0,0:3|0:0,0:0:0:0:
146,199,38588,2,0,P|154:135|162:50,1,144,0|8,1:0|0:3,0:0:0:0:
161,55,39160,5,0,1:0:0:0:
74,29,39303,1,0,1:0:0:0:
33,133,39446,2,0,P|82:124|119:120,1,72,8|0,0:3|0:0,0:0:0:0:
167,187,39731,2,0,P|237:173|309:163,1,144,0|8,1:0|0:3,0:0:0:0:
401,56,40160,2,0,P|329:65|258:79,1,144,0|0,1:0|1:0,0:0:0:0:
466,120,40588,1,8,0:3:0:0:
466,120,40874,102,0,P|460:183|455:276,1,144,0|8,1:0|0:3,0:0:0:0:
58,355,41446,2,0,P|51:311|46:266,1,72,0|0,1:0|1:0,0:0:0:0:
38,92,41731,1,8,0:3:0:0:
0,185,41874,5,0,0:0:0:0:
0,185,41946,1,0,0:0:0:0:
0,185,42017,2,0,P|77:194|156:202,1,144,0|8,1:0|0:3,0:0:0:0:
276,259,42446,2,0,P|239:263|204:267,1,72,0|0,1:0|0:0,0:0:0:0:
344,335,42731,1,0,1:0:0:0:
436,296,42874,2,0,P|480:303|525:309,1,72,8|0,0:3|1:0,0:0:0:0:
309,350,43160,102,0,P|237:358|166:369,1,144,0|8,1:0|0:3,0:0:0:0:
69,308,43588,1,0,0:0:0:0:
69,308,43660,1,0,0:0:0:0:
69,308,43731,2,0,P|74:344|78:380,1,72,0|0,1:0|1:0,0:0:0:0:
118,82,44017,1,8,0:3:0:0:
118,82,44303,6,0,P|113:142|106:236,1,144,4|8,1:0|0:3,0:0:0:0:
214,172,44731,2,0,P|207:92|197:-5,1,144,0|0,1:0|1:0,0:0:0:0:
301,158,45160,2,0,P|304:199|310:255,1,72,8|0,0:3|0:0,0:0:0:0:
491,364,45446,102,0,P|492:297|493:200,2,144,0|8|0,1:0|0:3|1:0,0:0:0:0:
401,237,46160,1,0,1:0:0:0:
435,114,46303,2,0,P|430:66|425:23,1,72,8|0,0:3|0:0,0:0:0:0:
427,42,46588,2,0,P|339:50|260:61,1,144,0|8,1:0|0:3,0:0:0:0:
46,88,47017,1,0,1:0:0:0:
118,135,47160,2,0,P|156:139|193:144,1,72,0|0,0:0|1:0,0:0:0:0:
286,328,47446,2,0,P|250:321|214:317,1,72,8|0,0:3|0:0,0:0:0:0:
52,240,47731,6,0,P|127:233|218:222,1,144,0|8,1:0|0:3,0:0:0:0:
278,185,48160,2,0,P|332:193|366:201,1,72,0|0,0:0|1:0,0:0:0:0:
486,234,48446,1,0,1:0:0:0:
398,317,48588,1,8,0:3:0:0:
398,317,48874,102,0,P|392:227|386:163,1,144,0|8,1:0|0:3,0:0:0:0:
498,19,49303,2,0,P|503:56|509:93,1,72,0|0,1:0|0:0,0:0:0:0:
387,173,49588,1,0,1:0:0:0:
333,105,49731,2,0,P|341:45|344:19,1,72,8|0,0:3|0:0,0:0:0:0:
247,119,50017,2,0,P|256:187|270:280,2,144,0|0|0,1:0|0:0|1:0,0:0:0:0:
350,193,50731,2,0,P|396:199|434:205,1,72,0|8,1:0|0:3,0:0:0:0:
198,322,51160,6,0,P|137:330|53:342,1,144,0|8,1:0|0:3,0:0:0:0:
286,358,51588,1,0,1:0:0:0:
374,309,51874,101,0,1:0:0:0:
286,358,52017,2,0,P|281:307|274:261,1,72,8|0,0:3|0:0,0:0:0:0:
184,39,52303,2,0,P|180:93|174:199,1,144,0|8,1:0|0:3,0:0:0:0:
89,102,52731,1,0,0:0:0:0:
33,173,52874,5,0,1:0:0:0:
212,194,53017,1,0,1:0:0:0:
380,213,53160,1,8,0:3:0:0:
380,213,53446,22,0,P|344:217|308:222,1,72,4|8,1:0|0:0,0:0:0:0:
453,251,53731,1,8,0:3:0:0:
321,314,53874,2,0,P|233:302|157:293,1,144,0|0,1:0|1:0,0:0:0:0:
395,376,54303,2,0,P|433:371|474:367,1,72,8|0,0:3|0:0,0:0:0:0:
379,212,54588,86,0,P|346:216|293:225,1,72,0|8,1:0|0:0,0:0:0:0:
453,251,54874,1,8,0:3:0:0:
458,156,55017,2,0,P|463:103|473:6,1,144,0|0,1:0|1:0,0:0:0:0:
367,33,55446,2,0,P|373:89|375:127,1,72,8|0,0:3|0:0,0:0:0:0:
374,104,55660,85,0,0:0:0:0:
374,104,55731,2,0,P|294:111|208:122,1,144,8|8,1:0|0:3,0:0:0:0:
25,27,56160,2,0,P|96:38|167:48,1,144,0|0,1:0|1:0,0:0:0:0:
249,85,56588,2,0,P|243:129|239:169,1,72,8|0,0:3|0:0,0:0:0:0:
127,357,56874,2,0,P|121:290|112:194,1,144,0|8,1:0|0:3,0:0:0:0:
211,164,57303,2,0,P|206:211|203:248,1,72,0|0,1:0|0:0,0:0:0:0:
214,318,57588,1,0,1:0:0:0:
76,290,57731,2,0,P|40:294|4:299,1,72,8|0,0:3|0:0,0:0:0:0:
239,341,58017,54,0,P|313:348|405:357,1,144,0|8,1:0|0:3,0:0:0:0:
405,265,58446,2,0,P|444:262|486:259,1,72,0|0,1:0|0:0,0:0:0:0:
316,256,58731,1,0,1:0:0:0:
316,256,58874,2,0,P|237:247|145:235,1,144,8|0,0:3|1:0,0:0:0:0:
5,264,59303,53,8,0:0:0:0:
97,304,59446,1,8,0:3:0:0:
173,238,59588,2,0,P|179:187|181:161,1,72,0|0,1:0|0:0,0:0:0:0:
136,16,59874,53,0,1:0:0:0:
70,72,60017,2,0,P|79:150|87:225,1,144,8|0,0:3|1:0,0:0:0:0:
150,346,60446,2,0,P|154:308|158:269,1,72,0|8,0:0|0:3,0:0:0:0:
246,318,60731,1,2,1:0:0:0:
444,223,60874,54,0,P|441:259|437:309,1,72,0|10,0:0|1:0,0:0:0:0:
438,294,61088,1,0,1:0:0:0:
438,294,61160,1,10,0:3:0:0:
507,369,61303,1,2,0:0:0:0:
369,168,61446,1,0,1:0:0:0:
369,168,61874,70,0,L|374:120,2,36,2|2|2,2:3|2:3|2:3,0:0:0:0:
462,140,62160,1,2,1:3:0:0:
278,163,62303,1,10,1:3:0:0:
131,23,62446,1,2,1:3:0:0:
131,23,62517,1,0,1:0:0:0:
131,23,62589,86,0,P|142:116|154:211,1,180,6|8,1:3|0:3,0:0:0:0:
349,346,63017,2,0,P|359:257|368:167,1,180,8|0,1:1|1:0,0:0:0:0:
442,73,63446,5,8,0:3:0:0:
490,185,63588,1,0,0:0:0:0:
389,255,63731,2,0,P|301:273|213:292,1,180,0|8,1:0|0:3,0:0:0:0:
0,100,64160,2,0,P|77:108|187:121,1,180,0|0,1:0|1:0,0:0:0:0:
255,197,64588,101,8,0:3:0:0:
212,292,64731,1,0,0:0:0:0:
100,275,64874,6,0,P|93:216|85:162,1,90,8|0,1:0|0:0,0:0:0:0:
0,251,65160,1,8,0:3:0:0:
189,384,65303,2,0,P|197:294|205:204,1,180,0|0,1:0|1:0,0:0:0:0:
317,38,65731,2,0,P|324:87|334:146,1,90,8|0,0:3|0:0,0:0:0:0:
330,126,65946,1,0,0:0:0:0:
330,126,66017,2,0,P|392:119|510:109,1,180,0|8,1:0|0:3,0:0:0:0:
227,74,66446,1,0,1:0:0:0:
227,74,66731,102,0,P|224:123|220:175,2,90,0|8|0,1:0|0:3|0:0,0:0:0:0:
55,317,67160,1,8,1:0:0:0:
176,295,67303,1,8,0:0:0:0:
296,276,67446,1,8,0:3:0:0:
429,384,67588,6,0,P|348:377|223:367,1,180,0|0,1:0|1:0,0:0:0:0:
422,296,68017,2,0,P|464:291|514:286,1,90,8|0,0:3|0:0,0:0:0:0:
511,286,68231,1,0,0:0:0:0:
511,286,68303,2,0,P|503:224|498:183,1,90,8|0,1:0|0:0,0:0:0:0:
403,25,68588,1,8,0:3:0:0:
210,102,68731,2,0,P|280:113|394:131,1,180,8|0,1:2|1:0,0:0:0:0:
118,159,69160,102,0,P|109:96|104:59,1,90,8|0,0:3|0:0,0:0:0:0:
105,69,69374,1,0,0:0:0:0:
105,69,69446,2,0,L|5:82,1,90,8|0,1:0|0:0,0:0:0:0:
189,0,69731,1,8,0:3:0:0:
200,263,69874,2,0,P|205:182|209:101,1,161.999995056153,8|0,1:2|1:0,0:0:0:0:
512,214,70303,1,8,0:3:0:0:
438,165,70446,5,0,0:0:0:0:
438,165,70517,1,0,0:0:0:0:
438,165,70589,2,0,P|391:171|337:177,1,90,0|0,1:0|1:0,0:0:0:0:
39,207,70874,1,8,0:3:0:0:
39,207,71160,38,0,P|44:172|47:154,3,45,8|8|8|8,1:3|1:3|1:3|1:3,0:0:0:0:
3,245,71446,1,8,1:2:0:0:
37,284,71517,1,8,1:2:0:0:
13,329,71588,1,8,1:2:0:0:
48,382,71660,1,8,1:2:0:0:
48,382,71731,102,0,P|135:372|229:363,1,180,6|8,1:2|0:3,0:0:0:0:
404,281,72160,2,0,P|398:335|393:382,1,90,2|0,0:2|1:0,0:0:0:0:
507,347,72446,85,2,1:2:0:0:
321,239,72588,1,8,0:3:0:0:
390,178,72731,2,0,P|379:100|365:-16,1,180,2|2,1:2|1:2,0:0:0:0:
426,262,73160,2,0,P|420:316|415:363,1,90,10|0,0:3|0:0,0:0:0:0:
205,137,73446,2,0,P|249:141|294:146,1,90,0|0,1:0|1:0,0:0:0:0:
0,107,73731,37,10,0:3:0:0:
113,49,73874,1,0,0:0:0:0:
205,137,74017,2,0,P|295:129|384:122,1,180,2|10,1:2|0:2,0:0:0:0:
93,191,74446,1,2,1:2:0:0:
93,191,74731,70,0,L|3:200,1,90,2|10,1:2|0:2,0:0:0:0:
333,220,75017,2,0,P|432:211|527:202,1,180,2|0,1:2|1:0,0:0:0:0:
391,310,75446,1,10,0:3:0:0:
391,310,75588,37,0,0:0:0:0:
319,372,75731,1,2,1:2:0:0:
226,353,75874,1,0,1:0:0:0:
182,269,76017,1,10,0:3:0:0:
512,224,76160,70,0,P|418:212|303:198,1,180,6|2,1:2|1:2,0:0:0:0:
244,201,76588,2,0,P|238:149|234:103,1,90,8|2,0:3|0:0,0:0:0:0:
234,111,76803,1,0,0:0:0:0:
234,111,76874,2,0,P|186:105|144:100,1,90,2|0,1:2|1:0,0:0:0:0:
328,106,77160,37,8,0:3:0:0:
150,378,77303,2,0,P|144:287|137:195,1,180,2|0,1:2|1:0,0:0:0:0:
9,270,77731,2,0,L|-2:369,1,90,10|0,0:3|0:0,0:0:0:0:
0,359,78017,1,2,1:2:0:0:
168,281,78160,1,2,1:2:0:0:
308,351,78303,1,10,0:3:0:0:
444,256,78446,70,0,P|451:159|457:73,1,180,2|0,1:2|1:0,0:0:0:0:
394,336,78874,2,0,P|438:347|483:357,1,90,8|0,0:3|0:0,0:0:0:0:
295,170,79160,2,0,P|255:174|203:182,1,90,2|2,1:2|1:2,0:0:0:0:
364,111,79446,1,10,0:3:0:0:
170,282,79588,38,0,P|262:268|358:258,1,180,2|2,1:2|1:2,0:0:0:0:
88,359,80017,1,8,0:3:0:0:
88,359,80303,70,0,P|50:366|-3:375,1,90,0|0,1:0|1:0,0:0:0:0:
85,167,80588,1,10,0:3:0:0:
266,228,80731,1,0,0:0:0:0:
266,228,80803,1,0,0:0:0:0:
266,228,80874,38,0,P|271:142|274:41,1,180,6|8,1:2|0:3,0:0:0:0:
435,200,81303,2,0,P|441:245|447:302,1,90,2|0,1:2|0:0,0:0:0:0:
189,110,81588,2,0,P|183:63|178:20,1,90,2|0,1:2|0:0,0:0:0:0:
178,20,81803,101,0,0:0:0:0:
178,20,81874,2,0,P|87:31|-8:45,1,180,6|2,1:2|1:2,0:0:0:0:
273,48,82303,1,10,0:3:0:0:
361,6,82446,1,0,0:0:0:0:
423,79,82588,2,0,P|471:84|513:88,1,90,2|2,1:2|1:2,0:0:0:0:
435,234,82874,85,10,2:3:0:0:
426,332,83017,1,0,0:0:0:0:
318,316,83160,2,0,P|327:226|334:136,1,180,2|10,1:2|0:3,0:0:0:0:
189,20,83588,2,0,P|183:66|176:129,1,90,2|2,1:2|0:2,0:0:0:0:
0,154,83874,2,0,P|5:109|10:64,1,90,2|10,1:2|0:3,0:0:0:0:
39,384,84160,37,2,1:2:0:0:
114,334,84303,2,0,L|94:133,1,180,0|10,0:0|0:3,0:0:0:0:
96,154,84731,1,0,0:0:0:0:
193,133,84874,1,2,1:2:0:0:
213,231,85017,1,2,1:2:0:0:
123,254,85160,1,10,0:3:0:0:
333,160,85303,70,0,P|437:168|521:175,1,180,6|2,1:2|1:2,0:0:0:0:
475,262,85731,1,10,0:3:0:0:
343,316,85874,1,2,0:2:0:0:
238,200,86017,2,0,P|243:154|249:98,1,90,2|2,1:2|1:2,0:0:0:0:
147,144,86303,1,8,0:3:0:0:
4,19,86446,38,0,P|14:114|24:212,1,180,2|0,1:2|1:0,0:0:0:0:
102,350,86874,2,0,P|109:257|116:157,1,180,10|2,0:3|1:2,0:0:0:0:
115,170,87303,1,2,1:2:0:0:
262,247,87446,69,10,0:3:0:0:
262,247,87517,1,0,1:0:0:0:
262,247,87588,2,0,P|354:237|458:226,1,180,2|0,1:2|1:0,0:0:0:0:
288,144,88017,2,0,P|244:139|198:134,1,90,8|0,0:3|0:0,0:0:0:0:
113,114,88303,37,2,1:2:0:0:
276,49,88446,1,2,1:2:0:0:
338,216,88588,1,10,0:3:0:0:
113,366,88732,70,0,P|122:285|131:204,1,161.999995056153,2|0,1:2|1:0,0:0:0:0:
23,0,89160,38,0,P|17:48|12:95,1,90,8|8,0:3|1:3,0:0:0:0:
12,89,89374,1,8,1:2:0:0:
12,89,89446,1,8,1:3:0:0:
0,234,89588,1,8,1:3:0:0:
104,245,89731,101,8,0:3:0:0:
315,274,89874,1,8,1:3:0:0:
315,274,89946,1,0,1:0:0:0:
315,274,90017,6,0,P|409:284|503:290,1,180,6|8,1:2|0:3,0:0:0:0:
333,176,90446,2,0,P|276:187|236:193,1,90,2|0,2:0|0:0,0:0:0:0:
122,214,90731,1,2,1:0:0:0:
263,104,90874,1,8,0:3:0:0:
263,104,90946,1,0,0:0:0:0:
263,104,91017,2,0,P|267:47|273:-3,1,90,2|0,1:1|0:0,0:0:0:0:
283,0,91303,1,0,1:0:0:0:
180,143,91446,6,0,P|110:132|46:121,1,135,8|0,0:3|3:2,0:0:0:0:
40,111,91731,1,2,1:0:0:0:
248,72,91874,1,0,1:0:0:0:
114,212,92017,2,0,P|122:276|125:324,1,90,8|2,0:3|0:0,0:0:0:0:
30,321,92303,102,0,P|119:335|224:352,1,180,6|8,0:2|0:3,0:0:0:0:
316,343,92731,2,0,P|272:350|228:359,1,90,0|12,1:0|3:0,0:0:0:0:
398,374,93017,1,2,1:0:0:0:
472,256,93160,1,8,0:3:0:0:
373,204,93303,2,0,P|387:260|396:300,1,90,6|0,0:0|0:0,0:0:0:0:
477,347,93588,1,0,0:0:0:0:
358,188,93731,6,0,P|239:168|172:150,1,180,8|0,0:3|1:0,0:0:0:0:
0,115,94160,1,0,1:0:0:0:
100,150,94303,2,0,P|57:139|1:128,1,90,8|0,0:3|0:0,0:0:0:0:
233,281,94588,102,0,P|242:232|251:187,1,90,2|0,3:1|0:0,0:0:0:0:
275,36,94874,2,0,P|224:23|169:6,1,90,8|2,0:3|0:0,0:0:0:0:
314,120,95160,2,0,P|386:112|465:101,1,135,2|0,1:2|0:0,0:0:0:0:
464,112,95446,1,8,0:3:0:0:
304,109,95588,2,0,P|254:116|201:125,1,90,2|0,1:3|0:0,0:0:0:0:
49,147,95874,1,0,3:0:0:0:
146,220,96017,2,0,P|156:302|169:378,1,135,8|0,0:3|0:0,0:0:0:0:
176,364,96303,5,0,1:0:0:0:
263,278,96446,1,2,0:0:0:0:
263,278,96517,1,2,0:0:0:0:
263,278,96588,1,8,0:3:0:0:
377,330,96731,1,6,1:0:0:0:
512,236,96874,102,0,P|422:218|332:196,1,180,6|8,1:2|0:3,0:0:0:0:
212,169,97303,1,0,1:0:0:0:
142,266,97446,2,0,P|95:281|56:288,1,90,2|0,0:1|3:0,0:0:0:0:
130,185,97731,1,8,0:3:0:0:
241,257,97874,1,0,0:0:0:0:
358,93,98017,5,14,1:0:0:0:
206,183,98160,1,8,0:0:0:0:
172,35,98303,1,8,0:3:0:0:
110,189,98446,53,14,1:0:0:0:
302,161,98588,1,8,0:0:0:0:
251,337,98731,1,0,1:0:0:0:
212,169,98874,22,0,P|199:117|192:69,1,90,8|2,0:3|2:1,0:0:0:0:
341,21,99160,86,0,P|323:104|304:206,1,180,2|8,1:2|0:3,0:0:0:0:
258,258,99588,2,0,P|265:307|273:354,1,90,0|0,3:0|0:0,0:0:0:0:
339,384,99874,1,0,1:1:0:0:
469,247,100017,2,0,P|410:235|374:226,1,90,8|0,0:3|0:0,0:0:0:0:
176,248,100303,6,0,P|109:269|-21:303,2,180,2|8|0,1:2|0:3|3:0,0:0:0:0:
272,223,101017,1,0,3:0:0:0:
240,121,101160,2,0,P|228:74|217:21,1,90,8|2,0:3|0:0,0:0:0:0:
346,122,101446,102,0,P|323:204|307:297,1,180,0|8,0:0|0:3,0:0:0:0:
359,358,101874,2,0,P|407:373|451:379,1,90,2|0,0:0|0:0,0:0:0:0:
510,332,102160,1,0,1:0:0:0:
434,196,102303,2,0,P|385:210|329:224,1,90,8|0,0:3|0:0,0:0:0:0:
179,328,102588,6,0,P|197:257|222:143,1,180,0|8,1:0|0:3,0:0:0:0:
106,97,103017,1,0,0:0:0:0:
106,97,103088,1,0,0:0:0:0:
106,97,103160,1,0,1:0:0:0:
13,84,103303,1,0,3:0:0:0:
133,175,103446,2,0,P|183:165|238:147,1,90,8|2,0:3|0:0,0:0:0:0:
335,33,103731,54,0,P|416:50|519:66,1,180,0|8,1:0|0:3,0:0:0:0:
353,55,104160,2,0,P|342:99|329:151,1,90,2|2,0:3|0:0,0:0:0:0:
375,227,104446,1,0,1:0:0:0:
475,197,104588,2,0,P|422:205|375:219,1,90,8|0,0:3|0:0,0:0:0:0:
283,290,104874,102,0,P|192:276|89:260,2,180,2|8|0,0:1|0:3|1:0,0:0:0:0:
173,306,105588,1,0,2:0:0:0:
152,185,105731,2,0,P|146:134|139:88,1,90,8|0,0:3|2:0,1:1:0:0:
11,207,106017,6,0,P|23:275|34:350,1,135,2|0,3:1|0:0,0:0:0:0:
23,355,106303,1,8,0:3:0:0:
193,384,106446,2,0,P|202:330|210:288,1,90,2|0,3:0|0:0,0:0:0:0:
176,227,106731,1,0,0:0:0:0:
322,125,106874,2,0,P|380:114|458:94,1,135,8|0,0:3|0:0,0:0:0:0:
469,98,107160,53,2,1:2:0:0:
260,70,107303,1,0,0:0:0:0:
366,136,107446,1,8,0:3:0:0:
373,35,107588,101,2,1:0:0:0:
405,219,107731,1,0,0:0:0:0:
283,143,107874,1,8,0:0:0:0:
371,118,108017,54,0,P|420:130|471:142,1,90,8|2,0:3|0:0,0:0:0:0:
300,222,108303,6,0,P|201:239|111:254,1,180,6|8,1:2|0:3,0:0:0:0:
324,297,108731,2,0,P|367:307|413:318,1,90,0|2,3:0|0:0,0:0:0:0:
496,338,109017,1,0,3:0:0:0:
245,365,109160,2,0,P|237:291|231:261,1,90,8|0,0:3|0:0,0:0:0:0:
178,75,109446,102,0,P|85:61|-24:37,2,180,2|8|0,1:2|0:3|1:0,0:0:0:0:
256,60,110160,1,2,1:3:0:0:
341,179,110303,2,0,P|396:170|450:163,1,90,8|2,0:3|0:0,0:0:0:0:
241,141,110588,6,0,P|252:225|260:293,1,135,2|0,3:1|0:0,0:0:0:0:
271,284,110874,1,8,0:3:0:0:
143,370,111017,2,0,P|83:381|53:385,1,90
0,331,111303,1,0,0:0:0:0:
103,212,111446,2,0,P|171:222|243:230,1,135,8|0,0:3|0:0,0:0:0:0:
257,221,111731,102,0,P|306:213|352:204,1,90,2|0,1:2|0:0,0:0:0:0:
483,180,112017,1,8,0:3:0:0:
226,146,112160,6,0,P|214:98|201:39,1,90,2|0,1:2|3:0,0:0:0:0:
258,0,112446,1,6,3:0:0:0:
310,166,112588,2,0,P|294:247|286:309,1,135,8|2,0:3|0:0,0:0:0:0:
294,314,112874,102,0,P|194:336|96:357,1,180,2|8,0:0|0:3,0:0:0:0:
47,321,113303,2,0,P|36:269|27:225,1,90,2|0,1:2|0:0,0:0:0:0:
12,157,113588,1,0,0:0:0:0:
127,267,113731,2,0,P|174:257|226:246,1,90,8|0,0:3|0:0,0:0:0:0:
362,269,114017,6,0,P|373:174|387:83,2,180,0|8|2,1:0|0:3|0:0,0:0:0:0:
352,348,114731,1,0,0:0:0:0:
215,248,114874,2,0,P|150:240|102:231,1,90,8|0,0:3|0:0,0:0:0:0:
6,121,115160,102,0,P|98:100|185:78,1,180,0|8,0:0|0:3,0:0:0:0:
88,19,115588,2,0,P|42:14|-12:3,1,90,2|0,0:0|0:0,0:0:0:0:
13,84,115874,1,0,0:0:0:0:
170,64,116017,2,0,P|223:52|308:33,1,135,8|0,0:3|0:0,0:0:0:0:
316,22,116303,102,0,P|299:99|287:161,1,135,2|0,1:2|0:0,0:0:0:0:
271,160,116588,86,0,P|285:232|297:306,1,135,8|0,0:3|0:0,0:0:0:0:
310,303,116874,22,0,P|263:315|223:325,1,90,2|0,1:2|3:0,0:0:0:0:
160,284,117160,1,8,0:3:0:0:
296,384,117303,1,0,0:0:0:0:
387,264,117446,70,0,P|395:207|402:159,1,90,6|0,0:0|0:0,0:0:0:0:
413,89,117731,1,8,0:3:0:0:
313,218,117874,2,0,P|228:204|128:181,1,180,6|0,0:0|0:0,0:0:0:0:
66,35,118303,2,0,P|128:48|173:55,1,90,8|0,0:3|1:0,0:0:0:0:
121,172,118588,54,0,P|129:234|135:277,1,90,2|0,1:2|0:0,0:0:0:0:
144,352,118874,1,8,0:3:0:0:
292,229,119017,2,0,P|302:146|318:46,1,180,2|0,0:0|3:0,0:0:0:0:
450,191,119446,2,0,P|437:241|432:290,1,90,8|0,0:3|0:0,0:0:0:0:
306,318,119731,54,0,P|258:306|205:297,1,90,2|0,1:2|0:0,0:0:0:0:
134,279,120017,1,8,0:3:0:0:
292,229,120160,2,0,P|274:132|257:46,1,180,2|0,1:2|1:0,0:0:0:0:
73,17,120588,2,0,P|87:73|94:112,1,90,8|0,0:3|0:0,0:0:0:0:
62,190,120874,53,2,1:2:0:0:
168,104,121017,1,0,0:0:0:0:
76,104,121160,1,8,0:3:0:0:
155,192,121303,2,0,P|204:201|342:229,1,180,2|0,1:2|3:0,0:0:0:0:
442,167,121731,2,0,P|448:122|456:73,1,90,8|0,0:3|0:0,0:0:0:0:
345,212,122017,54,0,P|353:255|363:323,1,90,2|0,1:2|0:0,0:0:0:0:
371,384,122303,1,8,0:3:0:0:
248,279,122446,2,0,P|234:204|212:95,1,180,2|0,0:0|0:0,0:0:0:0:
292,15,122874,2,0,P|339:24|386:31,1,90,8|0,0:3|1:0,0:0:0:0:
225,91,123160,54,0,P|172:82|128:74,1,90,2|0,3:1|0:0,0:0:0:0:
38,61,123446,1,8,0:3:0:0:
163,189,123588,2,0,P|223:179|349:160,1,180,2|0,0:0|0:0,0:0:0:0:
468,136,124017,1,8,0:3:0:0:
308,91,124160,1,2,1:0:0:0:
364,163,124303,54,0,P|357:224|352:261,1,90,2|0,1:2|0:0,0:0:0:0:
234,351,124588,2,0,P|225:305|213:242,1,90,8|0,0:3|0:0,0:0:0:0:
339,261,124874,2,0,P|410:277|505:299,1,135
484,300,125160,38,8,P|517:293|538:291,3,45,8|8|8|8,0:3|1:0|1:0|1:0,1:1:0:0:
401,318,125446,1,4,1:0:0:0:
160,263,125874,6,0,P|129:255|107:252,2,45,2|2|2,2:3|0:3|0:3,0:0:0:0:
123,333,126160,1,2,1:3:0:0:
159,179,126303,1,10,3:3:0:0:
74,59,126446,1,2,3:3:0:0:
74,59,126517,1,2,3:3:0:0:
74,59,126588,86,0,P|147:74|257:86,1,180,6|8,1:3|0:3,0:0:0:0:
320,40,127017,2,0,P|368:32|419:25,1,90,0|0,3:0|0:0,0:0:0:0:
243,2,127303,1,2,3:1:0:0:
330,129,127446,2,0,P|318:214|309:279,1,135,8|0,0:3|0:0,0:0:0:0:
323,278,127731,70,0,P|231:295|127:316,1,180,4|8,1:2|0:3,0:0:0:0:
72,275,128160,2,0,P|20:267|-22:258,1,90,2|0,3:1|0:0,0:0:0:0:
78,357,128446,1,2,3:1:0:0:
147,227,128588,2,0,P|157:163|167:84,1,135,8|0,0:3|0:0,0:0:0:0:
178,72,128874,6,0,P|98:56|0:32,1,180,6|8,0:0|0:3,0:0:0:0:
76,1,129303,2,0,P|85:46|91:91,1,90,2|0,3:1|0:0,0:0:0:0:
194,80,129588,1,2,3:1:0:0:
58,163,129731,2,0,P|136:179|209:198,1,135,8|0,0:3|0:0,0:0:0:0:
202,204,130017,102,0,P|296:190|401:175,1,180,6|8,1:2|0:3,0:0:0:0:
491,239,130446,2,0,P|481:293|477:328,1,90,2|0,3:1|0:0,0:0:0:0:
401,255,130731,1,0,3:0:0:0:
469,160,130874,2,0,P|452:92|439:7,1,135,8|0,0:3|0:0,0:0:0:0:
449,18,131160,6,0,P|332:8|251:-3,1,180,6|8,1:2|0:3,0:0:0:0:
158,61,131588,2,0,P|167:115|173:170,1,90,0|0,3:0|0:0,0:0:0:0:
190,268,131874,1,2,3:1:0:0:
270,137,132017,2,0,P|330:126|375:115,1,90,8|0,0:3|0:0,0:0:0:0:
367,123,132231,1,0,1:0:0:0:
375,127,132303,102,0,P|358:233|346:318,1,180,2|8,1:2|0:3,0:0:0:0:
190,268,132731,2,0,P|133:257|83:246,1,90,0|0,1:0|0:0,0:0:0:0:
1,221,133017,1,2,3:1:0:0:
156,175,133160,2,0,P|142:128|124:71,1,90,8|0,0:3|0:0,0:0:0:0:
136,80,133374,1,0,0:0:0:0:
142,72,133446,6,0,P|221:84|325:94,1,180,2|8,1:2|0:3,0:0:0:0:
491,84,133874,2,0,P|477:40|460:-19,1,90,0|2,3:0|0:0,0:0:0:0:
360,5,134160,1,2,0:0:0:0:
405,141,134303,2,0,P|390:211|377:275,1,135,8|0,0:3|0:0,0:0:0:0:
377,273,134588,38,0,P|427:264|483:256,1,90,0|0,1:0|0:0,0:0:0:0:
215,384,134874,2,0,P|201:339|191:293,1,90,8|0,0:3|0:0,0:0:0:0:
257,216,135160,69,8,1:3:0:0:
289,167,135231,1,8,1:3:0:0:
280,111,135303,1,8,1:3:0:0:
244,75,135374,1,8,1:3:0:0:
213,60,135446,1,8,1:2:0:0:
193,28,135517,1,8,1:2:0:0:
206,0,135588,1,8,1:2:0:0:
234,0,135660,1,8,1:2:0:0:
253,18,135731,102,0,P|155:38|42:56,1,180,6|8,1:2|0:3,0:0:0:0:
6,190,136160,2,0,P|23:240|33:282,1,90,2|0,0:2|1:0,0:0:0:0:
125,182,136446,1,2,1:2:0:0:
0,97,136588,1,8,0:3:0:0:
125,182,136731,38,0,P|210:196|304:210,1,180,2|2,1:2|1:2,0:0:0:0:
444,151,137160,2,0,P|431:95|421:55,1,90,10|0,0:3|0:0,0:0:0:0:
489,13,137446,1,0,1:0:0:0:
354,138,137588,1,0,1:0:0:0:
481,231,137731,2,0,P|491:290|500:329,1,90,10|0,0:3|0:0,0:0:0:0:
293,364,138017,6,0,P|247:354|173:340,1,90,2|2,1:2|0:2,0:0:0:0:
195,349,138231,1,0,0:0:0:0:
186,354,138303,1,10,0:2:0:0:
82,265,138446,2,0,P|61:179|36:82,1,180,2|2,1:2|1:2,0:0:0:0:
191,5,138874,1,10,0:2:0:0:
86,152,139017,70,0,P|136:160|187:167,1,90,2|0,1:2|0:0,0:0:0:0:
347,186,139303,1,0,1:0:0:0:
264,61,139446,2,0,P|188:48|77:21,1,180,10|2,0:3|1:2,0:0:0:0:
12,0,139874,37,0,1:0:0:0:
8,19,139946,1,0,1:0:0:0:
3,41,140017,1,10,0:3:0:0:
86,152,140160,70,0,P|149:140|194:133,1,90,6|0,1:2|0:0,0:0:0:0:
371,61,140446,2,0,P|308:49|263:42,1,90,2|8,1:2|0:3,0:0:0:0:
174,135,140731,1,2,0:0:0:0:
249,214,140874,1,2,1:2:0:0:
359,204,141017,1,0,1:0:0:0:
426,116,141160,1,8,0:3:0:0:
347,193,141303,38,0,P|332:271|322:330,1,135,2|0,1:2|0:0,0:0:0:0:
322,325,141588,70,0,P|348:319|370:310,1,45,0|0,1:0|0:0,0:0:0:0:
487,172,141731,2,0,P|468:88|458:34,1,135,10|0,0:3|0:0,0:0:0:0:
471,25,142017,37,2,1:2:0:0:
281,80,142160,1,2,1:2:0:0:
389,96,142303,1,10,0:3:0:0:
225,1,142446,2,0,P|125:35|46:54,1,180,2|0,1:2|1:0,0:0:0:0:
0,229,142874,70,0,P|53:239|92:250,1,90,8|0,0:3|0:0,0:0:0:0:
164,228,143160,1,2,1:2:0:0:
169,214,143231,1,0,1:0:0:0:
174,200,143303,1,2,1:2:0:0:
126,130,143446,1,10,0:3:0:0:
162,309,143588,38,0,P|223:322|296:334,1,135,2|0,1:2|0:0,0:0:0:0:
309,343,143874,1,2,1:2:0:0:
442,258,144017,2,0,P|426:205|417:167,1,90,8|0,0:3|0:0,0:0:0:0:
369,28,144303,1,2,1:2:0:0:
324,149,144446,1,0,0:0:0:0:
478,101,144588,2,0,P|484:57|491:5,1,90,10|8,0:3|1:3,0:0:0:0:
302,169,144874,70,0,P|216:196|117:226,1,180,6|8,1:2|0:3,0:0:0:0:
296,89,145303,38,0,P|343:99|387:105,1,90,2|0,1:2|0:0,0:0:0:0:
218,237,145588,2,0,P|171:227|127:221,1,90,2|8,1:2|0:0,0:0:0:0:
3,0,145874,70,0,P|29:81|52:178,1,180,6|2,1:2|1:2,0:0:0:0:
0,275,146303,37,10,0:3:0:0:
80,296,146446,1,0,0:0:0:0:
154,110,146588,69,10,1:2:0:0:
129,221,146731,1,2,1:2:0:0:
199,381,146874,37,10,2:3:0:0:
160,299,147017,1,0,0:0:0:0:
270,196,147160,70,0,P|349:208|448:222,1,180,2|10,1:2|0:3,0:0:0:0:
503,357,147588,2,0,P|462:365|402:376,1,90,2|2,1:2|0:2,0:0:0:0:
339,331,147874,1,2,1:2:0:0:
368,142,148017,1,10,0:3:0:0:
448,222,148160,38,0,P|396:233|348:244,1,90,2|0,1:2|0:0,0:0:0:0:
224,271,148446,1,0,1:0:0:0:
284,119,148588,2,0,P|292:74|296:22,1,90,10|0,0:3|0:0,0:0:0:0:
144,159,148874,69,2,1:2:0:0:
281,204,149017,1,2,1:2:0:0:
226,351,149160,1,10,0:3:0:0:
88,298,149303,2,0,P|74:231|52:158,1,135,6|0,1:2|0:0,0:0:0:0:
44,153,149588,2,0,P|53:107|59:58,1,90,2|10,1:2|0:3,0:0:0:0:
46,48,149874,1,2,0:2:0:0:
167,75,150017,37,2,1:2:0:0:
289,101,150160,1,2,1:2:0:0:
405,40,150303,1,8,0:3:0:0:
239,43,150446,70,0,P|252:125|260:190,1,135,2|0,1:2|0:0,0:0:0:0:
249,190,150731,2,0,P|241:237|237:264,1,45,0|0,1:0|0:0,0:0:0:0:
347,362,150874,2,0,P|440:343|502:332,1,135,10|0,0:3|0:0,0:0:0:0:
479,335,151160,38,0,P|430:319|389:307,1,90,2|2,1:2|1:2,0:0:0:0:
152,199,151446,1,10,0:3:0:0:
258,176,151588,2,0,P|321:165|406:145,1,135,2|0,1:2|0:0,0:0:0:0:
406,155,151874,1,0,1:0:0:0:
207,114,152017,2,0,P|198:60|192:13,1,90,8|0,0:3|0:0,0:0:0:0:
272,0,152303,69,2,1:2:0:0:
191,129,152446,1,2,1:2:0:0:
293,248,152588,1,10,0:3:0:0:
229,340,152731,2,0,P|152:354|42:375,1,180,2|8,1:2|1:0,0:0:0:0:
204,261,153160,38,0,P|209:235|213:216,3,45,8|0|8|0,1:3|1:0|1:3|1:0,0:0:0:0:
200,204,153446,2,0,P|195:178|191:159,3,45,8|0|8|0,1:3|1:0|1:3|1:0,0:0:0:0:
172,136,153731,101,8,1:3:0:0:
218,95,153803,1,0,1:0:0:0:
280,87,153874,1,8,1:3:0:0:
339,103,153946,1,0,1:0:0:0:
381,147,154017,86,0,P|456:144|504:59,2,180,6|8|0,1:2|0:3|1:0,0:0:0:0:
258,291,154731,1,0,0:0:0:0:
340,243,154874,2,0,P|386:249|446:259,1,90,8|0,0:3|0:0,0:0:0:0:
110,176,155160,2,0,P|72:184|12:198,1,90,0|0,1:0|0:0,0:0:0:0:
231,270,155446,70,0,P|213:164|202:86,1,180,8|0,0:3|1:0,0:0:0:0:
291,47,155874,1,0,1:0:0:0:
98,153,156017,2,0,P|106:89|117:5,1,135,8|0,0:3|0:0,0:0:0:0:
96,41,156303,2,0,P|55:48|-1:60,1,90,0|0,1:0|0:0,0:0:0:0:
52,239,156588,37,8,0:3:0:0:
170,214,156731,2,0,P|245:221|294:307,1,180,0|0,1:0|1:0,0:0:0:0:
321,282,157160,70,0,P|312:335|306:388,1,90,8|0,0:3|0:0,0:0:0:0:
247,178,157446,2,0,P|233:71|221:-16,1,180,0|8,1:0|0:3,0:0:0:0:
224,0,157874,1,0,0:0:0:0:
421,32,158017,2,0,P|379:41|330:53,1,90,0|0,1:0|1:0,0:0:0:0:
69,74,158303,37,8,0:3:0:0:
206,99,158446,1,0,0:0:0:0:
0,215,158588,2,0,P|80:195|143:183,1,135,0|0,1:0|0:0,0:0:0:0:
153,202,158874,1,8,0:3:0:0:
248,370,159017,70,0,P|175:372|119:278,1,180,0|0,1:0|1:0,0:0:0:0:
296,295,159446,2,0,P|341:285|388:276,1,90,8|0,0:3|0:0,0:0:0:0:
512,194,159731,37,0,1:0:0:0:
452,34,159874,2,0,P|446:84|442:133,1,90,0|8,0:0|0:3,0:0:0:0:
411,345,160160,1,0,0:0:0:0:
380,310,160231,1,0,0:0:0:0:
395,268,160303,1,0,1:0:0:0:
502,320,160446,69,0,1:0:0:0:
289,326,160588,2,0,L|153:301,1,135,8|0,0:3|0:0,0:0:0:0:
177,280,160874,2,0,P|79:297|-22:313,1,180,0|8,1:0|0:3,0:0:0:0:
264,306,161303,38,0,B|282:264|282:264|264:222,1,90,0|0,1:0|0:0,0:0:0:0:
100,20,161588,2,0,B|82:62|82:62|100:104,1,90,0|8,1:0|0:3,0:0:0:0:
182,61,161874,1,0,0:0:0:0:
88,210,162017,2,0,P|40:203|-22:193,2,90,0|0|8,1:0|0:0|0:3,0:0:0:0:
88,210,162446,1,0,0:0:0:0:
30,296,162588,69,0,1:0:0:0:
200,363,162731,1,0,1:0:0:0:
319,237,162874,1,8,0:3:0:0:
319,237,163160,38,0,P|417:249|511:262,1,180,4|8,1:0|0:3,0:0:0:0:
222,262,163588,2,0,P|163:254|114:246,1,90,0|0,1:0|0:0,0:0:0:0:
247,172,163874,1,0,1:0:0:0:
295,328,164017,2,0,P|336:333|393:339,1,90,8|0,0:3|0:0,0:0:0:0:
212,75,164303,70,0,P|131:75|81:160,1,180,0|8,1:0|0:3,0:0:0:0:
13,283,164731,2,0,P|4:224|-2:184,1,90,0|0,0:0|1:0,0:0:0:0:
105,243,165017,1,0,1:0:0:0:
206,341,165160,38,0,P|215:251|227:162,2,180,8|0|8,0:3|1:0|0:3,0:0:0:0:
400,319,165874,1,0,1:0:0:0:
317,384,166017,2,0,P|311:342|302:290,1,90,0|0,0:0|1:0,0:0:0:0:
180,95,166303,2,0,L|204:233,1,135,8|0,0:3|0:0,0:0:0:0:
217,250,166588,70,0,P|170:241|128:233,1,90,0|0,1:0|0:0,0:0:0:0:
510,186,166874,2,0,P|444:195|358:207,1,135,8|0,0:3|0:0,0:0:0:0:
395,224,167160,1,8,1:0:0:0:
420,62,167303,1,0,1:0:0:0:
266,36,167446,1,8,0:3:0:0:
266,36,167588,1,0,0:0:0:0:
71,149,167731,70,0,P|162:137|261:123,1,180,4|8,1:0|0:3,0:0:0:0:
89,306,168160,2,0,P|38:299|-8:293,1,90,0|0,1:0|0:0,0:0:0:0:
157,229,168446,37,0,1:0:0:0:
38,117,168588,2,0,L|51:205,1,90,8|0,0:3|0:0,0:0:0:0:
68,332,168874,37,0,1:0:0:0:
19,202,169017,1,0,0:0:0:0:
139,111,169160,2,0,L|287:132,1,135,8|0,0:3|0:0,0:0:0:0:
257,151,169446,70,0,L|361:131,1,90,0|0,1:0|1:0,0:0:0:0:
503,362,169731,2,0,P|435:356|394:255,1,180,8|8,0:3|1:1,0:0:0:0:
507,134,170160,37,8,1:1:0:0:
447,195,170303,1,8,0:3:0:0:
410,345,170446,37,0,1:0:0:0:
391,262,170588,1,8,0:1:0:0:
272,129,170731,69,8,1:1:0:0:
363,174,170874,1,8,0:3:0:0:
178,216,171017,1,0,0:0:0:0:
178,216,171088,1,0,0:0:0:0:
178,216,171160,2,0,P|99:228|-12:244,1,180,8|8,1:1|1:3,0:0:0:0:
28,151,171588,37,0,1:0:0:0:
114,318,171731,1,8,1:1:0:0:
268,226,171874,1,8,0:1:0:0:
462,342,172017,69,8,0:3:0:0:
377,312,172160,1,0,0:3:0:0:
313,150,172303,102,0,P|304:86|293:9,1,135,4|0,2:1|0:0,0:0:0:0:
312,0,172588,2,0,L|307:62,1,45,8|0,0:3|0:0,0:0:0:0:
60,50,172731,2,0,P|148:63|205:72,1,135,0|0,1:0|0:0,0:0:0:0:
210,52,173017,1,8,1:0:0:0:
0,127,173160,1,8,0:3:0:0:
105,236,173303,2,0,P|97:191|91:146,1,90,0|0,1:0|0:0,0:0:0:0:
6,226,173588,53,0,1:0:0:0:
114,135,173731,2,0,L|124:40,1,90,8|0,0:3|0:0,0:0:0:0:
193,283,174017,53,0,2:0:0:0:
193,283,174088,1,0,2:0:0:0:
193,283,174160,1,8,1:1:0:0:
113,331,174303,1,8,0:3:0:0:
242,175,174446,53,0,0:0:0:0:
430,384,174588,54,0,P|363:371|290:357,1,135,0|0,1:0|0:0,0:0:0:0:
263,371,174874,1,8,0:3:0:0:
372,282,175017,1,0,0:0:0:0:
499,353,175160,2,0,P|463:358|405:368,1,90,0|8,1:0|1:1,0:0:0:0:
512,256,175446,53,8,0:3:0:0:
448,181,175588,2,0,P|435:110|416:-7,1,180,0|0,1:0|1:0,0:0:0:0:
210,97,176017,2,0,P|254:104|318:115,1,90,8|0,0:3|0:0,0:0:0:0:
409,87,176303,1,0,1:0:0:0:
313,192,176446,1,8,1:1:0:0:
321,102,176588,1,8,0:3:0:0:
404,175,176731,1,8,0:1:0:0:
265,338,176874,54,0,P|277:265|287:199,1,135,0|0,1:0|0:0,0:0:0:0:
313,192,177160,1,8,0:3:0:0:
225,99,177303,2,0,P|217:52|209:7,1,90,8|0,1:1|0:0,0:0:0:0:
209,10,177588,1,0,1:0:0:0:
36,45,177731,2,0,P|85:53|134:62,1,90,8|8,0:3|1:1,0:0:0:0:
0,16,178017,53,0,0:0:0:0:
118,151,178160,1,8,1:1:0:0:
46,273,178303,2,0,P|35:198|24:126,1,135,8|0,0:3|0:0,0:0:0:0:
5,128,178588,53,4,3:3:0:0:
96,103,178731,1,8,1:3:0:0:
220,268,178874,53,8,0:3:0:0:
135,239,179017,1,2,0:0:0:0:
274,168,179160,54,0,P|364:155|462:147,2,180,0|8|0,1:0|0:3|1:0,0:0:0:0:
336,300,179874,1,8,1:3:0:0:
407,245,180017,2,0,P|447:251|508:259,1,90,8|8,0:3|1:1,0:0:0:0:
258,155,180303,2,0,P|208:144|159:135,1,90,0|0,0:0|1:0,0:0:0:0:
320,271,180588,1,8,0:3:0:0:
320,271,180731,53,0,0:0:0:0:
384,96,180874,2,0,B|365:-17,1,90,0|8,1:0|1:1,0:0:0:0:
403,26,181088,53,0,0:0:0:0:
403,26,181160,2,0,P|393:97|378:217,1,180,8|4,0:3|1:0,0:0:0:0:
417,294,181588,1,0,0:0:0:0:
512,279,181731,1,8,0:3:0:0:
497,179,181874,1,0,0:0:0:0:
395,194,182017,2,0,P|340:185|287:176,1,90,0|8,1:0|1:1,0:0:0:0:
497,179,182303,2,0,P|503:137|512:89,1,90,8|0,0:3|1:0,0:0:0:0:
414,213,182588,21,0,0:0:0:0:
233,244,182731,2,0,P|188:250|129:260,1,90,0|8,1:0|0:3,0:0:0:0:
306,179,183017,1,0,0:0:0:0:
218,25,183160,2,0,P|226:69|238:130,1,90,0|0,1:0|1:0,0:0:0:0:
134,281,183446,1,8,0:3:0:0:
30,189,183588,53,0,0:0:0:0:
30,189,183660,1,0,0:0:0:0:
30,189,183731,2,0,P|16:99|-2:4,2,180,0|8|0,1:0|0:3|1:0,0:0:0:0:
119,264,184446,2,0,P|121:219|124:175,1,90,0|8,1:0|0:3,0:0:0:0:
40,314,184731,1,0,1:0:0:0:
215,225,184874,54,0,P|300:209|327:129,1,180,0|8,0:0|0:3,0:0:0:0:
471,40,185303,2,0,P|430:47|380:57,1,90,0|0,0:0|1:0,0:0:0:0:
293,45,185588,1,8,1:1:0:0:
418,204,185731,2,0,P|424:248|431:292,1,90,8|0,0:3|0:0,0:0:0:0:
431,293,185946,53,0,0:0:0:0:
431,293,186017,2,0,P|343:307|248:325,1,180,2|8,1:2|0:3,0:0:0:0:
406,326,186446,1,0,0:0:0:0:
262,351,186588,2,0,P|214:342|167:334,1,90,2|8,1:2|1:1,0:0:0:0:
262,118,186874,2,0,P|254:73|248:28,1,90,8|0,0:3|1:0,0:0:0:0:
213,19,187160,37,2,0:2:0:0:
342,63,187303,1,10,1:1:0:0:
163,150,187446,21,10,0:3:0:0:
94,231,187588,1,2,0:2:0:0:
273,370,187731,5,0,1:0:0:0:
279,340,187874,1,0,1:2:0:0:
248,334,188017,1,8,0:3:0:0:
242,364,188160,1,2,0:2:0:0:
262,351,188303,102,0,P|253:248|242:164,1,180,4|8,1:0|0:3,0:0:0:0:
202,0,188874,1,8,1:0:0:0:
263,210,189017,86,0,P|273:127|285:18,1,180,0|0,1:0|1:0,0:0:0:0:
283,31,189374,1,0,0:0:0:0:
283,31,189446,1,0,1:0:0:0:
190,91,189588,1,8,1:0:0:0:
309,117,189731,37,8,0:3:0:0:
113,17,189874,1,8,1:0:0:0:
222,192,190017,101,8,1:0:0:0:
276,216,190088,1,8,1:0:0:0:
324,210,190160,1,8,1:0:0:0:
355,180,190231,1,8,1:0:0:0:
361,141,190303,1,8,0:3:0:0:
347,116,190374,1,0,1:0:0:0:
327,108,190446,1,0,1:0:0:0:
314,110,190517,1,0,1:0:0:0:
309,117,190588,1,4,1:0:0:0:
427,224,191731,21,2,2:2:0:0:
494,269,192303,5,2,2:2:0:0:
372,350,192874,102,0,P|286:323|235:312,1,135.000005149842,2|8,0:0|0:3,0:0:0:0:
72,305,193446,1,2,0:0:0:0:
72,305,193731,2,0,P|80:230|84:151,1,135.000005149842,8|4,0:3|1:2,0:0:0:0:
406,30,194589,6,0,P|426:85|504:116,1,135,4|0,1:2|0:0,0:0:0:0:
422,14,195160,54,0,P|343:29|301:37,1,90,4|0,1:0|0:0,0:0:0:0:
147,72,195446,1,8,0:3:0:0:
147,72,195589,2,0,P|204:90|213:180,1,135.000005149842,2|0,0:0|0:0,0:0:0:0:
186,223,196017,69,8,0:3:0:0:
119,268,196303,1,2,1:2:0:0:
66,317,196588,1,8,0:3:0:0:
46,353,196874,1,2,0:0:0:0:
39,380,197160,1,8,0:3:0:0:
261,370,197446,102,0,P|284:325|309:232,1,135.000005149842,6|8,1:2|0:3,0:0:0:0:
462,321,197874,2,0,P|444:367|439:399,1,67.5000025749208,2|0,0:0|0:0,0:0:0:0:
371,327,198303,5,8,0:3:0:0:
394,253,198446,1,2,0:0:0:0:
418,180,198588,1,2,0:0:0:0:
371,327,198874,21,8,0:3:0:0:
219,231,199088,1,0,0:0:0:0:
228,220,199160,2,0,P|221:188|217:161,1,45.0000017166138,8|0,1:0|0:0,0:0:0:0:
194,141,199351,5,0,0:0:0:0:
254,52,199541,85,0,0:0:0:0:
113,16,199732,70,0,B|77:27|77:27|51:79|-15:68,1,121.499996292114,6|0,1:2|0:0,0:0:0:0:
31,48,200017,1,8,0:3:0:0:
155,116,200160,2,0,P|217:131|246:136,1,80.9999975280763,0|8,1:0|1:0,0:0:0:0:
363,95,200446,2,0,B|436:79|392:58|520:28,1,161.999995056153,0|0,0:0|1:0,0:0:0:0:
512,45,200803,1,0,0:0:0:0:
512,45,200874,2,0,P|494:99|484:134,1,80.9999975280763,0|0,3:0|0:0,0:0:0:0:
288,77,201160,2,0,P|276:38|263:0,1,80.9999975280763,8|0,0:3|0:0,0:0:0:0:
472,127,201446,38,0,P|393:118|301:255,1,242.999992584229,10|0,1:0|0:0,0:0:0:0:
384,318,202017,70,0,P|447:337|543:385,1,161.999995056153,0|8,1:0|0:3,0:0:0:0:
208,380,202588,2,0,P|174:355|135:341,1,80.9999975280763,8|0,1:0|0:0,0:0:0:0:
156,240,202874,2,0,P|193:225|226:201,1,80.9999975280763,8|0,0:3|0:0,0:0:0:0:
292,375,203160,38,0,P|297:313|316:197,2,161.999995056153,2|8|8,1:2|0:3|1:0,0:0:0:0:
292,375,203874,69,0,0:0:0:0:
224,294,204017,1,8,0:3:0:0:
137,341,204160,1,8,1:0:0:0:
26,257,204303,38,0,B|-6:227|-6:227|4:180,1,90,6|0,3:2|0:0,0:0:0:0:
149,77,204588,2,0,B|206:92|206:92|220:107|220:107|292:127,1,135,8|0,0:3|0:0,0:0:0:0:
273,121,204874,21,0,3:0:0:0:
424,84,205017,1,0,1:0:0:0:
206,189,205160,2,0,P|198:159|180:92,1,90,8|0,0:3|0:0,0:0:0:0:
78,3,205446,86,0,P|58:67|-23:88,1,135,6|0,3:2|0:0,0:0:0:0:
5,79,205731,2,0,B|109:104|51:128|169:153,1,180,8|2,0:3|3:0,0:0:0:0:
249,110,206160,1,0,1:0:0:0:
178,71,206303,1,8,0:3:0:0:
238,195,206446,1,0,0:0:0:0:
361,139,206588,21,2,3:2:0:0:
447,99,206731,1,2,0:0:0:0:
511,168,206874,1,8,0:3:0:0:
420,208,207017,1,2,0:0:0:0:
261,230,207160,85,6,3:1:0:0:
124,179,207303,1,2,1:2:0:0:
124,179,207374,1,2,1:2:0:0:
124,179,207446,1,8,0:3:0:0:
301,151,207588,1,2,0:0:0:0:
238,95,207731,22,0,B|224:47|258:54|235:1,1,90,6|0,1:2|0:0,0:0:0:0:
314,142,208017,86,0,B|260:183|260:183|175:164,1,135,8|0,0:3|0:0,0:0:0:0:
180,158,208303,1,0,1:0:0:0:
322,257,208446,1,0,1:0:0:0:
141,342,208588,22,0,B|84:371|53:334|53:334|84:310,1,135,8|2,0:3|2:0,0:0:0:0:
131,310,208874,101,2,1:0:0:0:
272,365,209017,1,8,3:0:0:0:
361,254,209160,37,8,0:3:0:0:
215,298,209303,1,8,0:3:0:0:
69,210,209446,101,8,1:0:0:0:
69,210,209517,1,8,1:0:0:0:
69,210,209588,1,8,1:0:0:0:
69,210,209660,1,8,1:0:0:0:
69,210,209731,2,0,P|115:221|166:235,1,90,8|8,0:3|1:0,0:0:0:0:
215,298,210017,5,10,1:0:0:0:
294,92,210160,1,10,1:0:0:0:
340,326,210731,102,0,L|349:376,1,45,6|0,1:0|0:0,0:0:0:0:
473,175,211017,70,0,P|360:165|304:249,1,225,14|0,1:0|0:0,0:0:0:0:
315,252,211446,2,0,P|369:239|427:228,1,90,8|0,0:3|0:0,0:0:0:0:
361,152,211731,5,8,1:0:0:0:
300,147,211827,5,12,1:3:0:0:
243,166,211922,101,12,1:3:0:0:
191,197,212017,5,8,0:3:0:0:
129,200,212112,101,12,1:3:0:0:
72,177,212208,5,12,1:3:0:0:
47,124,212303,70,0,P|104:74|200:33,1,180,6|8,1:2|0:3,0:0:0:0:
307,21,212731,2,0,P|289:96|279:164,1,135,6|0,1:2|0:0,0:0:0:0:
287,164,213017,2,0,P|232:181|190:120,1,135,0|0,1:0|0:0,0:0:0:0:
203,117,213303,2,0,P|300:97|400:72,1,180,6|0,1:2|1:0,0:0:0:0:
481,65,213731,21,8,0:3:0:0:
308,7,213874,1,4,1:3:0:0:
440,135,214017,1,8,1:0:0:0:
378,77,214160,101,8,1:0:0:0:
378,77,214231,1,8,1:0:0:0:
378,77,214303,1,8,0:3:0:0:
184,296,214588,37,6,1:2:0:0:
27,98,215589,70,0,P|90:74|158:27,1,135,2|8,0:0|0:3,3:3:0:0:
215,72,216303,1,0,0:0:0:0:
338,129,216446,69,2,0:0:0:0:
338,129,216517,1,2,0:0:0:0:
338,129,216589,2,0,B|350:161|373:184|373:184|337:198|309:228,1,135,8|0,0:3|0:0,0:0:0:0:
296,219,216874,54,0,P|213:243|119:289,1,180,6|8,1:2|0:3,0:0:0:0:
311,321,217303,2,0,P|363:333|420:358,1,90,0|0,0:0|1:0,0:0:0:0:
502,301,217588,5,0,3:0:0:0:
397,203,217731,1,8,0:3:0:0:
253,266,217874,2,0,P|187:221|207:147,1,135,2|0,1:2|0:0,0:0:0:0:
196,161,218160,2,0,P|230:152|252:145,1,45,0|0,3:0|0:0,0:0:0:0:
423,106,218303,102,0,B|406:48|369:85|338:-11,1,135,8|0,0:3|0:0,0:0:0:0:
355,9,218588,2,0,P|344:70|312:147,2,135,2|0|0,0:0|2:0|0:0,0:0:0:0:
477,166,219160,6,0,B|513:138|513:138|497:86,1,90,6|0,1:2|0:0,0:0:0:0:
423,106,219446,1,8,0:3:0:0:
256,188,219588,2,0,P|209:170|158:163,1,90,2|0,1:2|0:0,0:0:0:0:
61,156,219874,101,0,1:0:0:0:
204,65,220017,1,8,0:3:0:0:
336,171,220160,2,0,P|347:221|357:270,1,90,2|0,1:2|0:0,0:0:0:0:
453,329,220446,5,0,1:0:0:0:
281,296,220588,2,0,P|211:283|150:267,1,135,10|8,0:3|0:0,0:0:0:0:
129,272,220874,101,2,1:2:0:0:
7,329,221017,1,0,1:0:0:0:
105,196,221160,1,10,0:3:0:0:
237,307,221303,6,0,P|273:335|399:336,1,135,6|0,1:2|0:0,0:0:0:0:
381,358,221588,1,2,1:2:0:0:
504,234,221731,2,0,P|477:177|465:127,1,90,8|0,0:3|0:0,0:0:0:0:
501,22,222017,101,2,1:2:0:0:
501,22,222160,1,2,1:2:0:0:
408,102,222303,1,8,0:3:0:0:
277,63,222446,2,0,B|195:41|240:27|146:3,1,135,2|0,1:2|0:0,0:0:0:0:
134,17,222731,1,0,1:0:0:0:
251,137,222874,2,0,P|258:182|263:234,1,90,10|0,0:3|0:0,0:0:0:0:
378,358,223160,5,2,1:2:0:0:
466,313,223303,1,2,1:2:0:0:
411,225,223446,1,10,0:3:0:0:
324,273,223588,2,0,P|252:274|188:325,1,135,2|0,1:2|0:0,0:0:0:0:
191,326,223874,1,0,1:0:0:0:
28,229,224017,102,0,P|38:183|44:123,1,90,8|0,0:3|0:0,0:0:0:0:
4,1,224303,2,0,P|57:52|134:80,1,135,2|0,1:2|0:0,0:0:0:0:
126,87,224588,2,0,P|158:93|184:96,1,45,10|0,0:3|0:0,0:0:0:0:
384,56,224731,6,0,B|404:20|404:20|320:-24|288:76,1,180,2|2,1:2|1:2,0:0:0:0:
198,247,225160,2,0,B|212:297|212:297|230:305|230:305|246:370,1,135,8|0,0:3|0:0,0:0:0:0:
235,379,225446,101,2,1:2:0:0:
305,249,225588,1,0,0:0:0:0:
242,121,225731,1,10,0:3:0:0:
109,229,225874,21,8,2:3:0:0:
109,229,225946,1,0,2:0:0:0:
109,229,226017,2,0,P|50:252|0:263,1,90,6|0,1:2|0:0,0:0:0:0:
173,164,226303,1,8,0:3:0:0:
296,231,226446,2,0,P|350:239|391:252,1,90,2|0,1:2|0:0,0:0:0:0:
493,130,226731,6,0,P|482:106|438:112,1,45,10|8,1:2|1:2,0:0:0:0:
418,165,226874,1,8,0:0:0:0:
504,31,227017,102,0,P|452:63|308:94,1,180,6|2,1:2|1:2,0:0:0:0:
220,1,227446,5,10,0:3:0:0:
241,90,227588,1,0,0:0:0:0:
68,208,227731,101,2,1:2:0:0:
37,106,227874,1,2,1:2:0:0:
281,161,228017,5,10,2:3:0:0:
261,280,228160,1,0,0:0:0:0:
68,208,228303,102,0,P|119:155|202:167,1,135,2|0,1:2|0:0,0:0:0:0:
186,168,228588,2,0,P|212:178|232:184,1,45,10|0,0:3|0:0,0:0:0:0:
359,265,228731,6,0,B|414:253|414:253|430:236|430:236|489:222,1,135,2|0,1:2|0:0,0:0:0:0:
496,209,229017,101,2,1:2:0:0:
372,167,229160,1,10,0:3:0:0:
496,209,229303,2,0,P|447:247|473:335,1,135,2|0,1:2|0:0,0:0:0:0:
468,325,229588,1,0,1:0:0:0:
319,358,229731,2,0,P|275:354|227:376,1,90,10|0,0:3|0:0,0:0:0:0:
0,191,230017,2,0,P|28:154|46:89,1,90,2|2,1:2|1:2,0:0:0:0:
8,33,230303,1,10,0:3:0:0:
157,198,230446,6,0,B|231:221|203:239|285:261,1,135,6|0,1:2|0:0,0:0:0:0:
290,268,230731,2,0,P|339:237|387:229,1,90,2|10,1:2|0:3,0:0:0:0:
457,257,231017,101,2,0:2:0:0:
498,154,231160,1,2,1:2:0:0:
409,93,231303,1,2,1:2:0:0:
508,46,231446,5,8,0:3:0:0:
378,214,231588,2,0,P|310:191|278:86,1,180,2|0,1:2|1:0,0:0:0:0:
143,2,232017,2,0,P|189:21|207:63,1,90,10|0,0:3|0:0,0:0:0:0:
106,212,232303,102,0,P|66:224|5:229,1,90,2|2,1:2|1:2,0:0:0:0:
141,136,232588,1,10,0:3:0:0:
255,265,232731,2,0,P|308:280|395:298,1,135,2|0,1:2|0:0,0:0:0:0:
409,302,233017,2,0,P|367:313|345:316,1,45,0|0,1:0|0:0,0:0:0:0:
213,360,233160,6,0,P|179:305|101:307,1,135,8|0,0:3|0:0,0:0:0:0:
96,317,233446,101,2,1:2:0:0:
240,240,233588,1,2,1:2:0:0:
371,330,233731,1,10,0:3:0:0:
494,249,233874,6,0,B|516:201|516:201|479:176,1,90,2|0,1:2|0:0,0:0:0:0:
327,126,234160,101,0,1:0:0:0:
327,126,234231,1,0,1:0:0:0:
327,126,234303,2,0,B|336:159|338:137|348:185,1,45,8|0,0:3|0:0,0:0:0:0:
397,277,234446,1,8,1:2:0:0:
422,46,234588,6,0,P|410:79|403:102,1,45,8|0,1:3|0:0,0:0:0:0:
323,243,234731,1,8,1:3:0:0:
472,186,234874,102,0,P|439:174|416:167,1,45,8|0,0:3|0:0,0:0:0:0:
237,108,235017,1,8,1:3:0:0:
237,108,235088,1,0,1:0:0:0:
237,108,235160,86,0,P|178:146|188:220,1,148.50000453186,6|0,1:2|0:0,0:0:0:0:
348,287,235446,22,0,P|343:254|326:229,1,49.5000015106202,8|0,0:3|0:0,0:0:0:0:
124,381,235588,6,0,P|204:379|261:287,1,198.000006042481,2|2,0:2|1:2,0:0:0:0:
81,229,236017,1,8,0:3:0:0:
1,176,236160,2,0,P|14:97|51:12,1,148.50000453186,2|0,1:2|0:0,0:0:0:0:
19,30,236446,2,0,L|33:78,1,49.5000015106202,2|0,1:2|0:0,0:0:0:0:
229,174,236588,70,0,P|180:157|137:130,1,99.0000030212403,10|0,0:3|0:0,0:0:0:0:
311,283,236874,2,0,P|362:274|410:245,1,99.0000030212403,2|2,1:2|1:2,0:0:0:0:
89,252,237160,37,10,0:3:0:0:
212,189,237303,1,0,0:0:0:0:
311,283,237446,2,0,B|425:285|394:315|513:327,1,198.000006042481,2|10,1:2|0:3,0:0:0:0:
282,384,237874,1,2,1:2:0:0:
192,376,238017,1,2,0:0:0:0:
197,288,238160,1,2,1:2:0:0:
287,294,238303,1,10,0:3:0:0:
178,164,238446,70,0,B|109:167|121:190|23:195,1,148.50000453186,2|0,1:2|0:0,0:0:0:0:
0,171,238731,1,0,1:0:0:0:
165,264,238874,1,10,0:3:0:0:
254,113,239017,1,2,0:0:0:0:
469,272,239160,37,2,1:2:0:0:
313,185,239303,1,2,1:2:0:0:
476,81,239446,1,10,0:3:0:0:
396,209,239588,2,0,P|392:141|402:52,1,148.50000453186,6|0,1:2|0:0,0:0:0:0:
371,40,239874,2,0,P|377:62|379:89,1,49.5000015106202,2|0,1:2|0:0,0:0:0:0:
505,197,240017,69,8,0:3:0:0:
310,245,240160,2,0,B|205:229|234:198|118:188,1,198.000006042481,2|10,0:2|1:2,0:0:0:0:
34,219,240588,1,8,1:3:0:0:
281,272,240731,38,0,P|357:262|396:202,1,148.50000453186,2|0,1:2|0:0,0:0:0:0:
395,206,241017,1,0,1:0:0:0:
171,216,241160,2,0,P|124:219|60:234,1,99.0000030212403,10|0,0:3|0:0,0:0:0:0:
0,374,241446,1,2,1:2:0:0:
141,357,241588,69,2,1:2:0:0:
0,374,241731,1,10,0:3:0:0:
93,199,241874,2,0,P|102:97|86:1,1,198.000006042481,2|0,1:2|1:0,0:0:0:0:
5,227,242303,38,0,P|-9:293|4:387,1,148.50000453186,8|0,0:3|0:0,0:0:0:0:
48,384,242588,1,2,1:2:0:0:
66,160,242731,1,2,1:2:0:0:
188,268,242874,1,10,0:3:0:0:
318,234,243017,70,0,P|410:206|522:198,1,198.000006042481,2|2,1:2|1:2,0:0:0:0:
511,197,243374,1,0,0:0:0:0:
511,197,243446,2,0,B|464:210|464:210|425:178,1,99.0000030212403,10|0,0:3|0:0,0:0:0:0:
319,56,243731,1,2,1:2:0:0:
489,108,243874,1,0,1:0:0:0:
227,192,244017,37,10,0:3:0:0:
196,217,244088,1,8,1:0:0:0:
155,234,244160,1,8,1:0:0:0:
108,239,244231,1,8,1:0:0:0:
64,235,244303,2,0,P|12:269|-28:356,1,148.50000453186,6|0,1:2|0:0,0:0:0:0:
7,364,244588,70,0,L|-1:307,1,49.5000015106202,8|0,0:3|0:0,0:0:0:0:
98,148,244731,2,0,P|89:100|56:64,1,99.0000030212403,2|0,0:2|1:0,0:0:0:0:
40,230,245017,1,10,1:2:0:0:
29,273,245088,1,8,0:2:0:0:
58,305,245160,1,8,0:3:0:0:
313,269,245303,38,0,P|399:275|508:319,1,198.000006042481,2|2,1:2|1:2,0:0:0:0:
502,315,245731,2,0,P|493:264|453:231,1,99.0000030212403,10|2,0:3|0:2,0:0:0:0:
335,189,246017,69,2,1:2:0:0:
311,83,246160,1,2,1:2:0:0:
401,13,246303,1,10,0:3:0:0:
405,139,246446,37,2,0:2:0:0:
195,206,246588,2,0,B|123:215|147:247|50:260,1,148.50000453186,2|0,1:2|0:0,0:0:0:0:
48,287,246874,102,0,P|21:285|0:279,1,49.5000015106202,10|0,0:3|0:0,0:0:0:0:
272,317,247017,2,0,B|311:303|334:281|334:281|351:310|385:338,1,148.50000453186,2|0,1:2|0:0,0:0:0:0:
360,364,247303,1,2,1:2:0:0:
511,337,247446,1,10,0:3:0:0:
320,246,247588,6,0,P|252:231|179:187,1,148.50000453186,2|0,1:2|0:0,0:0:0:0:
187,144,247874,2,0,P|197:170|213:187,1,49.5000015106202,0|0,1:0|0:0,0:0:0:0:
20,101,248017,2,0,P|37:52|82:30,1,99.0000030212403,10|0,0:3|0:0,0:0:0:0:
322,103,248303,102,0,P|297:124|267:133,1,49.5000015106202,2|0,1:2|0:0,0:0:0:0:
195,120,248446,1,2,1:2:0:0:
41,18,248588,5,8,0:3:0:0:
41,18,248660,1,8,1:2:0:0:
41,18,248731,2,0,B|162:29|107:61|229:84,1,198.000006042481,6|2,1:2|1:2,0:0:0:0:
92,168,249160,2,0,P|53:185|-4:203,1,99.0000030212403,10|0,0:3|0:0,0:0:0:0:
122,192,249446,1,2,1:2:0:0:
177,278,249588,1,10,1:2:0:0:
18,152,249731,101,10,0:3:0:0:
260,264,249874,2,0,P|349:300|449:317,1,198.000006042481,2|0,1:2|1:0,0:0:0:0:
209,200,250303,2,0,P|202:141|191:101,1,99.0000030212403,8|2,0:3|0:2,0:0:0:0:
44,333,250588,1,2,1:2:0:0:
111,375,250731,1,2,1:2:0:0:
65,268,250874,1,10,0:3:0:0:
0,202,251017,6,0,P|26:125|37:40,1,148.50000453186,2|0,1:2|0:0,0:0:0:0:
3,39,251303,2,0,P|20:75|26:99,1,49.5000015106202,0|0,1:0|0:0,0:0:0:0:
187,128,251446,2,0,P|236:119|281:98,1,99.0000030212403,10|0,0:3|0:0,0:0:0:0:
146,224,251731,2,0,P|113:186|73:157,1,99.0000030212403,2|2,1:2|1:2,0:0:0:0:
73,157,252017,1,10,0:3:0:0:
297,202,252160,102,0,P|271:274|264:351,1,148.50000453186,2|0,1:2|0:0,0:0:0:0:
310,370,252446,1,0,1:0:0:0:
380,109,252588,2,0,P|375:60|314:36,1,99.0000030212403,10|10,0:2|1:2,0:0:0:0:
300,50,252803,5,8,1:2:0:0:
300,50,252874,1,10,1:2:0:0:
336,208,253017,1,10,1:2:0:0:
504,164,253160,1,10,0:2:0:0:
241,313,253303,69,10,1:2:0:0:
161,278,253446,2,0,P|109:223|35:182,1,148.50000453186,4|0,1:1|0:0,0:0:0:0:
23,211,253731,6,0,P|106:196|136:137,1,148.50000453186,8|0,0:3|0:0,0:0:0:0:
98,114,254017,1,0,1:0:0:0:
253,10,254160,2,0,P|231:57|222:113,1,99.0000030212403,0|8,1:0|0:3,0:0:0:0:
466,219,254446,102,0,P|443:145|397:69,1,148.50000453186,0|0,1:0|0:0,0:0:0:0:
358,100,254731,1,0,1:0:0:0:
359,282,254874,2,0,P|414:335|493:333,1,148.50000453186,8|0,0:3|0:0,0:0:0:0:
493,302,255160,1,0,1:0:0:0:
323,247,255303,5,0,1:0:0:0:
257,297,255446,1,8,0:3:0:0:
163,280,255588,1,0,0:0:0:0:
350,321,255731,102,0,P|284:332|185:354,1,148.50000453186,0|0,1:0|0:0,0:0:0:0:
166,370,256017,2,0,P|197:373|236:379,1,49.5000015106202,8|0,0:3|0:0,0:0:0:0:
20,201,256160,2,0,B|54:179|54:179|88:190|88:190|122:269|193:253,1,198.000006042481,0|0,0:0|1:0,0:0:0:0:
0,282,256588,5,8,0:3:0:0:
230,179,256731,2,0,P|210:110|193:33,1,148.50000453186,0|0,1:0|0:0,0:0:0:0:
216,17,257017,2,0,L|211:73,1,49.5000015106202,0|0,1:0|0:0,0:0:0:0:
163,281,257160,2,0,L|272:256,1,99.0000030212403,8|0,0:3|0:0,0:0:0:0:
509,360,257446,101,0,1:0:0:0:
374,304,257588,1,0,1:0:0:0:
334,223,257731,1,8,0:3:0:0:
254,216,257874,2,0,P|165:196|66:144,1,198.000006042481,4|0,1:2|1:0,0:0:0:0:
100,9,258303,2,0,P|129:50|157:109,1,99.0000030212403,8|0,0:3|0:0,0:0:0:0:
150,93,258588,6,0,P|170:56|151:0,1,99.0000030212403,0|0,1:0|1:0,0:0:0:0:
70,119,258874,1,8,0:3:0:0:
0,225,259017,2,0,P|4:311|87:386,1,198.000006042481,0|0,1:0|1:0,0:0:0:0:
82,228,259446,102,0,P|95:162|104:119,1,99.0000030212403,8|0,0:3|0:0,0:0:0:0:
66,26,259731,1,0,1:0:0:0:
283,115,259874,2,0,P|336:106|399:89,1,99.0000030212403,0|8,1:0|0:3,0:0:0:0:
477,93,260160,6,0,P|400:102|350:212,1,198.000006042481,0|0,1:0|1:0,0:0:0:0:
512,149,260588,2,0,P|505:108|469:62,1,99.0000030212403,8|0,0:3|0:0,0:0:0:0:
466,222,260874,1,0,1:0:0:0:
466,222,261017,1,0,1:0:0:0:
500,285,261160,1,8,0:3:0:0:
459,370,261303,1,0,0:0:0:0:
278,315,261446,102,0,B|214:269|128:262|128:262|103:287,1,188.999994232178,4|0,1:2|0:0,0:0:0:0:
111,312,261732,22,0,P|135:300|148:278,1,49.5000015106202,8|0,0:3|0:0,0:0:0:0:
58,43,261874,6,0,P|161:58|205:152,1,215.999993408203,4|0,1:0|1:0,0:0:0:0:
8,264,262303,85,8,0:3:0:0:
27,217,262374,1,8,1:0:0:0:
68,181,262446,1,8,1:0:0:0:
122,168,262517,1,8,1:0:0:0:
176,174,262589,2,0,P|282:151|332:124,1,148.50000453186,4|0,1:2|0:0,0:0:0:0:
342,124,262874,2,0,L|294:116,1,49.5000015106202,8|0,0:3|0:0,0:0:0:0:
512,310,263017,6,0,L|428:324,1,62.9999980773926,4|0,1:0|0:0,0:0:0:0:
366,147,263303,6,0,L|298:159,1,62.9999980773926,4|0,1:0|0:0,0:0:0:0:
91,351,263589,70,0,B|158:290|135:213|135:213|155:279|222:286,1,270.000010299683,4|0,1:0|1:0,0:0:0:0:
102,216,264017,1,8,0:3:0:0:
198,101,264160,2,0,P|183:51|164:-10,1,99.0000030212403,0|0,0:0|1:0,0:0:0:0:
78,8,264446,21,0,1:0:0:0:
273,67,264588,1,8,0:3:0:0:
492,183,264731,102,0,P|428:144|357:125,1,148.50000453186,4|0,1:0|0:0,0:0:0:0:
371,109,265017,2,0,L|317:125,1,49.5000015106202,0|0,1:0|0:0,0:0:0:0:
175,283,265160,1,8,0:3:0:0:
268,313,265303,2,0,P|316:297|339:245,1,99.0000030212403,0|0,1:0|0:0,0:0:0:0:
338,256,265517,1,0,0:0:0:0:
338,256,265588,1,0,1:0:0:0:
93,357,265731,101,8,0:3:0:0:
102,183,265874,2,0,P|50:87|22:-2,1,198.000006042481,0|0,1:0|1:0,0:0:0:0:
76,58,266303,2,0,P|59:116|50:177,1,99.0000030212403,8|0,0:3|0:0,0:0:0:0:
192,214,266588,5,0,1:0:0:0:
135,278,266731,1,0,1:0:0:0:
10,170,266874,101,8,0:3:0:0:
170,109,267017,2,0,B|281:110|238:145|369:154,1,198.000006042481,0|0,1:0|1:0,0:0:0:0:
361,153,267446,6,0,P|426:167|462:196,1,99.0000030212403,8|0,0:3|0:0,0:0:0:0:
511,341,267731,1,0,1:0:0:0:
430,375,267874,1,0,1:0:0:0:
358,318,268017,1,8,0:3:0:0:
264,164,268160,102,0,P|251:94|274:7,1,148.50000453186,0|0,1:0|0:0,0:0:0:0:
282,2,268446,2,0,L|305:59,1,49.5000015106202,0|0,1:0|0:0,0:0:0:0:
277,253,268588,2,0,P|224:242|171:232,1,99.0000030212403,8|0,0:3|0:0,0:0:0:0:
4,335,268874,1,0,1:0:0:0:
80,371,269017,5,0,1:0:0:0:
200,264,269160,1,8,0:3:0:0:
45,120,269303,2,0,P|87:176|125:305,1,198.000006042481,0|0,1:0|1:0,0:0:0:0:
135,87,269731,2,0,P|139:32|167:1,1,99.0000030212403,8|0,0:3|0:0,0:0:0:0:
167,0,269946,101,0,0:0:0:0:
167,0,270017,1,0,1:0:0:0:
71,219,270160,1,8,1:0:0:0:
238,71,270303,1,8,0:3:0:0:
0,59,270446,6,0,B|97:70|185:140|185:140|196:187,1,251.999992309571,0|0,1:0|1:0,0:0:0:0:
457,360,270874,2,0,P|471:312|491:267,1,99.0000030212403,8|0,0:3|1:0,0:0:0:0:
477,157,271160,5,8,1:0:0:0:
443,127,271231,1,8,1:0:0:0:
394,129,271303,1,8,1:0:0:0:
358,168,271374,1,8,1:0:0:0:
330,219,271446,1,8,0:3:0:0:
275,239,271517,1,8,1:0:0:0:
225,210,271588,1,8,1:0:0:0:
216,170,271660,1,8,1:0:0:0:
233,140,271731,86,0,P|253:200|266:290,1,148.50000453186,4|0,1:0|0:0,0:0:0:0:
244,306,272017,2,0,L|301:315,1,49.5000015106202,8|0,0:3|0:0,0:0:0:0:
305,102,272160,22,0,L|313:40,1,62.9999980773926,4|0,1:0|0:0,0:0:0:0:
205,384,272446,6,0,L|193:314,1,62.9999980773926,4|0,1:0|0:0,0:0:0:0:
0,141,272732,86,0,P|88:120|120:23,1,198.000006042481,4|0,1:0|1:0,0:0:0:0:
19,9,273160,2,0,P|32:59|45:118,1,99.0000030212403,8|0,0:3|0:0,0:0:0:0:
289,191,273446,6,0,P|325:199|353:216,1,62.9999980773926,0|0,1:0|0:0,0:0:0:0:
212,143,273588,2,0,P|206:112|210:80,1,62.9999980773926,8|0,1:0|0:0,0:0:0:0:
210,234,273731,2,0,P|185:254|157:266,1,62.9999980773926,8|0,0:3|0:0,0:0:0:0:
369,190,273874,86,0,P|398:228|404:334,1,148.50000453186,4|0,1:0|0:0,0:0:0:0:
382,348,274160,2,0,L|438:359,1,49.5000015106202,0|0,1:0|0:0,0:0:0:0:
506,333,274303,1,8,0:3:0:0:
330,161,274446,6,0,P|332:86|379:14,1,148.50000453186,4|0,1:0|0:0,0:0:0:0:
396,0,274732,6,0,P|414:69|406:114,1,114.750002188683,4|0,1:0|0:0,0:0:0:0:
419,191,275017,6,0,P|343:249|190:254,1,251.999992309571,4|0,1:0|1:0,0:0:0:0:
191,254,275374,1,0,0:0:0:0:
191,254,275446,1,8,0:3:0:0:
106,141,275588,1,0,1:0:0:0:
4,301,275731,101,8,1:0:0:0:
58,284,275803,1,8,1:0:0:0:
109,299,275874,1,8,1:0:0:0:
153,329,275946,1,8,1:0:0:0:
192,354,276017,1,8,0:3:0:0:
229,360,276088,1,8,1:0:0:0:
264,354,276160,1,8,1:0:0:0:
284,343,276231,1,8,1:0:0:0:
301,320,276303,86,0,P|308:199|280:115,1,198.000006042481,4|8,1:0|0:3,0:0:0:0:
233,0,276731,2,0,P|209:46|202:109,1,99.0000030212403,0|0,0:0|1:0,0:0:0:0:
249,163,277017,1,0,1:0:0:0:
420,121,277160,1,8,0:3:0:0:
186,71,277303,6,0,B|82:76|121:118|-7:128,1,198.000006042481,0|0,1:0|1:0,0:0:0:0:
274,120,277731,2,0,P|326:131|373:150,1,99.0000030212403,8|0,0:3|0:0,0:0:0:0:
451,203,278017,1,0,1:0:0:0:
451,203,278160,1,0,1:0:0:0:
508,100,278303,102,0,P|477:108|447:127,1,49.5000015106202,8|0,0:3|0:0,0:0:0:0:
257,204,278446,2,0,B|284:271|297:345|297:345|349:319|418:311,1,251.999992309571,4|0,1:2|1:0,0:0:0:0:
191,257,278874,2,0,B|151:268|151:268|132:300|82:308,1,99.0000030212403,8|0,0:3|0:0,0:0:0:0:
82,281,279160,5,0,1:0:0:0:
239,334,279303,1,0,1:0:0:0:
365,233,279446,1,8,0:3:0:0:
260,114,279588,102,0,B|247:57|222:88|208:17,1,99.0000030212403
331,1,279874,5,8,0:3:0:0:
340,10,279946,1,8,0:3:0:0:
340,27,280017,1,8,0:3:0:0:
157,111,280160,1,8,0:3:0:0:
50,16,280303,21,4,0:3:0:0:
211,44,280446,1,4,0:3:0:0:
321,190,280588,69,8,0:3:0:0:
205,222,280731,1,0,1:0:0:0:
258,361,280874,53,0,0:0:0:0:
132,301,281588,5,0,0:0:0:0:
22,254,282231,101,0,0:0:0:0:
267,202,283088,5,0,0:0:0:0:
474,99,284303,101,0,0:0:0:0:
474,99,284374,1,0,0:0:0:0:
