osu file format v14

[General]
AudioFilename: audio.ogg
AudioLeadIn: 0
PreviewTime: 125589
Countdown: 0
SampleSet: Soft
StackLeniency: 0.7
Mode: 0
LetterboxInBreaks: 0
WidescreenStoryboard: 0

[Editor]
Bookmarks: 90017,154017,190589,235160
DistanceSpacing: 1.3
BeatDivisor: 3
GridSize: 32
TimelineZoom: 4.699998

[Metadata]
Title:Shizuku
TitleUnicode:雫
Artist:Asaki
ArtistUnicode:あさき
Creator:seros
Version:KALIBEROS' LAMENTO
Source:ポップンミュージック 12 いろは
Tags:kalibe yukic bongo yuuki_noa snowy_wind yuuki noa snowy wind ttmnzk tt mouse drop 神曲 shinkyoku おんなのこ Onnanoko ロングバージョン Teardrops Long Version orie Pop'n Music 12 Iroha Kaimei Riddles Lively beatmania IIDX INFINITAS (2020) DDR DanceDanceRevolution X3 VS 2ndMIX REFLEC BEAT limelight plus ノスタルジア FORTE nostalgia ポップンリズミン pop'n rhythm ダンキラ!!! DANKIRA!!! Boys, be DANCING! hd bemani konami japanese rock j-rock jrock pop j-pop jpop poetic rhythm game
BeatmapID:4101131
BeatmapSetID:1975936

[Difficulty]
HPDrainRate:5
CircleSize:4
OverallDifficulty:8.5
ApproachRate:9.5
SliderMultiplier:2.1
SliderTickRate:1

[Events]
//Background and Video events
0,0,"84919303_p0.jpg",0,0
//Break Periods
//Storyboard Layer 0 (Background)
//Storyboard Layer 1 (Fail)
//Storyboard Layer 2 (Pass)
//Storyboard Layer 3 (Foreground)
//Storyboard Layer 4 (Overlay)
//Storyboard Sound Samples

[TimingPoints]
15732,285.714285714286,4,2,1,60,1,0
16303,-100,4,2,1,25,0,0
16874,-100,4,2,30,70,0,0
17874,-100,4,2,31,70,0,0
18160,-100,4,2,32,70,0,0
18589,-200,4,2,33,70,0,0
18874,-100,4,2,34,70,0,0
19160,-100,4,2,35,70,0,0
19303,-100,4,2,33,70,0,0
19446,-100,4,2,36,70,0,0
19589,-100,4,2,37,70,0,0
19731,-100,4,2,33,70,0,0
19874,-100,4,2,36,70,0,0
20017,-100,4,2,35,70,0,0
20160,-100,4,2,38,70,0,0
20446,-100,4,2,39,70,0,0
20874,-100,4,2,40,70,0,0
21160,-100,4,2,36,70,0,0
21303,-100,4,2,39,70,0,0
21588,-100,4,2,36,70,0,0
21731,-200,4,2,38,70,0,0
22017,-200,4,2,35,70,0,0
22160,-200,4,2,41,70,0,0
22303,-200,4,2,38,70,0,0
22446,-100,4,2,42,70,0,0
22874,-100,4,2,43,70,0,0
23160,-100,4,2,35,70,0,0
23303,-100,4,2,36,70,0,0
23589,-100,4,2,40,70,0,0
24017,-133.333333333333,4,2,1,70,0,0
24303,-200,4,2,33,70,0,0
24446,-200,4,2,36,70,0,0
24589,-200,4,2,35,70,0,0
24732,-100,4,2,43,70,0,0
25732,-83.3333333333333,4,2,1,70,0,0
26017,-100,4,2,30,70,0,0
26446,-100,4,2,45,70,0,0
26732,-100,4,2,30,70,0,0
27017,-100,4,2,46,70,0,0
27303,-100,4,2,32,70,0,0
28017,-100,4,2,34,70,0,0
28303,-100,4,2,35,70,0,0
28446,-100,4,2,32,70,0,0
28589,-100,4,2,36,70,0,0
28732,-100,4,2,37,70,0,0
28875,-100,4,2,32,70,0,0
29018,-100,4,2,36,70,0,0
29160,-100,4,2,35,70,0,0
29303,-100,4,2,38,70,0,0
29732,-100,4,2,39,70,0,0
30017,-100,4,2,34,70,0,0
30160,-100,4,2,36,70,0,0
30446,-100,4,2,39,70,0,0
30732,-100,4,2,36,70,0,0
30874,-100,4,2,38,70,0,0
31303,-100,4,2,41,70,0,0
31589,-117.647058823529,4,2,47,85,0,0
32017,-117.647058823529,4,2,43,85,0,0
32303,-117.647058823529,4,2,35,85,0,0
32446,-117.647058823529,4,2,32,85,0,0
32589,-117.647058823529,4,2,37,85,0,0
32732,-100,4,2,40,85,0,0
33446,-100,4,2,32,85,0,0
33589,-100,4,2,36,85,0,0
33732,-100,4,2,35,85,0,0
33874,-83.3333333333333,4,2,43,85,0,0
34303,-100,4,2,1,85,0,0
35160,-111.111111111111,4,2,1,60,0,0
36017,-111.111111111111,4,2,1,50,0,0
37160,-142.857142857143,4,2,1,50,0,0
37446,-111.111111111111,4,2,1,50,0,0
38589,-142.857142857143,4,2,1,50,0,0
39017,-111.111111111111,4,2,1,50,0,0
39446,-100,4,2,1,50,0,0
39732,-111.111111111111,4,2,1,50,0,0
40589,-142.857142857143,4,2,1,50,0,0
40874,-111.111111111111,4,2,1,50,0,0
42017,-100,4,2,1,50,0,0
43160,-111.111111111111,4,2,1,50,0,0
44017,-100,4,2,1,50,0,0
44303,-100,4,2,1,50,0,0
46303,-111.111111111111,4,2,1,50,0,0
48589,-142.857142857143,4,2,1,50,0,0
48874,-100,4,2,1,50,0,0
49732,-125,4,2,1,50,0,0
50017,-111.111111111111,4,2,1,50,0,0
51160,-100,4,2,1,50,0,0
51589,-111.111111111111,4,2,1,50,0,0
53446,-100,4,2,1,50,0,0
60303,-111.111111111111,4,2,1,50,0,0
60732,-100,4,2,1,50,0,0
61874,-100,4,2,24,60,0,0
61945,-100,4,2,20,60,0,0
62016,-100,4,2,21,60,0,0
62160,-100,4,2,22,60,0,0
62303,-100,4,2,24,60,0,0
62446,-100,4,2,21,60,0,0
62589,-100,4,2,23,60,0,0
62874,-100,4,2,1,60,0,0
65303,-83.3333333333333,4,2,1,60,0,0
65732,-111.111111111111,4,2,1,60,0,0
66732,-100,4,2,1,60,0,0
66874,-83.3333333333333,4,2,1,60,0,0
67589,-100,4,2,1,60,0,0
71160,-100,4,2,1,40,0,0
71732,-76.9230769230769,4,2,30,75,0,0
72446,-100,4,2,30,70,0,0
72732,-76.9230769230769,4,2,31,70,0,0
73446,-100,4,2,1,70,0,0
73732,-100,4,2,35,60,0,0
74160,-100,4,2,33,60,0,0
74303,-100,4,2,36,60,0,0
74446,-100,4,2,37,60,0,0
74589,-100,4,2,33,60,0,0
74732,-100,4,2,36,60,0,0
74874,-100,4,2,35,60,0,0
75017,-83.3333333333333,4,2,38,60,0,0
75303,-100,4,2,1,70,0,0
75446,-83.3333333333333,4,2,37,70,0,0
75732,-100,4,2,35,70,0,0
76017,-100,4,2,36,70,0,0
76160,-83.3333333333333,4,2,37,70,0,0
76446,-83.3333333333333,4,2,36,70,0,0
76588,-83.3333333333333,4,2,38,60,0,0
76732,-83.3333333333333,4,2,41,70,0,0
76874,-100,4,2,34,70,0,0
77303,-83.3333333333333,4,2,42,70,0,0
77732,-76.9230769230769,4,2,43,70,0,0
78017,-76.9230769230769,4,2,35,70,0,0
78160,-76.9230769230769,4,2,36,70,0,0
78446,-90.9090909090909,4,2,40,70,0,0
78732,-100,4,2,1,70,0,0
78874,-76.9230769230769,4,2,1,70,0,0
79160,-100,4,2,32,70,0,0
79303,-100,4,2,36,70,0,0
79446,-76.9230769230769,4,2,35,70,0,0
79589,-76.9230769230769,4,2,38,70,0,0
79874,-76.9230769230769,4,2,43,70,0,0
80589,-100,4,2,48,80,0,0
80874,-76.9230769230769,4,2,38,70,0,0
81303,-76.9230769230769,4,2,35,70,0,0
82160,-76.9230769230769,4,2,36,70,0,0
82303,-76.9230769230769,4,2,32,70,0,0
82589,-76.9230769230769,4,2,37,70,0,0
82732,-76.9230769230769,4,2,49,70,0,0
82874,-83.3333333333333,4,2,37,70,0,0
83160,-76.9230769230769,4,2,34,70,0,0
83446,-100,4,2,37,70,0,0
83589,-100,4,2,36,70,0,0
83732,-100,4,2,35,70,0,0
83874,-100,4,2,36,70,0,0
84017,-100,4,2,35,70,0,0
84160,-166.666666666667,4,2,38,70,0,0
84446,-100,4,2,38,70,0,0
84589,-76.9230769230769,4,2,39,70,0,0
84874,-76.9230769230769,4,2,35,70,0,0
85017,-100,4,2,36,70,0,0
85303,-76.9230769230769,4,2,39,70,0,0
85589,-100,4,2,35,70,0,0
85874,-100,4,2,38,70,0,0
86017,-100,4,2,35,70,0,0
86160,-100,4,2,41,70,0,0
86446,-83.3333333333333,4,2,47,70,0,0
86874,-83.3333333333333,4,2,43,70,0,0
87160,-83.3333333333333,4,2,35,70,0,0
87303,-83.3333333333333,4,2,36,70,0,0
87446,-83.3333333333333,4,2,37,70,0,0
87589,-83.3333333333333,4,2,34,70,0,0
88303,-83.3333333333333,4,2,32,70,0,0
88446,-83.3333333333333,4,2,36,70,0,0
88589,-83.3333333333333,4,2,35,70,0,0
88732,-83.3333333333333,4,2,43,70,0,0
89017,-100,4,2,1,70,0,0
90017,-100,4,2,1,80,0,0
94017,-133.333333333333,4,2,1,60,0,0
94589,-111.111111111111,4,2,1,60,0,0
97303,-111.111111111111,4,2,1,85,0,0
97446,-111.111111111111,4,2,1,75,0,0
99160,-100,4,2,1,60,0,0
102589,-111.111111111111,4,2,1,60,0,0
103732,-125,4,2,1,60,0,0
116303,-100,4,2,1,60,0,0
116874,-125,4,2,1,60,0,0
117446,-111.111111111111,4,2,1,60,0,0
125874,-200,4,2,23,60,0,0
126088,-200,4,2,21,60,0,0
126160,-200,4,2,22,60,0,0
126303,-200,4,2,24,60,0,0
126374,-200,4,2,22,60,0,0
126446,-200,4,2,21,60,0,0
126517,-200,4,2,23,60,0,0
126589,-100,4,2,23,60,0,0
126874,-100,4,2,1,60,0,0
130874,-66.6666666666667,4,2,1,60,0,0
131160,-90.9090909090909,4,2,1,60,0,0
134303,-181.818181818181,4,2,1,60,0,0
134589,-133.333333333333,4,2,1,60,0,0
134874,-66.6666666666667,4,2,1,60,0,0
135160,-100,4,2,1,40,0,0
135732,-100,4,2,30,75,0,0
136017,-66.6666666666667,4,2,1,60,0,0
136160,-100,4,2,30,75,0,0
136446,-133.333333333333,4,2,30,70,0,0
136732,-111.111111111111,4,2,31,70,0,0
137446,-111.111111111111,4,2,1,70,0,0
137732,-111.111111111111,4,2,35,60,0,0
138017,-99.9999999999999,4,2,35,60,0,0
138159,-99.9999999999999,4,2,33,60,0,0
138303,-99.9999999999999,4,2,36,60,0,0
138446,-99.9999999999999,4,2,37,60,0,0
138588,-99.9999999999999,4,2,33,60,0,0
138732,-99.9999999999999,4,2,36,60,0,0
138874,-99.9999999999999,4,2,35,60,0,0
139017,-99.9999999999999,4,2,38,60,0,0
139303,-99.9999999999999,4,2,1,70,0,0
139446,-99.9999999999999,4,2,37,70,0,0
139732,-99.9999999999999,4,2,35,70,0,0
140017,-99.9999999999999,4,2,36,70,0,0
140160,-99.9999999999999,4,2,37,70,0,0
140445,-99.9999999999999,4,2,36,70,0,0
140589,-99.9999999999999,4,2,38,60,0,0
140732,-99.9999999999999,4,2,41,70,0,0
140874,-99.9999999999999,4,2,34,70,0,0
141303,-99.9999999999999,4,2,42,70,0,0
141732,-99.9999999999999,4,2,43,70,0,0
142017,-99.9999999999999,4,2,35,70,0,0
142160,-99.9999999999999,4,2,36,70,0,0
142446,-99.9999999999999,4,2,40,70,0,0
142731,-99.9999999999999,4,2,1,70,0,0
143160,-99.9999999999999,4,2,32,70,0,0
143303,-99.9999999999999,4,2,36,70,0,0
143446,-99.9999999999999,4,2,35,70,0,0
143589,-99.9999999999999,4,2,38,70,0,0
143874,-99.9999999999999,4,2,43,70,0,0
144303,-99.9999999999999,4,2,52,70,0,0
144589,-99.9999999999999,4,2,48,80,0,0
144874,-90.9090909090909,4,2,38,70,0,0
145303,-90.9090909090909,4,2,35,70,0,0
146160,-90.9090909090909,4,2,36,70,0,0
146303,-90.9090909090909,4,2,32,70,0,0
146589,-90.9090909090909,4,2,37,70,0,0
146732,-90.9090909090909,4,2,49,70,0,0
146874,-90.9090909090909,4,2,37,70,0,0
147160,-90.9090909090909,4,2,34,70,0,0
147446,-90.9090909090909,4,2,37,70,0,0
147589,-90.9090909090909,4,2,36,70,0,0
147731,-90.9090909090909,4,2,35,70,0,0
147874,-90.9090909090909,4,2,36,70,0,0
148016,-90.9090909090909,4,2,35,70,0,0
148160,-90.9090909090909,4,2,38,70,0,0
148589,-90.9090909090909,4,2,39,70,0,0
148874,-133.333333333333,4,2,35,70,0,0
149017,-133.333333333333,4,2,36,70,0,0
149088,-133.333333333333,4,2,36,60,0,0
149160,-76.9230769230769,4,2,1,60,0,0
149303,-76.9230769230769,4,2,39,70,0,0
149589,-90.9090909090909,4,2,35,70,0,0
149874,-90.9090909090909,4,2,38,70,0,0
150017,-90.9090909090909,4,2,35,70,0,0
150160,-90.9090909090909,4,2,41,70,0,0
150446,-76.9230769230769,4,2,47,70,0,0
150732,-90.9090909090909,4,2,1,60,0,0
150874,-90.9090909090909,4,2,43,70,0,0
151160,-133.333333333333,4,2,35,70,0,0
151303,-133.333333333333,4,2,36,70,0,0
151446,-133.333333333333,4,2,37,70,0,0
151589,-83.3333333333333,4,2,34,70,0,0
152017,-100,4,2,1,60,0,0
152303,-100,4,2,32,70,0,0
152446,-100,4,2,36,70,0,0
152589,-100,4,2,35,70,0,0
152732,-76.9230769230769,4,2,43,70,0,0
153017,-76.9230769230769,4,2,1,70,0,0
154017,-117.647058823529,4,2,1,80,0,0
155446,-117.647058823529,4,2,1,60,0,0
156303,-133.333333333333,4,2,1,60,0,0
156589,-100,4,2,1,60,0,0
156732,-90.9090909090909,4,2,1,60,0,0
158589,-100,4,2,1,60,0,0
162017,-83.3333333333333,4,2,1,60,0,0
162303,-133.333333333333,4,2,1,60,0,0
163160,-76.9230769230769,4,2,1,60,0,0
163589,-100,4,2,1,60,0,0
165446,-133.333333333333,4,2,1,60,0,0
165732,-83.3333333333333,4,2,1,60,0,0
167732,-76.9230769230769,4,2,1,60,0,0
169160,-100,4,2,1,60,0,0
169732,-76.9230769230769,4,2,1,60,0,0
172303,-83.3333333333333,4,2,3,60,0,0
172732,-100,4,2,3,60,0,0
173017,-83.3333333333333,4,2,3,60,0,0
179160,-100,4,2,3,60,0,0
180589,-83.3333333333333,4,2,3,60,0,0
182303,-133.333333333333,4,2,3,60,0,0
182732,-83.3333333333333,4,2,3,60,0,0
183446,-100,4,2,3,60,0,0
187446,-133.333333333333,4,2,3,60,0,0
188303,-100,4,2,3,60,0,0
189303,-133.333333333333,4,2,3,60,0,0
191732,-250,4,2,1,60,0,0
195160,-133.333333333333,4,2,1,60,0,0
195589,-250,4,2,1,60,0,0
199732,-166.666666666667,4,2,1,60,0,0
204303,-125,4,2,1,60,0,0
206589,-111.111111111111,4,2,1,60,0,0
210732,-66.6666666666667,4,2,1,60,0,0
211017,-100,4,2,1,60,0,0
214589,-250,4,2,1,60,0,0
216303,-105.263157894737,4,2,1,60,0,0
216874,-125,4,2,1,60,0,0
220445,-125,4,2,1,70,0,0
220589,-125,4,2,37,70,0,0
220874,-125,4,2,35,70,0,0
221160,-125,4,2,36,70,0,0
221303,-125,4,2,37,70,0,0
221588,-125,4,2,36,70,0,0
221732,-125,4,2,38,60,0,0
221874,-125,4,2,41,70,0,0
222017,-125,4,2,34,70,0,0
222446,-125,4,2,42,70,0,0
222874,-125,4,2,43,70,0,0
223160,-125,4,2,35,70,0,0
223303,-125,4,2,36,70,0,0
223589,-117.647058823529,4,2,40,70,0,0
223874,-117.647058823529,4,2,1,70,0,0
224303,-117.647058823529,4,2,32,70,0,0
224445,-117.647058823529,4,2,36,70,0,0
224589,-117.647058823529,4,2,35,70,0,0
224732,-111.111111111111,4,2,38,70,0,0
225017,-111.111111111111,4,2,43,70,0,0
225446,-111.111111111111,4,2,50,70,0,0
225732,-111.111111111111,4,2,48,80,0,0
226017,-100,4,2,38,70,0,0
226446,-100,4,2,35,70,0,0
227303,-100,4,2,36,70,0,0
227446,-100,4,2,32,70,0,0
227732,-100,4,2,37,70,0,0
227874,-100,4,2,49,70,0,0
228017,-100,4,2,37,70,0,0
228303,-100,4,2,34,70,0,0
228589,-100,4,2,37,70,0,0
228732,-100,4,2,36,70,0,0
228946,-100,4,2,35,70,0,0
229017,-100,4,2,36,70,0,0
229160,-100,4,2,35,70,0,0
229303,-100,4,2,38,70,0,0
229732,-100,4,2,39,70,0,0
230017,-133.333333333333,4,2,35,70,0,0
230160,-90.9090909090909,4,2,36,70,0,0
230303,-100,4,2,1,60,0,0
230446,-100,4,2,39,70,0,0
230732,-100,4,2,35,70,0,0
231017,-100,4,2,38,70,0,0
231159,-100,4,2,35,70,0,0
231303,-100,4,2,41,70,0,0
231589,-100,4,2,47,70,0,0
231874,-100,4,2,1,60,0,0
232017,-100,4,2,43,70,0,0
232303,-100,4,2,35,70,0,0
232446,-100,4,2,36,70,0,0
232589,-100,4,2,37,70,0,0
232732,-100,4,2,34,70,0,0
233160,-100,4,2,1,60,0,0
233446,-100,4,2,32,70,0,0
233588,-100,4,2,36,70,0,0
233732,-100,4,2,35,70,0,0
233874,-100,4,2,43,70,0,0
234160,-100,4,2,1,70,0,0
234874,-76.9230769230769,4,2,1,60,0,0
235160,-90.9090909090909,4,2,30,80,0,0
235589,-90.9090909090909,4,2,45,80,0,0
235874,-133.333333333333,4,2,30,80,0,0
236160,-83.3333333333333,4,2,46,80,0,0
236446,-83.3333333333333,4,2,36,80,0,0
236589,-83.3333333333333,4,2,32,80,0,0
236874,-83.3333333333333,4,2,51,80,0,0
237017,-83.3333333333333,4,2,37,80,0,0
237160,-100,4,2,35,80,0,0
237589,-100,4,2,33,80,0,0
237732,-100,4,2,36,80,0,0
237874,-100,4,2,37,80,0,0
238017,-100,4,2,33,80,0,0
238160,-100,4,2,36,80,0,0
238303,-100,4,2,35,80,0,0
238446,-76.9230769230769,4,2,38,80,0,0
238732,-100,4,2,1,80,0,0
238874,-100,4,2,37,80,0,0
239160,-100,4,2,35,80,0,0
239232,-100,4,2,35,60,0,0
239303,-100,4,2,36,80,0,0
239446,-76.9230769230769,4,2,37,70,0,0
239589,-76.9230769230769,4,2,39,80,0,0
239874,-76.9230769230769,4,2,36,80,0,0
240160,-76.9230769230769,4,2,38,80,0,0
240446,-76.9230769230769,4,2,41,80,0,0
240732,-76.9230769230769,4,2,47,80,0,0
241160,-76.9230769230769,4,2,43,80,0,0
241446,-76.9230769230769,4,2,35,80,0,0
241589,-76.9230769230769,4,2,36,80,0,0
241732,-76.9230769230769,4,2,37,80,0,0
241874,-76.9230769230769,4,2,40,80,0,0
242303,-166.666666666667,4,2,1,60,0,0
242589,-100,4,2,32,80,0,0
242732,-100,4,2,36,80,0,0
242874,-100,4,2,35,80,0,0
243017,-76.9230769230769,4,2,34,80,0,0
243231,-76.9230769230769,4,2,34,60,0,0
243303,-76.9230769230769,4,2,38,80,0,0
243446,-100,4,2,35,80,0,0
243732,-76.9230769230769,4,2,52,80,0,0
244017,-76.9230769230769,4,2,53,80,0,0
244088,-76.9230769230769,4,2,1,80,0,0
244303,-76.9230769230769,4,2,30,80,0,0
244732,-76.9230769230769,4,2,45,80,0,0
245017,-76.9230769230769,4,2,30,80,0,0
245303,-76.9230769230769,4,2,46,80,0,0
245589,-76.9230769230769,4,2,36,80,0,0
245732,-76.9230769230769,4,2,32,80,0,0
245874,-76.9230769230769,4,2,37,80,0,0
246017,-76.9230769230769,4,2,51,80,0,0
246160,-76.9230769230769,4,2,37,80,0,0
246303,-76.9230769230769,4,2,35,80,0,0
246446,-76.9230769230769,4,2,36,80,0,0
246589,-76.9230769230769,4,2,34,80,0,0
246874,-76.9230769230769,4,2,36,80,0,0
247017,-76.9230769230769,4,2,39,80,0,0
247303,-76.9230769230769,4,2,36,80,0,0
247446,-76.9230769230769,4,2,35,80,0,0
247589,-76.9230769230769,4,2,38,80,0,0
248017,-71.4285714285714,4,2,39,85,0,0
248303,-83.3333333333333,4,2,35,85,0,0
248446,-83.3333333333333,4,2,36,85,0,0
248732,-76.9230769230769,4,2,39,85,0,0
249017,-76.9230769230769,4,2,36,85,0,0
249089,-76.9230769230769,4,2,35,85,0,0
249160,-76.9230769230769,4,2,38,85,0,0
249589,-76.9230769230769,4,2,41,85,0,0
249660,-76.9230769230769,4,2,54,85,0,0
249732,-76.9230769230769,4,2,55,85,0,0
249874,-76.9230769230769,4,2,47,85,0,0
250303,-76.9230769230769,4,2,38,85,0,0
250374,-76.9230769230769,4,2,35,85,0,0
250446,-76.9230769230769,4,2,36,85,0,0
250589,-100,4,2,35,85,0,0
250731,-100,4,2,32,85,0,0
250874,-100,4,2,37,85,0,0
251017,-83.3333333333333,4,2,40,85,0,0
251446,-76.9230769230769,4,2,32,85,0,0
251874,-76.9230769230769,4,2,36,85,0,0
251946,-76.9230769230769,4,2,41,85,0,0
252017,-76.9230769230769,4,2,38,85,0,0
252160,-76.9230769230769,4,2,50,85,0,0
252446,-76.9230769230769,4,2,32,85,0,0
252589,-76.9230769230769,4,2,54,85,0,0
252874,-76.9230769230769,4,2,55,85,0,0
253160,-76.9230769230769,4,2,54,85,0,0
253303,-76.9230769230769,4,2,55,85,0,0
253446,-90.9090909090909,4,2,1,70,0,0
254017,-111.111111111111,4,2,1,60,0,0
254446,-90.9090909090909,4,2,1,60,0,0
257446,-111.111111111111,4,2,1,60,0,0
257874,-83.3333333333333,4,2,1,60,0,0
262589,-133.333333333333,4,2,1,60,0,0
262874,-83.3333333333333,4,2,1,60,0,0
264732,-133.333333333333,4,2,1,60,0,0
265303,-100,4,2,1,60,0,0
265874,-83.3333333333333,4,2,1,60,0,0
266303,-100,4,2,1,60,0,0
267446,-83.3333333333333,4,2,1,60,0,0
268446,-100,4,2,1,60,0,0
268589,-83.3333333333333,4,2,1,60,0,0
268874,-100,4,2,1,60,0,0
269732,-83.3333333333333,4,2,1,60,0,0
270732,-100,4,2,1,60,0,0
271732,-133.333333333333,4,2,1,60,0,0
272017,-100,4,2,1,60,0,0
272160,-83.3333333333333,4,2,1,60,0,0
272732,-71.4285714285714,4,2,1,60,0,0
273017,-83.3333333333333,4,2,1,60,0,0
276732,-100,4,2,1,60,0,0
277303,-83.3333333333333,4,2,1,60,0,0
278446,-71.4285714285714,4,2,1,60,0,0
278732,-100,4,2,1,60,0,0
278874,-76.9230769230769,4,2,1,60,0,0
279589,-90.9090909090909,4,2,1,60,0,0
279874,-200,4,2,1,60,0,0
280874,-200,4,2,1,40,0,0
281589,-200,4,2,1,20,0,0
282232,-200,4,2,1,10,0,0
283089,-200,4,2,1,6,0,0

[Colours]
Combo1 : 208,250,112
Combo2 : 186,194,193
Combo3 : 135,130,120
Combo4 : 198,189,217
Combo5 : 228,163,228
Combo6 : 149,234,202
Combo7 : 159,189,221
Combo8 : 240,77,77

[HitObjects]
257,367,16304,69,0,2:0:0:0:
257,367,16447,1,0,2:0:0:0:
334,267,16589,5,0,2:0:0:0:
178,229,16732,1,0,2:0:0:0:
327,63,16875,102,0,B|375:61|411:33|411:33|420:76|452:116,1,157.5,6|0,1:2|2:0,0:0:0:0:
436,94,17161,6,0,L|393:123,1,52.5,8|0,2:3|2:0,0:0:0:0:
321,157,17304,1,2,1:2:0:0:
129,107,17447,2,0,P|116:64|155:19,1,105,0|2,2:0|1:2,0:0:0:0:
129,107,17732,1,8,2:3:0:0:
274,229,17875,102,0,B|371:244|340:265|441:280,1,157.5,2|0,1:2|2:0,0:0:0:0:
423,277,18161,2,0,L|482:264,1,52.5,2|0,1:2|2:0,0:0:0:0:
234,299,18304,1,8,2:3:0:0:
234,299,18447,1,0,2:0:0:0:
71,359,18589,6,0,L|66:386,1,26.25,2|0,1:2|2:0,0:0:0:0:
16,280,18732,2,0,L|11:307,1,26.25,0|0,1:0|2:0,0:0:0:0:
169,182,18875,102,0,B|203:154|245:144|245:144|209:95|208:55,1,157.5,10|0,2:3|2:0,0:0:0:0:
169,182,19161,5,2,1:2:0:0:
56,156,19304,1,2,2:0:0:0:
131,83,19447,1,10,2:0:0:0:
284,277,19589,101,2,1:2:0:0:
416,253,19732,1,2,2:0:0:0:
324,154,19875,1,2,1:2:0:0:
340,226,20018,1,10,2:0:0:0:
169,360,20161,6,0,B|109:328|38:328|38:328|7:296,1,157.5,2|0,1:2|2:0,0:0:0:0:
23,312,20447,1,2,1:2:0:0:
59,240,20589,1,8,2:3:0:0:
134,185,20732,1,0,2:0:0:0:
264,202,20875,101,2,1:2:0:0:
445,144,21018,1,0,1:0:0:0:
316,144,21161,5,10,2:3:0:0:
443,221,21304,2,0,B|470:258|500:314|500:314|489:310|489:310|456:265|389:254,1,210,2|2,1:2|1:2,0:0:0:0:
177,112,21732,102,0,P|173:87|174:46,1,52.5,10|0,2:3|2:0,0:0:0:0:
224,5,22018,1,2,1:2:0:0:
224,5,22161,1,2,1:2:0:0:
304,56,22304,6,0,L|334:62,1,26.25,8|0,2:3|2:0,0:0:0:0:
498,91,22447,102,0,B|398:82|345:166|345:166|295:177,1,210,2|0,1:2|1:0,0:0:0:0:
43,222,22875,2,0,B|32:197|16:174|16:174|45:159|70:141,1,105,10|0,2:3|2:0,0:0:0:0:
136,101,23161,5,2,1:2:0:0:
242,161,23304,1,2,1:2:0:0:
107,276,23447,1,10,2:3:0:0:
307,383,23589,102,0,B|393:352|393:352|364:231,1,210,2|0,1:2|1:0,0:0:0:0:
164,183,24018,2,0,B|172:216|172:216|180:223|180:223|187:260,1,78.7500030040742,8|0,2:3|2:0,0:0:0:0:
170,374,24304,5,2,1:2:0:0:
295,303,24447,1,2,1:2:0:0:
164,183,24589,1,10,2:3:0:0:
379,115,24732,2,0,B|388:74|409:42|409:42|352:24|317:-6,1,157.5,2|0,1:2|2:0,0:0:0:0:
338,9,25018,102,0,L|283:22,1,52.5,0|0,1:0|2:0,0:0:0:0:
76,177,25161,2,0,B|30:139|30:139|45:81,1,105,8|0,2:3|2:0,0:0:0:0:
82,29,25375,1,0,2:3:0:0:
82,29,25447,1,0,1:0:0:0:
161,19,25589,1,0,1:0:0:0:
277,203,25732,6,0,P|335:223|443:140,1,188.999994232178,8|0,2:3|2:0,0:0:0:0:
277,203,26018,102,0,B|227:200|193:231|193:231|180:272|135:283,1,157.5,6|0,1:2|2:0,0:0:0:0:
78,254,26304,1,8,2:3:0:0:
297,293,26447,2,0,P|308:246|266:198,1,105,2|0,1:2|2:0,0:0:0:0:
214,161,26732,1,2,1:2:0:0:
227,89,26875,1,8,2:3:0:0:
436,159,27018,6,0,B|467:114|467:114|449:58,1,105,2|0,1:2|2:0,0:0:0:0:
253,0,27304,2,0,B|222:45|222:45|240:101,1,105,2|8,1:2|2:3,0:0:0:0:
302,131,27589,1,0,2:0:0:0:
451,66,27732,102,0,L|393:54,1,52.5,2|0,1:2|2:0,0:0:0:0:
256,20,27875,1,0,1:0:0:0:
113,109,28018,5,10,2:3:0:0:
197,87,28161,1,0,2:0:0:0:
376,157,28304,101,2,1:2:0:0:
411,280,28447,1,2,2:0:0:0:
284,312,28589,1,10,2:0:0:0:
226,70,28732,5,2,1:2:0:0:
99,102,28875,1,2,2:0:0:0:
134,225,29018,1,2,1:2:0:0:
256,192,29161,101,10,2:0:0:0:
423,87,29304,2,0,B|371:62|328:78|328:78|297:113|248:99,1,157.5,2|0,1:2|2:0,0:0:0:0:
276,102,29589,6,0,B|256:85|256:85|264:59,1,52.5,0|0,1:0|2:0,0:0:0:0:
423,87,29732,1,10,2:3:0:0:
483,125,29875,1,0,2:0:0:0:
476,195,30018,1,2,1:2:0:0:
268,260,30161,1,2,1:2:0:0:
446,261,30304,101,8,2:3:0:0:
329,200,30447,2,0,B|328:114|374:148|361:45,1,157.5,6|0,1:2|2:0,0:0:0:0:
361,49,30732,6,0,L|349:-7,1,52.5,2|0,1:2|2:0,0:0:0:0:
163,127,30875,2,0,B|120:136|78:150|78:150|42:138|48:94,1,157.5,10|0,2:3|2:0,0:0:0:0:
47,94,31161,102,0,L|55:38,1,52.5,2|0,1:2|2:0,0:0:0:0:
283,84,31304,2,0,P|206:70|165:158,1,157.5,2|0,1:2|2:0,0:1:0:0:
49,313,31589,6,0,B|129:332|129:332|144:351|144:351|234:368,1,178.500003404617,2|0,1:2|1:0,0:0:0:0:
300,351,31947,1,0,2:3:0:0:
300,351,32018,1,10,2:3:0:0:
213,254,32161,1,8,1:2:0:0:
216,343,32304,101,0,1:2:0:0:
302,245,32447,1,2,1:2:0:0:
212,158,32589,1,8,2:0:0:0:
164,294,32732,6,0,P|239:294|314:217,1,157.5,2|0,1:2|2:0,0:0:0:0:
302,245,33018,102,0,L|291:188,1,52.5,0|0,1:0|2:0,0:0:0:0:
406,15,33161,2,0,B|416:-2|416:-2|432:89,1,105,8|0,2:3|2:0,0:0:0:0:
445,157,33375,1,0,2:0:0:0:
445,157,33447,1,2,1:2:0:0:
282,117,33589,1,2,1:2:0:0:
192,74,33732,6,0,B|184:53|184:53|186:39|186:39|180:9,1,52.5,10|0,2:3|2:0,0:0:0:0:
300,37,33875,102,2,B|241:18|186:61|186:61|170:77|170:77|142:124|72:112,1,251.999992309571,6|0,1:2|1:0,0:1:0:0:
27,44,34304,6,0,B|59:61|82:67|82:67|76:96|75:120,1,105,8|0,2:3|2:0,0:0:0:0:
48,183,34518,1,0,1:0:0:0:
48,183,34589,1,0,1:0:0:0:
125,204,34732,1,0,1:0:0:0:
253,282,34875,101,8,2:3:0:0:
388,258,35018,1,0,1:0:0:0:
451,48,35161,54,0,B|408:74|359:85|359:85|376:127|389:172,1,188.999994232178,4|8,1:0|2:3,0:0:0:0:
484,280,35589,2,0,B|489:239|504:184|504:184|448:178|413:164,1,188.999994232178,0|0,1:0|1:0,0:0:0:0:
469,36,36018,2,0,B|493:46|516:53|516:53|510:73|506:96,1,94.499997116089,8|0,2:3|2:0,0:0:0:0:
293,170,36304,6,0,P|221:142|201:33,2,188.999994232178,0|8|0,1:0|2:3|1:0,0:0:0:0:
293,170,37018,1,0,1:0:0:0:
109,91,37161,2,0,B|64:83|85:78|36:69,1,73.4999977569581,8|0,2:3|2:0,0:0:0:0:
197,40,37447,102,0,B|146:72|100:84|100:84|134:133|123:179,1,188.999994232178,0|8,1:0|2:3,0:0:0:0:
293,170,37875,2,0,B|353:161|353:161|369:147|369:147|434:132,1,141.749995674133,0|0,1:0|2:0,0:0:0:0:
427,133,38161,1,0,1:0:0:0:
219,124,38304,1,8,2:3:0:0:
335,251,38447,5,0,2:0:0:0:
335,251,38518,1,0,2:0:0:0:
335,251,38589,2,0,P|378:297|386:381,1,146.999995513916,0|8,1:0|2:3,0:0:0:0:
386,377,39018,6,0,P|352:385|336:386,2,47.2499985580445,0|0|0,2:0|2:0|1:0,0:0:0:0:
276,341,39304,1,0,1:0:0:0:
111,384,39447,2,0,B|112:290|60:324|66:224,1,157.5,8|0,2:3|2:0,0:0:0:0:
65,237,39732,102,0,B|42:180|12:151|12:151|60:128|85:92,1,188.999994232178,0|8,1:0|2:3,0:0:0:0:
272,58,40161,2,0,B|275:35|286:13|286:13|231:14|189:7,1,141.749995674133,0|0,1:0|2:0,0:0:0:0:
191,7,40447,6,0,L|129:0,1,47.2499985580445,0|0,1:0|2:0,0:0:0:0:
352,58,40589,2,0,B|396:67|396:67|416:99|468:96,1,110.249996635437,8|0,2:3|2:0,0:0:0:0:
505,37,40875,102,0,B|425:75|425:75|453:183,2,188.999994232178,0|8|0,1:0|2:3|1:0,0:0:0:0:
505,37,41589,1,0,1:0:0:0:
369,194,41732,2,0,B|307:176|307:176|313:145,1,94.499997116089,8|0,2:3|2:0,0:0:0:0:
450,172,42018,6,0,B|414:203|382:215|382:215|404:249|411:310,1,157.5,0|0,1:0|2:0,0:0:0:0:
407,286,42304,102,0,L|465:303,1,52.5,8|0,2:3|2:0,0:0:0:0:
271,374,42447,2,0,B|277:286|228:307|240:217,1,157.5,0|0,1:0|2:0,0:0:0:0:
239,223,42732,5,0,1:0:0:0:
124,346,42875,1,8,2:3:0:0:
53,373,43018,1,0,1:0:0:0:
0,323,43161,2,0,B|-10:282|-23:253|-23:253|2:241|37:218,1,141.749995674133,0|0,1:0|2:0,0:0:0:0:
35,218,43447,102,0,L|84:231,1,47.2499985580445,8|0,2:3|2:0,0:0:0:0:
256,152,43589,1,0,2:0:0:0:
208,90,43732,2,0,P|205:45|245:4,1,94.499997116089,0|0,1:0|1:0,0:0:0:0:
399,148,44018,2,0,B|493:118|493:118|471:59,1,157.5,8|0,2:3|2:0,0:0:0:0:
472,62,44304,6,0,B|438:33|438:33|394:42|394:42|354:94|287:74,1,210,4|8,1:0|2:3,0:0:0:0:
176,92,44732,2,0,B|126:72|126:72|135:11,1,105,0|0,1:0|2:0,0:0:0:0:
176,92,45018,1,0,1:0:0:0:
66,204,45161,2,0,B|-10:229|-10:229|3:274,1,105,8|0,2:3|2:0,0:0:0:0:
153,374,45447,102,0,P|207:295|162:179,2,210,0|8|0,1:0|2:3|1:0,0:0:0:0:
153,374,46161,1,0,1:0:0:0:
301,298,46304,2,0,B|340:291|340:291|353:278|353:278|394:269,1,94.499997116089,8|0,2:3|2:0,0:0:0:0:
493,303,46589,5,0,1:0:0:0:
350,160,46732,1,0,2:0:0:0:
466,194,46875,1,8,2:3:0:0:
388,270,47018,2,0,B|359:240|328:219|328:219|342:192|351:158,1,141.749995674133,0|0,1:0|2:0,0:0:0:0:
350,160,47304,102,0,L|402:148,1,47.2499985580445,0|0,1:0|2:0,0:0:0:0:
505,67,47447,2,0,P|466:6|391:11,1,141.749995674133,8|0,2:3|2:0,0:0:0:0:
306,80,47732,6,0,B|231:74|249:113|159:108,1,141.749995674133,0|0,1:0|2:0,0:0:0:0:
96,75,48018,1,8,2:3:0:0:
273,171,48161,101,0,2:0:0:0:
273,171,48232,1,0,2:0:0:0:
273,171,48304,1,0,1:0:0:0:
312,241,48447,1,0,1:0:0:0:
266,307,48589,2,0,B|219:314|219:314|209:330|209:330|154:340,1,110.249996635437,8|0,2:3|2:0,0:0:0:0:
45,379,48875,6,0,P|29:310|-6:272,1,105,0|0,1:0|2:0,0:0:0:0:
129,198,49161,1,8,2:3:0:0:
154,316,49304,2,0,P|142:262|151:208,1,105,0|0,1:0|2:0,0:0:0:0:
0,118,49589,1,0,1:0:0:0:
30,266,49732,2,0,P|23:229|-6:192,1,84,8|0,2:3|2:0,0:0:0:0:
103,45,50018,101,0,1:0:0:0:
103,45,50161,2,0,B|201:18|189:72|298:48,1,188.999994232178,0|0,2:0|2:0,0:1:0:0:
288,49,50518,1,0,1:0:0:0:
288,49,50589,1,0,1:0:0:0:
209,131,50732,1,0,1:0:0:0:
379,236,50875,2,0,B|415:219|446:207|446:207|425:170|416:135,1,141.749995674133,8|0,2:3|2:0,0:0:0:0:
435,21,51161,6,0,B|378:77|378:77|420:146,1,157.5,0|0,1:0|2:0,0:0:0:0:
418,143,51447,102,0,L|474:148,1,52.5,8|0,2:3|2:0,0:0:0:0:
323,286,51589,2,0,B|268:262|256:193|292:155|292:155|324:148,1,188.999994232178,0|0,1:0|1:0,0:0:0:0:
367,220,52018,2,0,B|367:266|367:266|316:290,1,94.499997116089,8|0,2:3|2:0,0:0:0:0:
221,316,52304,5,0,1:0:0:0:
144,295,52447,1,0,2:0:0:0:
0,345,52589,101,8,2:3:0:0:
0,345,52732,1,0,2:0:0:0:
81,357,52875,5,0,1:0:0:0:
208,242,53018,1,0,1:0:0:0:
372,349,53161,2,0,B|438:367|438:367|472:327|445:288,1,141.749995674133,8|0,2:3|2:0,0:0:0:0:
451,299,53447,21,4,1:0:0:0:
381,257,53589,1,8,2:0:0:0:
470,206,53732,1,8,2:3:0:0:
372,349,53875,2,0,B|372:267|331:279|329:199,1,157.5,0|0,1:0|2:0,0:0:0:0:
329,200,54161,85,0,1:0:0:0:
468,128,54304,2,0,B|519:83|519:83|459:1,1,157.5,8|0,2:3|2:0,0:0:0:0:
466,10,54589,21,0,1:0:0:0:
384,78,54732,1,8,2:0:0:0:
388,0,54875,1,8,2:3:0:0:
468,128,55018,2,0,B|422:97|387:105|387:105|361:136|309:124,1,157.5,0|0,1:0|2:0,0:0:0:0:
322,126,55304,53,0,1:0:0:0:
169,229,55447,2,0,B|139:235|99:250|99:250|86:207|63:165,1,157.5,8|0,2:3|2:0,0:0:0:0:
66,172,55732,54,0,P|129:136|156:44,1,157.5,8|0,1:0|2:0,0:0:0:0:
157,58,56018,54,0,L|139:0,1,52.5,8|0,2:3|2:0,0:0:0:0:
0,103,56161,54,0,B|28:77|28:77|86:88|86:88|120:148|182:135,1,210,0|0,1:0|1:0,0:0:0:0:
340,41,56589,2,0,B|303:33|256:18|256:18|260:64|243:102,1,157.5,8|0,2:3|2:0,0:0:0:0:
248,87,56875,53,0,1:0:0:0:
364,133,57018,1,8,2:0:0:0:
340,41,57161,1,8,2:3:0:0:
273,165,57304,2,0,B|269:250|308:225|298:318,1,157.5,0|0,1:0|2:0,0:0:0:0:
234,340,57589,54,0,P|261:333|285:326,1,52.5,0|0,1:0|2:0,0:0:0:0:
505,376,57732,2,0,P|465:306|386:310,1,157.5,8|0,2:3|2:0,0:0:0:0:
167,384,58018,54,0,B|153:356|120:321|120:321|160:296|183:271,1,157.5,0|0,1:0|2:0,0:0:0:0:
181,272,58304,1,8,2:3:0:0:
71,169,58447,2,0,B|46:66|18:124|-2:26,1,157.5,0|0,1:0|2:0,0:0:0:0:
0,32,58732,54,0,L|56:13,1,52.5,0|0,1:0|2:0,0:0:0:0:
218,153,58875,2,0,B|294:166|294:166|337:135|307:91,1,157.5,8|0,2:3|2:0,0:0:0:0:
310,96,59161,53,0,1:0:0:0:
168,65,59304,1,8,2:0:0:0:
267,22,59447,1,8,2:3:0:0:
218,153,59589,2,0,B|189:226|189:226|251:304,1,157.5,0|0,1:0|2:0,0:0:0:0:
238,287,59875,1,0,1:0:0:0:
371,265,60018,1,8,2:3:0:0:
500,239,60161,1,0,2:0:0:0:
319,383,60304,54,0,P|263:347|255:264,1,141.749995674133,0|0,1:0|2:0,0:0:0:0:
250,276,60589,1,8,2:3:0:0:
402,191,60732,2,0,B|416:143|416:143|368:101,1,105,2|0,1:0|2:0,0:0:0:0:
300,97,61018,1,10,1:0:0:0:
512,50,61161,1,10,2:3:0:0:
419,18,61304,1,2,2:0:0:0:
300,97,61447,6,0,L|240:107,1,52.5,0|0,1:0|2:0,0:0:0:0:
19,71,61875,21,2,2:3:0:0:
15,38,61947,1,2,2:3:0:0:
46,24,62018,1,2,2:3:0:0:
123,45,62161,101,2,1:3:0:0:
307,75,62304,1,10,1:3:0:0:
491,103,62447,1,2,1:3:0:0:
236,50,62589,70,0,B|212:82|180:109|180:109|204:145|219:191,1,157.5,6|0,1:3|2:0,0:0:0:0:
214,176,62875,6,0,L|269:186,1,52.5,8|0,2:3|2:0,0:0:0:0:
144,331,63018,2,0,B|90:344|58:366|58:366|55:366|55:366|14:355|21:314,1,157.5,8|0,1:0|2:0,0:0:0:0:
20,322,63304,102,0,L|28:268,1,52.5,0|0,1:0|2:0,0:0:0:0:
211,263,63447,2,0,B|295:271|266:313|353:324,1,157.5,8|0,2:3|2:0,0:0:0:0:
352,323,63732,5,0,1:0:0:0:
507,283,63875,1,8,2:0:0:0:
402,251,64018,1,8,2:3:0:0:
466,372,64161,2,0,B|473:295|473:295|482:288|482:288|490:203,1,157.5,0|0,1:0|2:0,0:0:0:0:
488,219,64447,101,0,1:0:0:0:
269,275,64589,2,0,B|240:281|240:281|211:145,1,157.5,8|0,2:3|2:0,0:0:0:0:
213,155,64875,6,0,B|230:107|256:89|256:89|243:80|238:63,1,105,8|0,1:0|0:0,0:0:0:0:
234,35,65089,1,0,2:0:0:0:
217,32,65161,1,8,2:3:0:0:
96,197,65304,102,0,B|158:171|168:120|168:120|206:115|206:115|242:165|297:168,1,251.999992309571,0|0,1:0|1:0,0:0:0:0:
470,106,65732,6,0,B|487:74|513:48|513:48|480:28|439:-10,1,141.749995674133,8|0,2:3|2:0,0:0:0:0:
457,6,66018,101,0,1:0:0:0:
310,93,66161,1,8,2:0:0:0:
364,13,66304,1,8,2:3:0:0:
407,148,66447,2,0,B|403:224|440:205|433:292,1,141.749995674133,0|0,1:0|2:0,0:0:0:0:
445,294,66732,6,0,L|392:304,1,52.5,0|0,1:0|2:0,0:0:0:0:
202,384,66875,2,0,B|130:370|130:370|111:309|111:309|159:275,1,188.999994232178,8|0,2:3|2:0,0:0:0:0:
153,279,67161,101,8,1:0:0:0:
331,345,67304,1,8,2:0:0:0:
202,384,67447,1,8,2:3:0:0:
270,250,67589,2,0,B|252:165|304:184|275:87,1,157.5,0|0,1:0|2:0,0:0:0:0:
277,96,67875,6,0,L|216:85,1,52.5,0|0,1:0|2:0,0:0:0:0:
436,132,68018,2,0,B|458:90|484:56|484:56|449:39|407:10,1,157.5,8|0,2:3|2:0,0:0:0:0:
436,132,68304,102,0,B|419:161|404:181|404:181|432:193|451:204,1,105,8|0,1:0|0:0,0:0:0:0:
482,271,68518,1,0,2:0:0:0:
501,275,68589,1,8,2:3:0:0:
299,308,68732,6,0,B|254:301|226:336|226:336|202:377|154:379,1,157.5,8|0,1:2|2:0,0:0:0:0:
95,343,69018,102,0,B|93:333|80:319|80:319|96:328|114:328,1,52.5,0|0,1:0|2:0,0:0:0:0:
166,377,69161,2,0,P|211:316|186:239,1,157.5,8|0,2:3|2:0,0:0:0:0:
37,131,69447,6,0,B|18:104|-13:99|-13:99|49:99|89:55,1,157.5,8|0,1:0|2:0,0:0:0:0:
96,55,69732,102,0,P|125:60|153:65,1,52.5,8|0,2:3|2:0,0:0:0:0:
293,179,69875,2,0,B|358:165|358:165|376:148|376:148|445:132,1,157.5,8|0,1:2|2:0,0:0:0:0:
440,133,70161,5,0,1:0:0:0:
225,220,70304,2,0,B|201:192|166:163|166:163|195:136|217:106,1,157.5,8|0,2:3|2:0,0:0:0:0:
216,106,70589,101,0,1:0:0:0:
267,293,70732,1,0,1:0:0:0:
334,66,70875,6,0,B|327:23|284:3|284:3|237:6|208:37,1,157.5,8|0,2:3|2:0,0:0:0:0:
322,81,71161,38,0,B|325:107|325:107|332:115|332:115|334:143,3,52.5,8|8|8|8,1:3|1:3|1:3|1:3,0:0:0:0:
316,144,71447,101,8,1:2:0:0:
358,169,71518,1,8,1:2:0:0:
412,153,71589,1,8,1:2:0:0:
470,178,71661,1,8,1:2:0:0:
482,173,71732,86,0,P|398:134|309:214,1,204.749990627289,6|0,1:2|2:0,0:0:0:0:
241,261,72018,22,0,P|255:298|298:314,1,68.2499968757631,8|0,2:3|2:0,0:0:0:0:
507,368,72161,86,0,P|475:282|423:251,1,136.499993751526,2|0,2:0|1:0,0:0:0:0:
228,179,72447,2,0,P|166:167|128:138,1,105,2|8,1:2|2:3,0:0:0:0:
358,284,72732,38,0,B|248:247|265:330|151:286,1,204.749990627289,2|0,1:2|2:0,0:0:0:0:
81,220,73018,1,2,1:2:0:0:
74,8,73161,70,0,B|15:-1|-17:44|-17:44|-19:46|-19:46|0:156,1,204.749990627289,10|0,2:3|2:0,0:0:0:0:
9,154,73447,1,0,1:0:0:0:
178,201,73589,1,0,1:0:0:0:
246,52,73732,2,0,B|210:45|193:38|193:38|178:59|157:82,1,105,10|0,2:3|2:0,0:0:0:0:
61,274,74018,37,2,1:2:0:0:
106,140,74161,1,2,2:0:0:0:
73,285,74304,1,10,2:0:0:0:
18,192,74447,69,2,1:2:0:0:
183,281,74589,1,2,2:0:0:0:
33,378,74732,1,2,1:2:0:0:
70,277,74875,37,10,2:0:0:0:
237,360,75018,2,0,P|309:309|307:208,1,188.999994232178,2|0,1:2|2:0,0:0:0:0:
310,215,75304,70,0,L|248:202,1,52.5,0|0,1:0|2:0,0:0:0:0:
381,50,75447,2,0,B|445:28|445:28|480:108|480:108|444:125,1,188.999994232178,10|0,2:3|2:0,0:0:0:0:
197,265,75732,2,0,B|176:245|151:233|151:233|167:212|186:168,1,105,2|0,1:2|1:0,0:0:0:0:
369,130,76018,38,0,L|386:183,1,52.5,10|0,2:3|2:0,0:0:0:0:
407,365,76161,70,0,B|479:339|479:339|486:326|486:326|472:219,1,188.999994232178,6|0,1:2|2:0,0:1:0:0:
473,229,76447,2,0,B|438:225|405:219|405:219|393:257|366:288,1,125.999996154785,2|8,1:2|2:3,0:0:0:0:
161,371,76732,2,0,P|134:343|140:303,1,62.9999980773926,2|0,2:0|2:0,0:0:0:0:
245,244,76875,38,2,L|260:122,1,105,2|0,1:2|1:0,0:1:0:0:
270,37,77161,1,8,2:3:0:0:
164,200,77304,70,0,P|67:196|19:102,1,188.999994232178,2|0,1:2|2:0,0:0:0:0:
31,101,77589,37,0,1:0:0:0:
257,139,77732,2,0,B|296:125|365:123|365:123|384:95|384:95|342:86|305:61,1,204.749990627289,10|0,2:3|2:0,0:0:0:0:
307,66,78018,69,2,1:2:0:0:
185,203,78161,1,2,1:2:0:0:
312,264,78304,1,10,2:3:0:0:
257,139,78447,2,0,B|229:48|193:103|158:-6,1,173.250005287171,2|0,1:2|1:0,0:0:0:0:
160,0,78732,38,0,L|218:11,1,52.5,0|0,1:0|2:0,0:0:0:0:
490,107,78875,2,0,B|514:72|434:25|354:94|435:219,1,204.749990627289,8|0,2:3|2:0,0:0:0:0:
490,107,79161,70,0,B|461:114|461:114|423:96,1,52.5,2|0,1:2|2:0,0:0:0:0:
350,37,79304,2,0,B|325:44|325:44|317:48|317:48|284:58,1,52.5,2|0,1:2|2:0,0:0:0:0:
75,196,79447,2,0,P|54:178|39:137,1,68.2499968757631,10|0,2:3|2:0,0:0:0:0:
100,82,79589,38,0,B|222:111|149:161|276:190,1,204.749990627289,2|0,1:2|2:0,0:0:0:0:
289,178,79875,1,2,1:2:0:0:
98,372,80018,2,0,B|63:383|63:383|19:284|19:284|81:274,1,204.749990627289,8|0,2:3|2:0,0:0:0:0:
101,285,80304,69,0,1:0:0:0:
260,335,80447,1,0,1:0:0:0:
459,258,80589,2,0,P|426:228|355:240,1,105,10|0,2:3|2:0,0:0:0:0:
368,230,80804,1,0,2:0:0:0:
368,230,80875,38,0,B|368:279|346:326|346:326|404:328|472:353,1,204.749990627289,6|0,1:2|2:0,0:0:0:0:
474,332,81161,1,8,2:3:0:0:
228,176,81304,102,0,B|183:150|183:150|216:61|216:61|280:85,1,204.749990627289,2|0,1:2|2:0,0:0:0:0:
240,175,81589,2,0,B|285:201|285:201|252:290|252:290|188:266,1,204.749990627289,2|0,1:2|2:0,0:0:0:0:
336,30,81875,86,0,B|376:-14|437:13|437:13|437:25|437:25|444:32|444:32|450:68|461:114,1,204.749990627289,6|0,1:2|2:0,0:0:0:0:
456,129,82161,1,2,1:2:0:0:
169,137,82304,2,0,B|224:115|261:146|261:146|273:160|273:160|286:200|336:217,1,204.749990627289,10|0,2:3|2:0,0:0:0:0:
358,207,82589,37,2,1:2:0:0:
169,137,82732,1,2,1:2:0:0:
384,294,82875,2,0,B|420:275|462:252|462:252|436:203|425:155,1,188.999994232178,10|0,2:3|2:0,0:0:0:0:
427,160,83161,70,0,B|394:121|344:127|344:127|370:73|356:7,1,204.749990627289,2|0,1:2|2:0,0:0:0:0:
358,18,83447,2,0,L|415:8,1,52.5,10|0,2:3|2:0,0:0:0:0:
486,63,83589,2,0,B|511:66|511:66|519:70|519:70|538:72,1,52.5,2|0,1:2|2:0,0:0:0:0:
423,155,83732,37,2,2:0:0:0:
245,109,83875,1,2,1:2:0:0:
105,225,84018,1,10,2:3:0:0:
346,345,84161,70,0,P|362:299|332:263,1,94.499997116089,2|0,1:2|2:0,0:0:0:0:
225,316,84447,2,0,P|232:354|251:369,1,52.5,0|0,1:0|2:0,0:0:0:0:
346,345,84589,2,0,B|297:218|265:298|216:167,1,204.749990627289,10|0,2:3|2:0,0:0:0:0:
245,109,84875,37,2,1:2:0:0:
160,242,85018,2,0,B|142:249|142:249|134:248|134:248|105:256,1,52.5,2|0,1:2|2:0,0:0:0:0:
15,192,85161,2,0,B|-3:165|-3:165|2:132,1,52.5,10|0,2:3|2:0,0:0:0:0:
100,0,85304,70,0,P|205:25|215:117,1,204.749990627289,6|0,1:2|2:0,0:0:0:0:
218,108,85589,2,0,B|191:122|191:122|168:115|168:115|142:118|142:118|115:91,1,105,2|10,1:2|2:3,0:0:0:0:
245,12,85875,2,0,B|269:16|269:16|278:23|278:23|304:29,1,52.5,2|0,2:0|2:0,0:0:0:0:
444,106,86018,38,0,B|451:134|451:134|456:143|456:143|468:176,1,52.5,2|0,1:2|2:0,0:0:0:0:
370,173,86161,2,0,B|363:201|363:201|358:210|358:210|346:243,1,52.5,2|0,1:2|2:0,0:0:0:0:
415,340,86304,1,8,2:3:0:0:
364,156,86447,70,0,P|282:139|195:207,1,188.999994232178,2|0,1:2|2:0,0:0:0:0:
205,222,86732,1,0,1:0:0:0:
426,358,86875,2,0,B|465:343|492:339|492:339|481:303|484:264|484:264|462:256|428:246,1,188.999994232178,10|0,2:3|2:0,0:0:0:0:
418,243,87161,37,2,1:2:0:0:
237,302,87304,1,2,1:2:0:0:
64,211,87447,1,10,2:3:0:0:
252,313,87589,70,0,B|231:239|275:262|254:188,1,125.999996154785,2|0,1:2|2:0,0:0:0:0:
236,174,87875,1,0,1:0:0:0:
466,78,88018,2,0,P|435:27|360:30,1,125.999996154785,8|0,2:3|2:0,0:0:0:0:
373,22,88232,1,0,2:0:0:0:
373,22,88304,2,0,B|398:43|398:43|429:34,1,62.9999980773926,2|0,1:2|2:0,0:0:0:0:
275,0,88447,2,0,B|247:16|247:16|237:59,1,62.9999980773926,2|0,1:2|2:0,0:0:0:0:
347,199,88589,1,10,2:3:0:0:
407,133,88732,38,0,B|358:119|318:89|318:89|297:128|250:165,1,188.999994232178,2|0,1:2|2:0,0:0:0:0:
260,156,89018,70,0,L|269:214,1,52.5,0|0,1:0|2:0,0:0:0:0:
223,275,89161,37,8,2:3:0:0:
308,354,89304,1,8,1:3:0:0:
152,345,89447,69,8,1:3:0:0:
366,295,89589,1,8,1:3:0:0:
85,160,89732,21,8,2:3:0:0:
386,199,89875,1,8,1:3:0:0:
228,205,90018,6,0,B|158:198|158:198|114:250|114:250|42:243,1,210,6|8,1:2|2:3,0:0:0:0:
0,155,90447,2,0,B|16:156|16:156|26:161|26:161|39:157|39:157|228:178,1,210,2|2,2:0|1:0,0:0:0:0:
440,259,90875,5,8,2:3:0:0:
498,155,91018,2,0,P|414:69|336:99,1,210,2|0,1:0|1:0,0:0:0:0:
210,162,91447,2,0,P|221:185|305:199,1,105,8|0,2:3|1:0,0:0:0:0:
364,195,91661,1,0,3:2:0:0:
380,182,91732,1,2,1:0:0:0:
307,123,91875,1,0,1:0:0:0:
277,213,92018,101,8,2:3:0:0:
394,108,92161,1,2,2:0:0:0:
498,318,92304,6,0,L|274:290,1,210,6|8,2:0|2:3,0:0:0:0:
184,350,92732,1,0,1:0:0:0:
187,344,92804,1,0,1:0:0:0:
191,338,92875,1,12,3:0:0:0:
102,193,93018,101,2,1:0:0:0:
211,237,93161,1,8,2:3:0:0:
96,356,93304,2,0,B|152:272|271:302|243:390|167:340,1,210,6|0,2:0|2:0,0:0:0:0:
36,217,93732,2,0,P|85:217|148:246,1,105,8|2,2:3|2:0,0:0:0:0:
329,367,94018,5,0,1:0:0:0:
442,256,94161,1,0,1:0:0:0:
329,367,94304,2,0,P|342:329|387:293,1,78.7500030040742,8|0,2:3|2:0,0:0:0:0:
490,165,94589,102,0,P|467:196|303:175,1,188.999994232178,2|8,3:1|2:3,0:0:0:0:
452,348,95018,1,2,2:0:0:0:
320,289,95161,2,0,P|287:271|207:280,1,94.499997116089,2|0,1:2|3:0,0:0:0:0:
24,343,95447,5,8,2:3:0:0:
145,303,95589,2,0,B|173:280|185:252|185:252|239:241|239:241|251:209|280:176,1,188.999994232178,2|0,1:3|3:0,0:0:0:0:
152,15,96018,1,8,2:3:0:0:
158,22,96089,2,0,B|155:48|167:45|167:45|158:76|158:76|179:166,1,141.749995674133,2|0,1:0|1:0,0:0:0:0:
0,259,96447,101,2,2:0:0:0:
0,259,96518,2,2,B|17:262|17:262|25:257|25:257|61:264,1,47.2499985580445,2|8,2:0|2:3,0:0:0:0:
179,252,96732,5,6,1:0:0:0:
0,259,96875,102,0,P|140:236|215:278,1,188.999994232178,6|8,1:2|2:3,0:0:0:0:
339,334,97304,5,0,1:0:0:0:
345,344,97375,1,0,1:0:0:0:
353,353,97447,2,0,P|298:383|241:365,1,94.499997116089,2|0,2:1|3:0,0:0:0:0:
136,274,97732,2,0,L|241:292,1,94.499997116089,8|0,2:3|2:0,0:0:0:0:
512,338,98018,101,14,1:0:0:0:
339,240,98161,1,8,2:0:0:0:
438,349,98304,1,8,2:3:0:0:
315,165,98447,69,14,1:0:0:0:
452,273,98589,1,8,2:0:0:0:
238,208,98732,1,0,1:0:0:0:
512,169,98875,22,0,P|479:170|410:202,1,94.499997116089,8|2,2:3|2:1,0:0:0:0:
238,293,99161,85,2,1:2:0:0:
279,381,99304,2,0,B|292:330|317:343|330:285,1,105,2|8,2:1|2:3,0:0:0:0:
456,124,99589,2,0,P|420:100|326:200,1,210,0|0,3:0|1:0,0:0:0:0:
409,285,100018,2,0,L|543:261,1,105,8|0,2:3|2:0,0:0:0:0:
512,266,100232,1,0,1:0:0:0:
512,266,100304,1,2,1:2:0:0:
317,183,100447,5,4,2:0:0:0:
420,294,100589,2,0,P|358:264|297:289,1,105,8|0,2:3|2:0,0:0:0:0:
47,323,100875,101,0,3:0:0:0:
47,323,101018,1,0,3:0:0:0:
163,202,101161,2,0,P|205:196|261:233,1,105,8|2,2:3|2:0,0:0:0:0:
256,226,101375,1,2,2:0:0:0:
256,226,101447,6,0,P|194:217|229:99,1,210,0|8,2:0|2:3,0:0:0:0:
392,241,101875,2,0,P|350:244|182:314,1,210,2|0,2:0|1:0,0:0:0:0:
390,164,102304,2,0,P|407:161|461:231,1,105,8|0,2:3|2:0,0:0:0:0:
434,311,102589,101,0,1:0:0:0:
311,159,102732,2,0,P|311:133|354:47,2,94.499997116089,2|8|0,2:0|2:3|2:0,0:0:0:0:
351,282,103161,6,0,P|333:241|290:263,1,94.499997116089,0|0,1:0|3:0,0:0:0:0:
403,384,103447,2,0,P|428:381|494:347,1,94.499997116089,8|2,2:3|2:0,0:0:0:0:
512,186,103732,54,0,B|468:188|424:205|424:205|375:179|405:148|436:146,1,168,0|8,1:0|2:3,0:0:0:0:
512,84,104161,2,0,P|465:61|406:58,2,84,2|2|0,2:3|2:0|1:0,0:0:0:0:
350,198,104589,1,8,2:3:0:0:
451,139,104732,1,0,2:0:0:0:
357,97,104875,2,0,P|367:131|403:268,1,168,2|8,2:1|2:3,0:0:0:0:
365,331,105304,1,2,2:0:0:0:
202,205,105447,2,0,P|233:210|301:257,1,84,0|0,1:0|2:0,0:0:0:0:
278,384,105732,2,0,P|273:354|241:294,1,84,8|0,2:3|2:0,1:0:0:0:
123,149,106018,102,0,B|82:178|37:164|37:164|32:214|-9:233,1,168,2|8,3:1|2:3,0:0:0:0:
0,229,106447,2,0,L|188:247,1,168,2|0,3:0|2:0,0:0:0:0:
167,245,106804,1,0,1:0:0:0:
167,245,106875,1,8,2:3:0:0:
75,308,107018,1,0,1:0:0:0:
197,325,107161,6,0,L|317:309,1,84,2|0,1:2|2:0,0:0:0:0:
209,186,107447,1,8,2:3:0:0:
357,238,107589,102,0,L|468:256,1,84,2|0,1:0|2:0,0:0:0:0:
353,360,107875,1,8,2:0:0:0:
476,270,108018,1,8,2:3:0:0:
323,362,108161,1,2,2:0:0:0:
307,373,108232,1,2,2:0:0:0:
280,378,108304,6,0,P|203:351|95:362,1,168,6|8,1:2|2:3,0:0:0:0:
0,164,108732,2,0,P|40:177|80:229,1,84,0|2,3:0|2:0,0:0:0:0:
139,275,109018,1,0,3:0:0:0:
294,179,109161,2,0,P|240:207|216:248,1,84,8|0,2:3|2:0,0:0:0:0:
164,301,109447,2,0,B|68:278|93:319|-6:298,2,168,2|8|0,1:2|2:3|1:0,0:0:0:0:
243,369,110161,1,2,1:3:0:0:
415,288,110304,2,0,P|407:267|396:188,1,84,8|2,2:3|2:0,0:0:0:0:
396,206,110518,1,0,1:0:0:0:
396,206,110589,102,0,P|383:253|264:270,1,168,2|8,3:1|2:3,0:0:0:0:
376,135,111018,2,0,P|390:159|502:279,1,168,0|0,2:0|2:0,0:0:0:0:
294,133,111447,2,0,P|295:106|348:67,1,84,8|0,2:3|2:0,0:0:0:0:
507,56,111732,6,0,P|471:58|402:80,1,84,2|0,1:2|2:0,0:0:0:0:
204,129,112018,1,8,2:3:0:0:
223,210,112161,2,0,P|249:213|326:240,1,84,2|0,1:2|3:0,0:0:0:0:
488,281,112447,1,6,3:0:0:0:
445,364,112589,2,0,P|413:366|345:388,1,84,8|0,2:3|2:0,0:0:0:0:
363,379,112804,1,2,2:0:0:0:
363,379,112875,1,2,2:0:0:0:
0,277,113161,101,8,2:3:0:0:
106,318,113304,2,0,P|141:281|241:193,1,168,2|0,1:2|2:0,0:0:0:0:
396,137,113732,1,8,2:3:0:0:
457,230,113875,1,0,2:0:0:0:
318,167,114018,2,0,P|305:145|272:98,1,84,0|0,1:0|2:0,0:0:0:0:
165,7,114304,2,0,P|175:29|198:107,1,84,8|0,2:3|2:0,0:0:0:0:
230,336,114589,5,2,2:0:0:0:
114,239,114732,1,0,2:0:0:0:
239,183,114875,2,0,P|227:210|213:271,1,84,8|0,2:3|2:0,0:0:0:0:
213,262,115089,1,0,2:0:0:0:
213,262,115161,102,0,B|215:282|240:309|240:309|180:273|116:282,1,168,0|8,2:0|2:3,0:0:0:0:
0,109,115589,2,0,P|27:94|136:170,1,168,2|0,2:0|2:0,0:0:0:0:
0,246,116018,2,0,P|37:244|81:223,1,84,8|0,2:3|2:0,0:0:0:0:
295,242,116304,102,0,P|275:213|271:137,1,105,2|0,1:2|2:0,0:0:0:0:
450,45,116589,2,0,P|453:81|425:148,1,105,8|0,2:3|2:0,0:0:0:0:
202,104,116875,86,0,P|219:85|287:70,1,84,2|0,1:2|3:0,0:0:0:0:
490,194,117161,2,0,P|470:211|378:209,1,84,8|0,2:3|2:0,0:0:0:0:
200,281,117447,102,0,B|228:243|262:242|295:256|295:256|322:303|369:315,1,188.999994232178,6|8,2:0|2:3,0:0:0:0:
438,324,117875,2,0,L|239:355,1,188.999994232178,6|0,2:0|2:0,0:0:0:0:
251,353,118232,1,0,1:0:0:0:
251,353,118304,1,8,2:3:0:0:
350,297,118447,1,0,1:0:0:0:
204,273,118589,54,0,P|172:268|88:248,1,94.499997116089,2|0,1:2|2:0,0:0:0:0:
291,366,118875,1,8,2:3:0:0:
127,239,119018,2,0,B|92:208|30:216|30:216|-6:174|44:146,1,188.999994232178,2|0,2:0|3:0,0:0:0:0:
156,72,119447,2,0,P|165:98|163:171,1,94.499997116089,8|0,2:3|2:0,0:0:0:0:
37,361,119732,54,0,P|55:350|145:315,1,94.499997116089,2|0,1:2|2:0,0:0:0:0:
315,216,120018,53,8,2:3:0:0:
371,280,120161,2,0,P|389:295|479:326,1,94.499997116089,2|0,1:2|2:0,0:0:0:0:
278,137,120447,53,0,1:0:0:0:
378,101,120589,2,0,P|400:80|429:14,1,94.499997116089,8|0,2:3|2:0,0:0:0:0:
512,209,120875,54,0,P|455:223|370:162,1,141.749995674133,2|0,1:2|2:0,0:0:0:0:
395,190,121161,1,8,2:3:0:0:
289,64,121304,2,0,P|236:26|113:51,1,188.999994232178,2|0,1:2|3:0,0:0:0:0:
31,99,121732,2,0,P|9:84|2:31,2,47.2499985580445,8|2|0,2:3|2:0|2:0,0:0:0:0:
180,96,122018,54,0,P|175:120|169:259,1,141.749995674133,2|0,1:2|2:0,0:0:0:0:
174,246,122304,1,8,2:3:0:0:
262,148,122447,2,0,P|192:167|68:195,1,188.999994232178,2|0,2:0|2:0,0:0:0:0:
0,351,122875,1,8,2:3:0:0:
103,268,123018,1,0,1:0:0:0:
246,261,123161,54,0,P|266:263|326:326,1,94.499997116089,2|0,3:1|2:0,0:0:0:0:
206,374,123447,1,8,2:3:0:0:
330,268,123589,2,0,P|371:229|496:247,1,188.999994232178,2|0,2:0|2:0,0:0:0:0:
504,259,123947,1,0,1:0:0:0:
510,277,124018,1,8,2:3:0:0:
424,321,124161,1,2,1:0:0:0:
361,108,124304,54,0,P|386:129|409:198,1,94.499997116089,2|0,1:2|2:0,0:0:0:0:
180,309,124589,2,0,P|192:282|254:244,1,94.499997116089,8|0,2:3|2:0,0:0:0:0:
493,346,124875,2,0,P|465:372|392:379,1,94.499997116089,0|10,2:0|1:0,0:0:0:0:
132,217,125161,38,8,L|142:157,1,47.2499985580445,8|8,2:3|1:0,1:0:0:0:
170,97,125304,2,8,L|179:30,1,47.2499985580445,8|8,1:0|1:0,1:0:0:0:
201,13,125447,1,4,1:0:0:0:
201,13,125875,6,0,L|212:100,1,78.75,2|0,2:3|2:0,0:0:0:0:
201,130,126161,1,2,1:3:0:0:
449,195,126304,85,10,3:0:0:0:
462,192,126375,1,2,3:0:0:0:
474,194,126447,1,2,3:0:0:0:
486,189,126518,1,2,3:0:0:0:
512,171,126589,70,0,P|378:118|295:164,1,210,6|8,1:3|2:3,0:0:0:0:
162,296,127018,2,0,P|136:328|19:330,1,157.5,0|0,3:0|2:0,0:0:0:0:
13,326,127304,2,0,L|97:317,1,52.5,2|0,3:1|2:0,0:0:0:0:
325,369,127447,6,0,L|212:357,1,105,8|0,2:3|2:0,0:0:0:0:
13,326,127732,101,4,1:2:0:0:
161,188,127875,1,2,1:2:0:0:
248,380,128018,1,8,2:3:0:0:
126,260,128161,2,0,P|125:233|153:105,1,157.5,2|0,3:1|2:0,0:0:0:0:
167,97,128447,2,0,P|193:97|218:116,1,52.5,2|0,3:1|2:0,0:0:0:0:
478,191,128589,6,0,L|347:209,1,105,8|0,2:3|2:0,0:0:0:0:
95,178,128875,102,0,B|138:187|138:187|181:231|181:231|237:244,1,157.5,6|0,2:0|2:0,0:0:0:0:
240,244,129161,1,8,2:3:0:0:
99,362,129304,2,0,P|103:325|92:251,1,105,2|0,3:1|2:0,0:0:0:0:
363,111,129589,2,0,P|336:104|289:73,1,52.5,2|0,3:1|2:0,0:0:0:0:
395,334,129732,2,0,P|393:297|412:228,1,105,8|0,2:3|2:0,0:0:0:0:
438,162,129947,1,0,2:0:0:0:
438,162,130018,6,0,P|407:188|311:180,1,105,6|0,1:2|2:0,0:0:0:0:
479,326,130304,1,8,2:3:0:0:
307,209,130447,2,0,P|217:161|135:180,1,157.5,2|0,3:1|2:0,0:0:0:0:
144,162,130732,2,0,P|123:175|109:213,1,52.5,0|0,3:0|2:0,0:0:0:0:
0,348,130875,22,0,B|22:344|22:344|43:347|43:347|59:337|59:337|173:320,1,157.500006008148,8|0,2:3|2:0,0:0:0:0:
504,275,131161,70,0,B|406:258|435:319|334:297,1,173.250005287171,6|0,1:2|2:0,0:0:0:0:
328,291,131447,1,8,2:3:0:0:
214,186,131589,2,0,P|198:155|163:4,1,173.250005287171,0|0,3:0|2:0,0:0:0:0:
163,21,131875,6,0,P|153:47|124:68,1,57.7500017623902,2|0,3:1|2:0,0:0:0:0:
0,144,132018,2,0,L|127:156,1,115.50000352478,8|0,2:3|2:0,0:0:0:0:
114,154,132232,1,0,1:0:0:0:
114,154,132304,101,2,1:2:0:0:
31,244,132447,1,0,2:0:0:0:
192,145,132589,1,8,2:3:0:0:
345,257,132732,2,0,B|388:249|388:249|466:279|466:279|528:267,1,173.250005287171,0|0,1:0|2:0,0:0:0:0:
511,270,133018,6,0,L|494:350,1,57.7500017623902,2|0,3:1|2:0,0:0:0:0:
311,171,133161,2,0,L|292:48,1,115.50000352478,8|0,2:3|2:0,0:0:0:0:
288,41,133375,1,0,2:0:0:0:
283,22,133447,1,2,1:2:0:0:
219,289,133589,101,0,2:0:0:0:
321,150,133732,1,8,2:3:0:0:
230,209,133875,1,0,3:0:0:0:
362,286,134018,1,2,2:0:0:0:
222,124,134161,1,2,2:0:0:0:
0,338,134304,54,0,P|16:317|80:292,1,86.6250026435853,8|0,2:3|2:0,0:0:0:0:
90,302,134589,70,0,P|68:299|10:246,1,78.7500030040742,0|0,1:0|2:0,0:0:0:0:
227,384,134875,102,0,P|194:328|191:221,1,157.500006008148,8|0,2:3|2:0,0:0:0:0:
368,59,135161,37,8,1:3:0:0:
438,44,135232,1,8,1:3:0:0:
481,82,135304,1,8,1:3:0:0:
485,129,135375,1,8,1:3:0:0:
450,160,135447,1,8,1:2:0:0:
405,180,135518,1,8,1:2:0:0:
388,221,135589,1,8,1:2:0:0:
409,263,135661,1,8,1:2:0:0:
432,267,135732,86,0,P|333:218|254:233,1,157.5,6|0,1:2|2:0,0:0:0:0:
186,178,136018,22,0,P|163:188|174:252,1,78.7500030040742,8|0,2:3|2:0,0:0:0:0:
415,296,136161,6,0,P|439:292|525:251,1,105,2|0,2:0|1:0,0:0:0:0:
330,121,136447,2,0,P|299:84|259:63,1,78.7500030040742,2|8,1:2|2:3,0:0:0:0:
35,241,136732,2,0,P|66:248|228:190,1,188.999994232178,2|2,1:2|1:2,0:0:0:0:
439,85,137161,69,10,2:3:0:0:
473,101,137304,1,0,2:0:0:0:
372,186,137447,37,0,1:0:0:0:
286,170,137589,1,0,1:0:0:0:
143,215,137732,69,10,2:3:0:0:
207,331,137875,1,0,2:0:0:0:
364,348,138018,38,0,P|392:343|479:374,1,105,2|2,1:2|2:0,0:0:0:0:
464,362,138304,1,10,2:0:0:0:
284,192,138447,70,0,P|308:144|365:146,1,105,2|2,1:2|2:0,0:0:0:0:
512,301,138732,2,0,P|480:327|502:282,1,105,2|10,1:2|2:0,0:0:0:0:
426,14,139018,38,0,P|426:49|322:109,1,157.5,2|0,1:2|2:0,0:0:0:0:
321,122,139304,2,0,P|300:99|306:71,1,52.5,0|0,1:0|2:0,0:0:0:0:
497,259,139447,2,0,L|381:243,1,105,10|0,2:3|2:0,0:0:0:0:
90,336,139732,69,2,1:2:0:0:
90,336,139804,2,0,L|153:327,1,52.5,2|0,2:0|1:0,1:0:0:0:
340,301,140018,37,10,2:3:0:0:
12,281,140161,70,0,B|55:273|111:313|111:313|66:213,1,210,6|2,1:2|1:2,0:0:0:0:
206,370,140589,1,8,2:3:0:0:
107,209,140732,2,0,B|92:132|92:132|135:98,1,105,2|2,2:0|1:2,0:0:0:0:
292,14,141018,1,0,1:0:0:0:
297,32,141089,1,0,2:0:0:0:
302,50,141161,1,8,2:3:0:0:
503,81,141304,38,0,P|419:71|346:118,1,157.5,2|0,1:2|2:0,0:0:0:0:
255,154,141589,2,0,L|323:171,1,52.5,0|0,1:0|2:0,0:0:0:0:
133,30,141732,70,0,L|-15:51,1,105,10|0,2:3|2:0,0:0:0:0:
60,290,142018,37,2,1:2:0:0:
126,132,142161,1,2,1:2:0:0:
243,256,142304,1,10,2:3:0:0:
2,169,142447,70,0,B|49:209|117:162|117:162|124:214|161:237,1,210,2|0,1:2|1:0,0:0:0:0:
47,382,142875,2,0,P|87:359|167:375,1,105,8|0,2:3|2:0,0:0:0:0:
365,212,143161,37,2,1:2:0:0:
244,332,143304,1,2,1:2:0:0:
341,161,143447,69,10,2:3:0:0:
470,229,143589,2,0,P|483:196|534:132,1,105,2|0,1:2|2:0,0:0:0:0:
321,319,143875,37,2,1:2:0:0:
419,118,144018,2,0,P|405:88|311:62,1,105,8|0,2:3|2:0,0:0:0:0:
124,194,144304,69,2,1:2:0:0:
124,194,144375,2,0,B|168:199|182:162|243:172,1,105,2|0,2:0|2:0,1:0:0:0:
287,230,144589,38,0,P|306:212|311:171,1,52.5,10|0,2:3|2:0,0:0:0:0:
192,95,144732,2,0,P|170:112|163:153,1,52.5,8|0,1:3|2:0,0:0:0:0:
0,265,144875,70,0,B|77:222|100:309|168:282,1,173.250005287171,6|0,1:2|2:0,0:0:0:0:
217,315,145161,1,8,2:3:0:0:
435,341,145304,2,0,B|497:366|497:366|495:291|495:291|390:238,1,231.000007049561,2|2,1:2|1:2,0:0:0:0:
406,331,145661,1,8,2:0:0:0:
414,360,145732,1,8,2:0:0:0:
512,166,145875,38,0,L|311:189,1,173.250005287171,6|0,1:2|2:0,0:0:0:0:
260,222,146161,2,0,L|168:230,1,57.7500017623902,2|0,1:2|2:0,0:0:0:0:
30,168,146304,70,0,B|65:127|117:147|117:147|85:166,1,115.50000352478,10|0,2:3|2:0,0:0:0:0:
0,243,146518,1,8,2:0:0:0:
0,243,146589,1,10,1:2:0:0:
119,165,146732,1,2,1:2:0:0:
0,375,146875,38,0,P|67:305|104:293,1,115.50000352478,10|0,2:3|2:0,0:0:0:0:
437,276,147161,70,0,P|355:236|320:238,1,115.50000352478,2|0,1:2|2:0,0:0:0:0:
118,333,147447,1,10,2:3:0:0:
349,362,147589,38,0,P|378:342|333:350,1,115.50000352478,2|2,1:2|2:0,0:0:0:0:
93,199,147875,2,0,B|132:207|132:207|161:229|161:229|215:239,1,115.50000352478,2|10,1:2|2:3,0:0:0:0:
472,122,148161,70,0,B|451:108|441:88|441:88|435:160|405:220,1,173.250005287171,2|0,1:2|2:0,0:0:0:0:
328,244,148447,1,0,1:0:0:0:
172,98,148589,2,0,P|55:49|-14:72,1,173.250005287171,10|0,2:3|2:0,0:0:0:0:
12,69,148875,38,0,L|18:108,1,39.3750015020371,2|0,1:2|2:0,0:0:0:0:
35,212,149018,2,0,L|18:266,1,39.3750015020371,2|0,1:2|1:0,1:0:0:0:
0,330,149161,1,10,2:3:0:0:
196,217,149304,70,0,B|252:131|343:159|343:159|322:159|306:177,1,204.749990627289,6|0,1:2|2:0,0:0:0:0:
305,179,149589,2,0,P|273:150|299:70,1,115.50000352478,2|10,1:2|2:3,0:0:0:0:
475,17,149875,2,0,P|454:21|412:58,1,57.7500017623902,2|0,2:0|2:0,0:0:0:0:
305,179,150018,37,2,1:2:0:0:
355,247,150161,1,2,1:2:0:0:
459,311,150304,1,8,2:3:0:0:
228,166,150447,70,0,B|196:141|149:158|149:158|133:150|133:150|84:257|-4:225|19:180|51:184,1,272.999987503052,2|0,1:2|1:0,0:0:0:0:
47,191,150875,38,0,B|50:216|50:216|42:225|42:225|46:229|46:229|31:314,1,115.50000352478,10|0,2:3|2:0,0:0:0:0:
317,142,151161,2,0,L|311:92,1,39.3750015020371,2|0,1:2|2:0,1:0:0:0:
321,23,151304,1,2,1:2:0:0:
304,26,151375,1,0,2:0:0:0:
284,30,151447,1,10,2:3:0:0:
212,319,151589,70,0,P|274:231|367:240,1,188.999994232178,2|0,1:2|2:0,0:0:0:0:
389,266,151875,1,0,1:0:0:0:
134,351,152018,38,0,P|113:362|25:375,1,105,8|0,2:3|2:0,0:0:0:0:
186,205,152304,70,0,P|204:223|206:259,1,52.5,2|0,1:2|2:0,0:0:0:0:
3,355,152447,2,0,P|6:331|36:300,1,52.5,2|0,1:2|2:0,1:0:0:0:
109,261,152589,1,10,2:3:0:0:
312,283,152732,38,0,L|49:254,1,204.749990627289,2|0,1:2|2:0,0:0:0:0:
108,260,153018,1,8,1:0:0:0:
108,260,153161,1,8,2:3:0:0:
108,260,153304,1,8,1:3:0:0:
394,220,153447,101,8,1:3:0:0:
417,205,153518,1,0,1:0:0:0:
410,181,153589,1,8,1:3:0:0:
365,194,153661,1,0,1:0:0:0:
334,234,153732,1,8,1:3:0:0:
351,279,153804,1,0,1:0:0:0:
403,303,153875,1,8,1:3:0:0:
460,269,153947,1,0,1:0:0:0:
400,212,154018,86,0,B|295:190|334:247|219:225,2,178.500003404617,6|8|0,1:2|2:3|1:0,0:0:0:0:
164,163,154732,1,0,2:0:0:0:
164,163,154875,2,0,P|120:107|109:66,1,89.2500017023087,8|0,2:3|2:0,0:0:0:0:
0,235,155161,2,0,P|52:218|89:190,1,89.2500017023087,0|0,1:0|2:0,0:0:0:0:
188,54,155447,70,0,P|261:5|354:1,1,178.500003404617,8|0,2:3|1:0,0:0:0:0:
466,84,155875,1,0,1:0:0:0:
512,158,156018,2,0,P|507:212|498:254,1,89.2500017023087,8|0,2:3|2:0,0:0:0:0:
445,94,156304,38,0,P|416:60|367:41,1,78.7500030040742,0|0,1:0|2:0,0:0:0:0:
485,18,156589,70,0,L|551:8,1,52.5,8|0,2:3|2:0,0:0:0:0:
384,155,156732,2,0,P|306:153|260:53,1,173.250005287171,0|0,1:0|2:0,0:0:0:0:
257,78,157018,1,0,1:0:0:0:
369,52,157161,1,8,2:3:0:0:
206,166,157304,1,0,2:0:0:0:
430,278,157447,38,0,B|486:277|447:226|363:221|342:322,1,173.250005287171,0|0,1:0|2:0,0:0:0:0:
282,226,157732,70,0,B|333:241|333:241|446:360|446:360|482:369,1,231.000007049561,8|0,2:3|1:0,0:1:0:0:
459,363,158161,1,0,1:0:0:0:
503,306,158304,1,8,2:3:0:0:
512,209,158447,1,0,2:0:0:0:
279,344,158589,38,0,P|228:365|170:372,1,105,0|0,1:0|2:0,0:0:0:0:
107,333,158875,1,8,2:3:0:0:
311,250,159018,70,0,P|326:186|329:131,1,105,0|0,1:0|2:0,0:1:0:0:
384,81,159304,1,0,1:0:0:0:
220,277,159447,38,0,B|155:266|177:257|113:246,1,105,8|0,2:3|2:0,0:1:0:0:
37,273,159732,1,0,1:0:0:0:
220,277,159875,1,0,2:0:0:0:
79,171,160018,1,8,2:3:0:0:
120,331,160161,1,0,2:0:0:0:
182,177,160304,1,0,1:0:0:0:
182,177,160447,1,0,1:0:0:0:
127,249,160589,69,8,2:3:0:0:
278,194,160732,1,0,2:0:0:0:
258,379,160875,38,0,B|246:314|224:345|211:265,1,105,0|0,1:0|2:0,0:0:0:0:
198,94,161161,1,8,2:3:0:0:
341,60,161304,2,0,P|282:115|277:210,1,157.5,0|0,1:0|2:0,0:1:0:0:
278,194,161589,69,0,1:0:0:0:
194,21,161732,2,0,B|171:8|171:8|187:94,1,105,8|0,2:3|2:0,0:0:0:0:
304,259,162018,38,0,B|235:192|235:192|137:232,1,188.999994232178,0|0,1:0|2:0,0:0:0:0:
149,227,162304,2,0,B|119:196|119:196|131:158,1,78.7500030040742,8|0,2:3|2:0,0:0:0:0:
218,184,162589,1,0,1:0:0:0:
218,184,162732,1,0,1:0:0:0:
395,104,162875,70,0,P|456:90|493:74,1,78.7500030040742,8|0,2:3|2:0,0:0:0:0:
471,0,163161,38,0,P|402:40|369:124,1,136.499993751526,4|0,1:0|2:0,0:0:0:0:
316,288,163447,1,8,2:3:0:0:
373,356,163589,2,0,P|433:371|475:375,1,105,0|0,1:0|2:0,0:0:0:0:
512,239,163875,1,0,1:0:0:0:
452,179,164018,2,0,P|400:185|339:204,1,105,8|0,2:3|2:0,0:0:0:0:
110,337,164304,70,0,P|65:359|10:378,1,105,0|0,1:0|2:0,0:0:0:0:
186,267,164589,2,0,P|235:285|286:296,1,105,8|0,2:3|2:0,0:0:0:0:
16,127,164875,37,0,1:0:0:0:
16,127,165018,1,0,1:0:0:0:
62,60,165161,2,0,P|125:41|188:32,1,105,8|0,2:3|2:0,0:0:0:0:
408,212,165447,70,0,P|425:254|435:292,1,78.7500030040742,0|0,1:0|2:0,0:1:0:0:
276,362,165732,38,0,P|236:349|224:308,1,62.9999980773926,8|0,2:3|2:0,0:0:0:0:
241,183,165875,70,0,P|308:149|421:130,1,188.999994232178,0|0,1:0|2:0,0:0:0:0:
419,129,166161,1,0,1:0:0:0:
241,183,166304,2,0,P|203:121|230:75,1,125.999996154785,8|0,2:3|2:0,0:0:0:0:
331,252,166589,38,0,B|243:213|243:213|151:289,1,188.999994232178,0|0,1:0|2:0,0:0:0:0:
172,273,166875,70,0,B|132:267|132:267|66:298|36:235,1,125.999996154785,8|0,2:3|2:0,0:1:0:0:
260,311,167161,1,8,1:0:0:0:
260,311,167304,1,0,1:0:0:0:
90,193,167447,38,0,B|87:120|67:137|63:63,1,125.999996154785,8|0,2:3|2:0,0:0:0:0:
0,324,167732,22,0,B|16:298|39:291|39:291|50:294|50:294|105:269|105:357|183:326,1,204.749990627289,4|0,1:0|2:0,0:1:0:0:
176,328,168018,38,0,P|182:289|155:246,1,68.2499968757631,8|0,2:3|2:0,0:0:0:0:
334,376,168161,38,0,P|343:285|372:169,1,204.749990627289,0|0,1:0|2:0,0:0:0:0:
446,136,168447,1,0,1:0:0:0:
157,175,168589,2,0,B|112:161|52:159|52:159|22:106|64:69,1,204.749990627289,8|0,2:3|2:0,0:0:0:0:
144,22,168875,70,0,B|161:45|195:62|195:62|136:27|55:74,1,204.749990627289,0|0,1:0|2:0,0:1:0:0:
157,175,169161,2,0,B|215:161|215:161|172:140,1,105,8|0,2:3|2:0,0:0:0:0:
72,155,169447,37,0,1:0:0:0:
72,155,169589,1,0,1:0:0:0:
274,93,169732,2,0,B|373:81|337:62|446:53,1,136.499993751526,8|0,2:3|2:0,0:0:0:0:
485,107,170018,37,8,1:0:0:0:
325,31,170161,1,8,1:0:0:0:
174,141,170304,1,8,2:3:0:0:
132,27,170447,69,0,1:0:0:0:
286,128,170589,1,8,2:1:0:0:
431,31,170732,1,8,1:0:0:0:
238,29,170875,37,8,2:3:0:0:
222,259,171018,1,0,2:0:0:0:
307,360,171161,69,8,1:0:0:0:
285,203,171304,1,8,1:0:0:0:
151,296,171447,1,8,1:3:0:0:
246,286,171589,1,0,1:0:0:0:
97,224,171732,37,8,1:0:0:0:
297,190,171875,1,8,2:1:0:0:
26,137,172018,101,8,2:3:0:0:
310,179,172161,1,0,2:3:0:0:
114,365,172304,70,0,P|27:346|13:256,1,188.999994232178,4|0,2:1|2:0,0:1:0:0:
13,259,172589,2,0,L|76:245,1,62.9999980773926,8|0,2:3|2:0,0:0:0:0:
219,122,172732,2,0,P|166:110|115:88,1,105,0|0,1:0|2:0,0:0:0:0:
290,248,173018,54,0,P|371:273|418:301,1,125.999996154785,8|8,1:0|2:3,0:0:0:0:
512,144,173304,2,0,P|473:43|329:10,1,251.999992309571,0|0,1:0|1:0,0:0:0:0:
343,5,173661,1,0,1:0:0:0:
343,5,173732,2,0,P|392:63|462:47,1,125.999996154785,8|0,2:3|2:0,0:0:0:0:
512,65,174018,53,0,1:0:0:0:
477,0,174161,1,8,1:0:0:0:
284,76,174304,53,8,2:3:0:0:
321,148,174447,1,0,2:0:0:0:
157,265,174589,54,0,P|105:194|67:28,2,251.999992309571,0|8|0,1:0|2:3|1:0,0:0:0:0:
396,284,175304,1,8,1:0:0:0:
473,319,175447,1,8,2:3:0:0:
507,384,175589,2,0,P|450:360|378:360,1,125.999996154785,0|0,1:0|2:0,0:0:0:0:
235,267,175875,54,0,L|166:278,1,62.9999980773926,0|0,1:0|2:0,0:0:0:0:
262,358,176018,54,0,B|244:283|282:300|258:222,1,125.999996154785,8|0,2:3|2:0,0:0:0:0:
187,53,176304,53,0,1:0:0:0:
303,67,176447,1,8,1:0:0:0:
249,9,176589,53,8,2:3:0:0:
235,155,176732,1,8,2:1:0:0:
366,201,176875,54,0,P|425:186|474:144,1,125.999996154785,0|0,1:0|2:0,0:0:0:0:
453,3,177161,54,0,P|424:32|425:58,1,62.9999980773926,8|0,2:3|2:0,0:0:0:0:
366,201,177304,2,0,P|390:273|440:323,1,125.999996154785,8|0,1:0|2:0,0:0:0:0:
512,349,177589,1,0,1:0:0:0:
473,144,177732,1,8,2:3:0:0:
382,115,177875,2,0,P|311:128|257:166,1,125.999996154785,8|0,1:0|2:0,0:0:0:0:
213,235,178161,1,8,1:0:0:0:
258,9,178304,54,0,B|247:87|291:60|279:143,1,125.999996154785,8|0,2:3|2:0,0:0:0:0:
205,371,178589,53,4,3:0:0:0:
366,330,178732,1,8,1:3:0:0:
294,266,178875,53,8,2:3:0:0:
222,237,179018,1,2,2:0:0:0:
18,274,179161,54,0,B|145:290|83:308|242:333,2,210,0|8|0,1:0|2:3|1:0,0:0:0:0:
13,269,179875,1,8,1:3:0:0:
146,212,180018,53,8,2:3:0:0:
8,264,180161,2,0,P|-20:323|20:355,1,105,8|0,1:0|2:0,0:0:0:0:
82,328,180447,1,0,1:0:0:0:
208,209,180589,2,0,B|197:186|203:163|203:163|188:202|141:213,1,125.999996154785,8|0,2:3|2:0,0:0:0:0:
121,127,180875,53,0,1:0:0:0:
248,290,181018,1,8,1:0:0:0:
407,201,181161,2,0,B|418:111|418:111|428:107|428:107|439:3,1,188.999994232178,8|0,2:3|2:0,0:0:0:0:
437,19,181447,22,0,B|447:54|473:95|473:95|469:97|469:97|416:99|364:126,1,188.999994232178,4|0,1:0|2:0,0:0:0:0:
309,170,181732,2,0,B|288:137|267:118|267:118|286:102|315:61,1,125.999996154785,8|0,2:3|2:0,0:0:0:0:
495,194,182018,53,0,1:0:0:0:
495,194,182161,1,8,1:0:0:0:
306,74,182304,2,0,P|314:45|318:-6,1,78.7500030040742,8|0,2:3|1:0,0:0:0:0:
485,104,182589,53,0,2:0:0:0:
425,9,182732,2,0,P|410:63|365:129,1,125.999996154785,0|8,1:0|2:3,0:0:0:0:
136,186,183018,2,0,P|89:156|47:91,1,125.999996154785,0|0,2:0|1:0,0:0:0:0:
72,15,183304,1,0,1:0:0:0:
221,161,183447,2,0,P|213:221|197:271,1,105,8|0,2:3|2:0,0:0:0:0:
0,266,183732,54,0,B|123:283|68:339|192:358,2,210,0|8|0,1:0|2:3|1:0,0:0:0:0:
0,266,184447,1,0,1:0:0:0:
195,368,184589,1,8,2:3:0:0:
277,323,184732,2,0,P|332:308|388:306,1,105,0|0,1:0|2:0,0:0:0:0:
502,194,185018,53,0,1:0:0:0:
389,113,185161,2,0,P|367:57|360:0,1,105,8|0,2:3|2:0,0:0:0:0:
492,87,185447,53,0,1:0:0:0:
492,87,185589,1,8,1:0:0:0:
400,217,185732,2,0,P|348:197|279:187,1,105,8|0,2:3|2:0,0:0:0:0:
95,22,186018,37,2,1:2:0:0:
0,62,186161,1,8,2:1:0:0:
72,129,186304,1,8,2:3:0:0:
170,94,186447,1,0,2:0:0:0:
357,84,186589,37,2,1:2:0:0:
449,126,186732,1,8,1:0:0:0:
380,192,186875,1,8,2:3:0:0:
291,154,187018,2,0,P|269:109|269:48,1,105,0|2,1:0|2:0,0:0:0:0:
321,0,187304,101,10,1:0:0:0:
183,127,187447,2,0,P|151:124|140:81,1,78.7500030040742,10|2,2:3|2:0,0:0:0:0:
287,182,187732,5,0,1:0:0:0:
419,130,187875,1,0,1:2:0:0:
241,252,188018,101,8,2:3:0:0:
96,198,188161,1,2,2:0:0:0:
266,384,188304,86,0,B|273:365|273:365|243:203|243:203|266:156,1,210,4|8,1:0|2:3,0:0:0:0:
205,17,188875,22,0,P|179:15|153:13,1,52.5,8|0,1:0|2:0,0:0:0:0:
252,159,189018,6,0,B|297:98|297:98|296:91|296:91|230:36,1,157.5,0|0,1:0|2:0,0:0:0:0:
302,96,189304,102,0,L|344:91,1,39.3750015020371,0|0,1:0|2:0,0:0:0:0:
161,158,189447,85,0,1:0:0:0:
284,203,189589,1,8,1:0:0:0:
86,213,189732,37,8,2:3:0:0:
366,160,189875,1,8,1:0:0:0:
149,297,190018,101,8,1:0:0:0:
208,246,190089,1,8,1:0:0:0:
275,249,190161,1,8,1:0:0:0:
304,293,190232,1,8,1:0:0:0:
297,333,190304,1,8,2:3:0:0:
277,345,190375,1,0,1:0:0:0:
264,341,190447,1,0,1:0:0:0:
262,331,190518,1,0,1:0:0:0:
271,324,190589,1,4,1:0:0:0:
466,360,191732,21,2,2:0:0:0:
387,253,192304,5,2,2:0:0:0:
399,128,192875,102,0,P|413:102|421:45,1,84,2|8,2:0|2:3,0:0:0:0:
433,119,193447,2,0,P|467:102|502:63,1,84,2|8,2:0|2:3,0:0:0:0:
402,334,194018,5,4,1:2:0:0:
402,334,194589,1,4,1:2:0:0:
335,368,195161,54,0,P|253:331|171:350,1,157.500006008148,4|8,1:0|2:3,0:0:0:0:
4,189,195589,70,0,P|49:196|121:252,1,126,2|8,2:0|2:3,0:0:0:0:
113,241,196304,1,2,1:2:0:0:
148,310,196589,1,8,2:3:0:0:
154,346,196875,1,2,2:0:0:0:
143,376,197161,1,8,2:3:0:0:
298,144,197447,102,0,P|307:115|317:48,1,84,6|8,1:2|2:3,0:0:0:0:
219,186,197875,2,0,P|180:203|141:217,1,84,2|0,2:0|2:0,0:0:0:0:
219,186,198304,5,8,2:3:0:0:
305,153,198447,1,2,2:0:0:0:
416,136,198589,1,2,2:0:0:0:
416,136,198875,1,8,2:3:0:0:
197,171,199161,21,8,1:0:0:0:
15,259,199304,1,8,1:0:0:0:
87,284,199447,5,8,2:3:0:0:
91,298,199541,2,0,L|100:256,1,28,8|0,2:3|2:0,0:0:0:0:
129,165,199732,86,0,P|126:131|125:19,1,125.999996154785,6|8,1:2|2:3,0:0:0:0:
288,157,200161,1,0,1:0:0:0:
378,23,200304,2,0,P|373:65|359:156,1,125.999996154785,8|8,1:0|2:3,0:0:0:0:
318,286,200732,1,0,1:0:0:0:
346,354,200875,2,0,P|364:336|413:315,1,62.9999980773926,0|0,3:0|2:0,0:0:0:0:
257,225,201161,2,0,P|252:255|236:308,1,62.9999980773926,8|0,2:3|2:0,0:0:0:0:
440,250,201447,2,0,P|399:237|325:189,1,125.999996154785,10|8,1:0|2:3,0:0:0:0:
111,313,202018,70,0,P|83:338|-14:361,1,125.999996154785,0|8,1:0|2:3,0:0:0:0:
118,219,202447,1,0,2:0:0:0:
234,320,202589,2,0,P|213:341|155:337,1,62.9999980773926,8|0,1:0|2:0,0:0:0:0:
245,248,202875,2,0,P|265:249|306:296,1,62.9999980773926,8|0,2:3|2:0,0:0:0:0:
330,342,203161,2,0,P|334:313|357:204,1,125.999996154785,2|8,1:2|2:3,0:0:0:0:
424,105,203589,1,0,1:0:0:0:
303,0,203732,2,0,P|314:16|331:59,1,62.9999980773926,8|0,1:0|2:0,0:0:0:0:
424,222,204018,37,8,2:3:0:0:
292,120,204161,1,8,1:0:0:0:
410,185,204304,2,0,B|312:150|324:223|238:205,1,168,6|8,3:2|2:3,0:0:0:0:
128,268,204732,1,0,2:0:0:0:
258,312,204875,2,0,P|283:316|338:360,1,84,0|0,3:0|1:0,0:0:0:0:
471,255,205161,2,0,P|433:266|365:278,1,84,8|0,2:3|2:0,0:0:0:0:
200,364,205447,22,0,P|209:337|204:227,1,126,6|0,3:2|2:0,0:0:0:0:
208,240,205732,2,0,P|178:228|127:184,1,84,8|0,2:3|2:0,0:0:0:0:
274,384,206018,1,2,3:0:0:0:
130,293,206161,1,0,1:0:0:0:
328,196,206304,2,0,P|316:222|295:283,1,84,8|0,2:3|2:0,0:0:0:0:
215,327,206589,85,2,3:2:0:0:
215,327,206732,1,2,2:0:0:0:
137,183,206875,21,8,2:3:0:0:
255,133,207018,1,2,2:0:0:0:
121,108,207161,85,6,3:1:0:0:
262,215,207304,1,2,1:2:0:0:
262,215,207375,1,2,1:2:0:0:
262,215,207447,1,8,2:3:0:0:
392,106,207589,1,2,2:0:0:0:
512,68,207732,22,0,P|458:26|326:51,1,188.999994232178,6|8,1:2|2:3,0:0:0:0:
272,99,208161,1,0,1:0:0:0:
48,40,208304,2,0,P|66:59|152:75,1,94.499997116089,0|0,1:0|1:0,0:0:0:0:
305,253,208589,85,8,2:3:0:0:
305,253,208661,1,0,1:0:0:0:
305,253,208732,2,2,P|320:234|313:195,1,47.2499985580445,2|2,2:0|2:0,2:0:0:0:
272,99,208875,5,2,1:0:0:0:
234,204,209018,1,8,3:0:0:0:
342,116,209161,37,8,2:3:0:0:
160,193,209304,1,8,2:3:0:0:
329,323,209447,101,8,1:0:0:0:
349,322,209518,1,8,1:0:0:0:
362,335,209589,1,8,1:0:0:0:
381,329,209661,1,8,1:0:0:0:
331,309,209732,1,8,2:3:0:0:
283,327,209804,1,8,1:0:0:0:
252,374,209875,1,8,1:0:0:0:
317,236,210018,5,10,1:0:0:0:
232,16,210161,1,10,1:0:0:0:
232,16,210732,102,0,B|216:34|216:34|237:45|237:45|208:87,1,78.7500030040742,6|0,1:0|2:0,0:0:0:0:
232,16,211018,70,0,L|61:5,1,157.5,14|0,1:0|2:0,0:0:0:0:
0,35,211304,2,0,L|71:46,1,52.5,12|0,3:0|2:0,0:0:0:0:
230,102,211447,6,0,L|334:90,1,105,8|0,2:3|2:0,0:0:0:0:
512,281,211732,5,8,1:0:0:0:
446,250,211827,101,12,1:3:0:0:
379,270,211922,5,12,1:3:0:0:
321,303,212017,101,8,2:3:0:0:
265,358,212112,5,12,1:3:0:0:
194,364,212208,101,12,1:3:0:0:
105,334,212304,86,0,P|133:305|244:170,1,210,6|8,1:2|2:3,0:0:0:0:
194,364,212732,22,0,P|166:335|55:200,1,210,6|0,1:2|1:0,0:0:0:0:
9,114,213161,1,8,2:3:0:0:
134,326,213304,102,0,P|142:293|164:78,1,210,6|0,1:2|1:0,0:0:0:0:
216,343,213732,1,8,2:3:0:0:
82,178,213875,1,4,1:3:0:0:
285,186,214018,37,8,1:0:0:0:
0,289,214161,1,8,1:0:0:0:
5,294,214304,37,8,2:3:0:0:
125,336,214447,101,0,2:0:0:0:
187,384,214589,5,6,1:2:0:0:
482,381,215589,6,0,P|488:368|438:268,1,126,2|8,2:0|2:3,3:0:0:0:
450,273,216304,1,0,2:0:0:0:
249,183,216447,5,2,2:0:0:0:
243,178,216518,1,2,2:0:0:0:
238,173,216589,2,0,P|227:144|298:97,1,99.7499973363877,8|0,2:3|2:0,0:0:0:0:
512,0,216875,6,0,P|478:32|330:15,1,168,6|8,1:2|2:3,0:0:0:0:
504,126,217304,1,0,2:0:0:0:
413,153,217447,2,0,P|388:174|329:208,1,84,0|0,1:0|3:0,0:0:0:0:
175,324,217732,1,8,2:3:0:0:
79,258,217875,6,0,B|183:247|128:226|248:216,1,168,2|0,1:2|3:0,0:0:0:0:
409,324,218304,2,0,P|418:331|483:412,1,84,8|0,2:3|2:0,0:0:0:0:
321,175,218589,2,0,P|348:155|419:85,1,126,2|0,2:0|2:0,0:0:0:0:
448,87,218875,2,0,P|460:63|514:6,1,84,8|0,2:3|2:0,0:0:0:0:
327,264,219161,102,0,P|264:252|137:231,1,168,6|8,1:2|2:3,0:0:0:0:
249,78,219589,2,0,P|276:37|332:31,1,84,2|0,1:2|2:0,0:0:0:0:
413,246,219875,2,0,P|415:264|447:348,1,84,0|8,1:0|2:3,0:0:0:0:
512,73,220161,6,0,P|508:123|399:159,1,168,2|0,1:2|1:0,0:0:0:0:
512,270,220589,1,10,2:3:0:0:
366,170,220732,1,8,2:0:0:0:
360,167,220804,1,8,2:0:0:0:
355,163,220875,2,0,P|312:147|250:173,1,84,2|0,1:2|1:0,0:0:0:0:
73,241,221161,1,10,2:3:0:0:
88,355,221304,102,0,P|105:328|194:210,1,168,6|2,1:2|1:2,0:0:0:0:
98,92,221732,2,0,P|83:75|43:13,1,84,8|0,2:3|2:0,0:0:0:0:
78,200,222018,5,2,1:2:0:0:
152,145,222161,1,2,1:2:0:0:
240,32,222304,1,8,2:3:0:0:
23,136,222447,102,0,B|40:150|44:178|44:178|100:198|100:198|102:235|128:264,1,168,2|0,1:2|1:0,0:0:0:0:
276,346,222875,2,0,P|291:349|377:373,1,84,10|0,2:3|2:0,0:0:0:0:
187,342,223161,5,2,1:2:0:0:
261,258,223304,1,2,1:2:0:0:
90,349,223447,1,10,2:3:0:0:
278,269,223589,2,0,P|297:218|182:161,1,178.500003404617,2|0,1:2|1:0,0:0:0:0:
17,141,224018,102,0,P|79:157|103:188,1,89.2500017023087,8|0,2:3|2:0,0:0:0:0:
230,362,224304,2,0,P|200:317|148:297,1,89.2500017023087,2|2,1:2|1:2,0:0:0:0:
335,159,224589,1,10,2:3:0:0:
512,290,224732,6,0,P|443:305|338:222,1,188.999994232178,2|2,1:2|1:2,0:0:0:0:
129,180,225161,2,0,P|144:154|201:38,1,141.749995674133,8|0,2:3|2:0,0:0:0:0:
193,54,225447,2,0,P|156:37|97:0,1,94.499997116089,2|0,1:2|2:0,0:0:0:0:
313,209,225732,5,10,2:3:0:0:
334,211,225804,1,0,2:3:0:0:
354,205,225875,1,8,2:3:0:0:
375,207,225947,1,0,2:0:0:0:
451,189,226018,6,0,P|421:210|332:296,1,157.5,6|0,1:2|2:0,0:0:0:0:
284,357,226304,2,0,P|294:333|322:303,1,52.5,8|0,2:3|2:0,0:0:0:0:
451,189,226447,102,0,B|417:187|417:187|375:172|375:172|337:171,1,105,2|0,1:2|2:0,0:0:0:0:
451,377,226732,1,10,1:2:0:0:
485,382,226804,1,8,1:2:0:0:
510,362,226875,1,8,2:0:0:0:
421,106,227018,6,0,P|382:76|238:81,1,157.5,6|0,1:2|2:0,0:0:0:0:
271,68,227304,1,2,1:2:0:0:
50,105,227447,101,10,2:3:0:0:
128,148,227589,1,0,2:0:0:0:
238,351,227732,5,2,1:2:0:0:
191,190,227875,1,2,1:2:0:0:
326,85,228018,101,10,2:3:0:0:
255,146,228161,1,0,2:0:0:0:
48,17,228304,6,0,P|74:13|201:66,1,157.5,2|0,1:2|2:0,0:0:0:0:
325,124,228589,2,0,P|349:125|382:91,1,52.5,10|0,2:3|2:0,0:0:0:0:
512,119,228732,102,0,P|508:79|376:41,1,157.5,2|0,1:2|2:0,0:0:0:0:
334,62,229018,2,0,P|327:85|360:116,1,52.5,2|0,1:2|2:0,0:0:0:0:
512,246,229161,5,10,2:3:0:0:
334,62,229304,102,0,P|297:80|175:130,1,157.5,2|0,1:2|2:0,0:0:0:0:
105,203,229589,1,0,1:0:0:0:
116,23,229732,6,0,P|146:13|267:93,1,157.5,10|0,2:3|2:0,0:0:0:0:
312,127,230018,102,0,P|310:143|296:177,1,39.3750015020371,2|0,1:2|2:0,0:0:0:0:
168,272,230161,2,0,P|169:289|185:341,1,57.7500017623902,2|0,1:2|2:0,1:0:0:0:
350,383,230304,1,10,2:3:0:0:
168,272,230447,6,0,B|78:256|107:317|-20:294,1,157.5,6|0,1:2|2:0,0:0:0:0:
0,290,230732,1,2,1:2:0:0:
232,202,230875,1,10,2:3:0:0:
136,134,231018,2,0,P|112:119|70:121,2,52.5,2|0|2,2:0|2:0|1:2,1:0:0:0:
366,251,231304,2,0,P|330:247|249:295,1,105,2|8,1:2|2:3,0:0:0:0:
98,373,231589,102,0,P|119:350|180:233,1,157.5,2|0,1:2|2:0,0:0:0:0:
224,144,231875,2,0,P|225:123|198:81,1,52.5,0|0,1:0|2:0,0:0:0:0:
42,15,232018,6,0,P|-2:30|22:86,1,105,10|0,2:3|2:0,0:0:0:0:
71,165,232232,1,0,2:0:0:0:
83,171,232304,1,2,1:2:0:0:
241,85,232447,1,2,1:2:0:0:
80,139,232589,1,10,2:3:0:0:
301,252,232732,2,0,L|330:65,1,157.5,2|0,1:2|2:0,0:0:0:0:
356,26,233018,2,0,L|365:93,1,52.5,0|0,1:0|2:0,0:0:0:0:
425,259,233161,102,0,B|449:262|472:280|472:280|484:253|521:232,1,105,8|0,2:3|2:0,0:0:0:0:
253,141,233447,2,0,P|227:142|148:177,1,105,2|2,1:2|1:2,0:0:0:0:
76,248,233661,1,0,2:0:0:0:
76,248,233732,1,10,2:3:0:0:
0,17,233875,6,0,P|31:13|141:87,1,157.5,2|0,1:2|2:0,0:0:0:0:
218,129,234161,102,0,B|197:160|220:143|189:186,1,52.5,0|0,1:0|2:0,0:0:0:0:
121,334,234304,1,8,2:3:0:0:
231,151,234447,5,8,1:2:0:0:
231,151,234518,1,8,2:0:0:0:
231,151,234589,2,0,B|225:126|233:136|215:82,1,52.5,8|0,1:3|2:0,3:0:0:0:
282,63,234732,2,0,B|279:94|276:71|263:132,1,52.5,8|0,1:3|2:0,3:0:0:0:
151,244,234875,102,0,P|126:236|102:198,1,68.2499968757631,8|0,2:3|2:0,1:0:0:0:
312,101,235018,2,0,P|332:120|345:163,1,68.2499968757631,8|0,1:3|2:0,1:0:0:0:
0,170,235161,86,2,P|39:133|166:155,1,173.250005287171,6|0,1:2|2:0,0:1:0:0:
298,227,235447,22,0,P|305:257|281:297,1,57.7500017623902,8|0,2:3|2:0,0:0:0:0:
97,375,235589,6,0,P|52:322|49:269,1,115.50000352478,2|0,2:0|1:0,0:0:0:0:
229,163,235875,2,0,P|268:146|311:136,1,78.7500030040742,2|8,1:2|2:3,0:0:0:0:
143,252,236161,70,0,B|250:225|214:269|334:242,1,188.999994232178,2|0,1:2|2:0,0:0:0:0:
506,222,236447,2,0,P|521:185|501:157,1,62.9999980773926,2|0,1:2|2:0,0:0:0:0:
478,48,236589,2,0,P|387:100|390:179,1,188.999994232178,10|0,2:3|2:0,0:0:0:0:
485,332,236875,37,2,1:2:0:0:
387,174,237018,1,2,1:2:0:0:
485,332,237161,2,0,P|436:300|374:296,1,105,10|0,2:3|2:0,0:0:0:0:
274,350,237447,69,2,1:2:0:0:
193,250,237589,1,2,2:0:0:0:
75,294,237732,1,10,2:3:0:0:
322,241,237875,37,2,1:2:0:0:
181,338,238018,1,2,2:0:0:0:
98,191,238161,1,2,1:2:0:0:
322,241,238304,70,0,P|296:229|260:234,1,52.5,10|0,2:3|2:0,0:0:0:0:
108,358,238447,38,0,B|82:334|48:324|15:330|15:330|9:328|9:328|-15:264|41:242,1,204.749990627289,2|0,1:2|2:0,0:0:0:0:
117,176,238732,2,0,P|123:144|109:125,1,52.5,0|0,1:0|2:0,0:0:0:0:
19,120,238875,69,10,2:3:0:0:
124,266,239018,1,2,2:0:0:0:
279,146,239161,5,2,1:2:0:0:
279,146,239232,2,0,L|287:85,1,52.5,2|2,1:0|1:2,0:0:0:0:
191,254,239447,6,0,L|123:266,1,68.2499968757631,10|0,2:3|2:0,0:0:0:0:
406,181,239589,86,2,B|346:182|315:135|315:135|305:130|305:130|342:163|319:210,1,204.749990627289,6|0,1:2|2:0,0:1:0:0:
455,244,239875,38,0,B|484:215|513:196|513:196|494:172|478:135,1,136.499993751526,2|8,1:2|2:3,0:0:0:0:
126,141,240161,2,0,P|191:142|248:209,1,136.499993751526,2|2,2:0|1:2,0:0:0:0:
384,265,240447,69,10,1:2:0:0:
406,267,240518,1,8,1:2:0:0:
428,273,240589,1,8,1:3:0:0:
499,64,240732,38,0,P|432:62|374:109,1,136.499993751526,2|0,1:2|2:0,0:0:0:0:
242,189,241018,1,0,1:0:0:0:
64,55,241161,2,0,B|90:82|105:116|105:116|129:99|181:88,1,136.499993751526,10|0,2:3|2:0,0:0:0:0:
242,189,241447,69,2,1:2:0:0:
81,138,241589,1,2,1:2:0:0:
50,311,241732,1,10,2:3:0:0:
135,207,241875,38,0,B|155:222|176:227|176:227|185:254|185:254|232:286|275:346,1,204.749990627289,2|0,1:2|2:0,0:0:0:0:
50,311,242161,2,0,P|53:277|81:260,1,68.2499968757631,0|0,1:0|0:0,0:0:0:0:
242,189,242304,86,0,B|245:161|259:144|259:144|231:139|209:110,1,94.499997116089,8|0,2:3|0:0,0:0:0:0:
161,65,242589,6,0,P|186:47|216:45,1,52.5,2|0,1:2|2:0,0:0:0:0:
363,117,242732,2,0,P|344:98|300:84,1,52.5,2|0,1:2|2:0,0:0:0:0:
79,60,242875,2,0,B|96:68|96:68|112:69|112:69|134:76,1,52.5,10|0,2:3|2:0,0:0:0:0:
427,60,243018,86,0,P|308:58|243:134,1,204.749990627289,2|0,1:2|0:0,0:0:0:0:
225,218,243304,2,0,P|249:248|296:251,1,68.2499968757631,2|0,1:2|2:0,0:0:0:0:
496,199,243447,2,0,P|516:163|490:80,1,105,10|0,2:3|2:0,0:0:0:0:
267,37,243732,37,2,1:2:0:0:
302,177,243875,1,0,1:0:0:0:
180,345,244018,101,10,2:3:0:0:
159,350,244089,1,8,1:0:0:0:
138,348,244161,1,8,1:0:0:0:
118,354,244232,1,8,1:0:0:0:
92,368,244304,6,0,P|17:325|5:207,1,204.749990627289,6|0,1:2|2:0,0:0:0:0:
16,82,244589,102,0,P|51:65|88:73,1,68.2499968757631,8|0,2:3|2:0,0:0:0:0:
181,44,244732,6,0,P|192:108|154:181,1,136.499993751526,2|0,2:0|1:0,0:0:0:0:
94,238,245018,1,10,1:2:0:0:
108,264,245089,1,8,2:0:0:0:
119,293,245161,1,8,2:3:0:0:
384,216,245304,70,0,B|399:190|431:180|431:180|414:167|414:167|358:181|288:151,1,204.749990627289,2|0,1:2|2:0,0:0:0:0:
220,110,245589,2,0,P|256:123|289:139,1,68.2499968757631,2|0,1:2|2:0,0:0:0:0:
384,216,245732,21,10,2:3:0:0:
512,266,245875,1,2,2:0:0:0:
400,344,246018,5,2,1:2:0:0:
272,380,246161,1,2,1:2:0:0:
199,240,246304,101,10,2:3:0:0:
330,278,246447,1,2,2:0:0:0:
182,377,246589,6,0,B|150:341|85:362|85:362|122:303|122:249,1,204.749990627289,2|0,1:2|2:0,0:0:0:0:
39,246,246875,102,0,P|72:248|100:266,1,68.2499968757631,10|0,2:3|2:0,0:0:0:0:
205,294,247018,6,0,B|300:270|302:317|413:284,1,204.749990627289,2|0,1:2|2:0,0:0:0:0:
494,222,247304,102,0,B|490:188|490:188|456:170,1,68.2499968757631,2|0,1:2|2:0,0:0:0:0:
378,135,247447,2,0,B|347:142|347:142|342:146|342:146|304:154,1,68.2499968757631,10|0,2:3|2:0,0:0:0:0:
184,216,247589,6,0,B|155:172|99:162|99:162|95:157|95:157|143:122|147:63,1,204.749990627289,2|0,1:2|2:0,0:0:0:0:
286,151,247875,102,0,P|257:132|223:130,1,68.2499968757631,0|0,1:0|2:0,0:0:0:0:
120,269,248018,6,0,B|138:208|133:160|133:160|84:149|47:86,1,220.499993270874,10|0,2:3|2:0,0:0:0:0:
26,6,248304,102,0,B|76:14|76:14|82:15|82:15|102:17,1,62.9999980773926,2|0,1:2|2:0,0:0:0:0:
274,48,248447,2,0,B|318:43|318:43|321:41|321:41|356:36,1,62.9999980773926,2|0,1:2|2:0,0:0:0:0:
502,6,248589,1,8,2:3:0:0:
268,27,248732,6,2,B|212:6|170:48|170:48|168:51|168:51|165:70|165:70|223:128|228:209,1,272.999987503052,6|2,1:2|1:2,0:1:0:0:
238,218,249089,1,10,2:0:0:0:
253,223,249161,1,10,2:3:0:0:
433,180,249304,2,0,P|423:147|390:129,1,68.2499968757631,0|0,2:0|2:0,0:0:0:0:
157,144,249447,102,0,P|190:137|223:129,1,68.2499968757631,2|0,1:2|2:0,0:0:0:0:
333,190,249589,1,10,1:2:0:0:
312,161,249661,1,10,2:0:0:0:
309,128,249732,1,10,2:3:0:0:
510,345,249875,6,0,P|430:300|300:284,1,204.749990627289,2|0,1:2|2:0,0:0:0:0:
239,333,250161,2,0,P|197:343|162:344,1,68.2499968757631,0|0,1:0|2:0,0:0:0:0:
7,302,250304,101,8,2:3:0:0:
0,272,250375,1,2,2:0:0:0:
14,244,250447,1,2,2:0:0:0:
47,234,250518,1,2,2:0:0:0:
77,247,250589,2,0,L|182:265,1,105,2|2,1:2|1:2,0:0:0:0:
307,286,250875,1,10,2:3:0:0:
167,172,251018,6,0,B|136:126|91:112|91:112|104:97|104:78,1,125.999996154785,2|0,1:2|2:0,0:0:0:0:
0,15,251304,2,0,P|29:12|60:18,1,62.9999980773926,0|0,1:0|2:0,0:0:0:0:
167,172,251447,2,0,P|264:173|346:95,1,204.749990627289,10|0,2:3|2:0,0:0:0:0:
284,26,251732,102,0,L|207:18,1,68.2499968757631,2|0,1:2|2:0,0:0:0:0:
137,0,251875,1,2,1:2:0:0:
141,28,251947,1,8,3:2:0:0:
144,54,252018,1,10,2:3:0:0:
341,104,252161,6,0,P|409:88|483:75,1,136.499993751526,2|0,1:2|2:0,0:0:0:0:
512,0,252447,1,0,1:0:0:0:
244,103,252589,102,0,B|251:119|251:119|258:122|258:122|263:131|263:131|279:239,1,136.499993751526,10|10,2:0|1:2,0:0:0:0:
270,252,252804,1,8,1:2:0:0:
289,256,252875,1,10,1:2:0:0:
436,217,253018,1,10,1:2:0:0:
252,345,253161,5,10,2:0:0:0:
73,297,253304,1,10,1:2:0:0:
260,367,253447,70,2,P|277:303|375:251,1,173.250005287171,6|0,1:0|2:0,0:1:0:0:
437,294,253732,1,8,2:3:0:0:
347,343,253875,1,0,2:0:0:0:
216,244,254018,6,0,P|209:192|206:146,1,94.499997116089,0|0,1:0|1:0,0:0:0:0:
198,41,254304,1,8,2:3:0:0:
127,186,254447,102,0,P|64:178|-6:139,1,115.50000352478,2|0,1:0|2:0,0:0:0:0:
0,75,254732,1,0,1:0:0:0:
206,150,254875,2,0,P|288:126|282:41,1,173.250005287171,10|0,2:3|2:0,0:0:0:0:
219,17,255161,5,2,1:3:0:0:
83,97,255304,1,0,1:0:0:0:
219,17,255447,2,0,P|238:70|276:131,1,115.50000352478,10|0,2:3|2:0,0:0:0:0:
459,243,255732,102,0,P|487:185|502:120,1,115.50000352478,2|0,1:0|2:0,0:0:0:0:
470,26,256018,1,8,2:3:0:0:
392,173,256161,2,0,P|326:196|254:207,1,115.50000352478,2|0,2:3|1:0,0:0:0:0:
165,145,256447,5,0,1:0:0:0:
249,281,256589,1,8,2:3:0:0:
165,145,256732,2,0,P|202:98|209:30,1,115.50000352478,2|0,1:0|2:0,0:0:0:0:
142,0,257018,1,0,1:0:0:0:
194,221,257161,2,0,P|137:241|77:279,1,115.50000352478,10|0,2:3|2:0,0:0:0:0:
213,224,257447,102,0,P|260:216|314:213,1,94.499997116089,2|0,1:3|1:0,0:0:0:0:
324,204,257661,1,0,2:0:0:0:
327,225,257732,1,8,2:3:0:0:
89,269,257875,6,0,P|40:190|24:80,1,188.999994232178,4|0,1:2|2:0,0:0:0:0:
17,19,258161,2,0,P|67:24|82:40,1,62.9999980773926,0|0,1:0|2:0,0:0:0:0:
176,136,258304,102,0,P|258:151|360:183,1,188.999994232178,8|0,2:3|2:0,0:0:0:0:
421,234,258589,5,0,1:0:0:0:
346,96,258732,1,0,1:0:0:0:
500,166,258875,101,8,2:3:0:0:
442,318,259018,2,0,P|375:330|306:348,1,125.999996154785,2|0,1:0|2:0,0:0:0:0:
214,368,259304,1,0,1:0:0:0:
106,291,259447,6,0,B|39:272|70:254|-21:234,1,125.999996154785,10|0,2:3|2:0,0:0:0:0:
116,319,259732,2,0,P|162:276|150:214,1,125.999996154785,2|0,1:3|1:0,0:0:0:0:
1,336,260018,1,8,2:3:0:0:
144,210,260161,102,0,B|124:197|124:197|124:143|87:90,1,125.999996154785,2|0,1:0|2:0,0:0:0:0:
11,20,260447,1,0,1:0:0:0:
29,141,260589,2,0,P|107:164|207:110,1,188.999994232178,8|0,2:3|2:0,0:0:0:0:
214,40,260875,5,0,1:0:0:0:
214,40,261018,1,0,1:0:0:0:
179,124,261161,1,8,2:3:0:0:
246,207,261304,1,0,2:0:0:0:
216,362,261447,102,2,P|209:300|280:352,1,188.999994232178,4|0,1:2|2:0,0:1:0:0:
256,377,261732,22,0,B|250:360|250:360|231:346|231:346|234:305,1,62.9999980773926,8|0,2:3|2:0,0:0:0:0:
235,204,261875,6,0,B|267:125|259:47|259:47|233:22,1,188.999994232178,6|0,1:0|2:0,0:0:0:0:
224,19,262161,2,0,P|227:61|247:93,1,62.9999980773926,0|0,1:0|2:0,0:0:0:0:
351,182,262304,69,8,2:3:0:0:
385,202,262375,1,8,1:0:0:0:
435,205,262447,1,8,1:0:0:0:
476,183,262518,1,8,1:0:0:0:
491,147,262589,2,2,P|448:130|368:163,1,118.125004506111,4|0,1:2|2:0,0:1:0:0:
295,150,262875,6,0,P|301:191|332:221,1,62.9999980773926,8|0,2:3|2:0,0:0:0:0:
387,301,263018,6,0,B|416:307|416:307|427:316|427:316|462:323,1,62.9999980773926,4|0,1:0|2:0,0:0:0:0:
196,359,263304,6,0,B|167:365|167:365|156:374|156:374|121:381,1,62.9999980773926,4|0,1:0|2:0,0:0:0:0:
314,381,263589,70,0,B|291:264|186:226|186:226|172:181,1,251.999992309571,4|0,1:0|1:0,0:0:0:0:
130,83,264018,1,8,2:3:0:0:
166,12,264161,1,0,2:0:0:0:
352,65,264304,22,0,P|328:91|290:99,1,62.9999980773926,0|0,1:0|2:0,0:0:0:0:
204,117,264447,1,0,1:0:0:0:
40,91,264589,1,8,2:3:0:0:
166,12,264732,6,0,P|210:48|222:115,1,118.125004506111,6|0,1:0|2:0,0:0:0:0:
184,175,265018,85,0,1:0:0:0:
244,28,265161,1,8,2:3:0:0:
184,175,265304,2,0,P|216:239|307:264,1,157.5,2|0,1:0|2:0,0:0:0:0:
364,229,265589,101,0,1:0:0:0:
491,175,265732,1,8,2:3:0:0:
364,229,265875,2,0,P|392:286|383:355,1,125.999996154785,2|0,1:0|2:0,0:0:0:0:
297,384,266161,1,0,1:0:0:0:
375,218,266304,6,0,P|390:165|371:116,1,105,8|0,2:3|2:0,0:0:0:0:
364,115,266518,1,0,2:0:0:0:
354,117,266589,102,0,P|327:145|322:176,1,52.5,0|0,1:0|2:0,0:0:0:0:
349,287,266732,2,0,P|338:249|313:229,1,52.5,0|0,1:0|2:0,0:0:0:0:
208,198,266875,2,0,P|245:207|275:196,1,52.5,8|0,2:3|2:0,0:0:0:0:
404,191,267018,6,0,P|461:157|453:22,1,210,2|0,1:0|1:0,0:0:0:0:
222,111,267447,2,0,P|246:184|260:251,1,125.999996154785,8|0,2:3|2:0,0:0:0:0:
178,375,267732,101,0,1:0:0:0:
307,303,267875,1,0,1:0:0:0:
179,244,268018,1,8,2:3:0:0:
316,150,268161,6,0,B|382:148|431:180|431:180|442:177|442:177|429:149|378:150,1,188.999994232178,2|0,1:0|2:0,0:0:0:0:
306,161,268447,2,0,L|254:170,1,52.5,0|0,1:0|2:0,0:0:0:0:
140,273,268589,102,0,B|49:249|66:145|66:145|82:164,1,188.999994232178,8|0,2:3|2:0,0:0:0:0:
89,176,268875,2,0,P|57:212|-1:213,1,105,0|0,1:0|1:0,0:0:0:0:
127,95,269161,1,8,2:3:0:0:
254,169,269304,6,0,B|298:148|312:120|312:120|342:134|393:131,1,157.5,2|0,1:0|2:0,0:0:0:0:
456,125,269589,2,0,L|406:139,1,52.5,0|0,1:0|2:0,0:0:0:0:
251,248,269732,102,0,P|195:247|158:178,1,125.999996154785,8|0,2:3|2:0,0:0:0:0:
163,177,269947,1,0,2:0:0:0:
175,167,270018,1,0,1:0:0:0:
333,217,270161,2,0,P|337:255|322:279,1,62.9999980773926,8|0,1:0|2:0,0:0:0:0:
131,300,270304,2,0,P|104:282|94:246,1,62.9999980773926,8|0,2:3|2:0,0:0:0:0:
169,84,270447,6,0,B|292:98|234:122|347:139,1,188.999994232178,2|0,1:0|2:0,0:0:0:0:
367,144,270732,2,0,L|424:135,1,52.5,2|0,1:0|2:0,0:0:0:0:
511,117,270875,101,8,2:3:0:0:
259,196,271018,2,0,P|248:167|251:138,1,52.5,0|0,1:0|2:0,0:0:0:0:
347,10,271161,21,8,1:0:0:0:
420,20,271232,1,8,1:0:0:0:
455,62,271304,1,8,1:0:0:0:
452,108,271375,1,8,1:0:0:0:
418,135,271447,1,8,2:3:0:0:
373,155,271518,1,8,1:0:0:0:
356,196,271589,1,8,1:0:0:0:
377,238,271661,1,8,1:0:0:0:
410,250,271732,22,0,P|454:254|531:271,1,118.125004506111,4|0,1:0|2:0,0:0:0:0:
494,232,272018,70,0,P|487:206|479:178,1,52.5,8|0,2:3|2:0,0:0:0:0:
338,310,272161,6,0,B|308:320|308:320|302:328|302:328|273:336,1,62.9999980773926,4|0,1:0|2:0,0:0:0:0:
203,143,272447,6,0,B|173:133|173:133|167:125|167:125|138:117,1,62.9999980773926,4|0,1:0|2:0,0:0:0:0:
42,239,272732,70,0,B|27:277|-11:286|-11:286|-16:287|-16:287|17:277|87:285|100:370,1,220.499993270874,4|0,1:0|2:0,0:0:0:0:
94,348,273018,6,0,L|27:364,1,62.9999980773926,0|0,1:0|2:0,0:0:0:0:
160,269,273161,1,10,2:3:0:0:
300,341,273304,1,10,2:3:0:0:
454,317,273447,102,0,P|421:293|388:288,1,62.9999980773926,2|0,1:3|2:0,0:0:0:0:
333,250,273589,2,0,P|287:256|261:277,1,62.9999980773926,10|0,1:3|2:0,0:0:0:0:
184,349,273732,1,8,2:3:0:0:
46,230,273875,6,0,B|18:191|18:191|57:121|13:34,1,188.999994232178,4|0,1:0|2:0,0:0:0:0:
22,55,274161,102,0,L|92:70,1,62.9999980773926,10|0,1:3|2:0,0:0:0:0:
198,153,274304,2,0,P|234:146|259:121,1,62.9999980773926,10|0,1:3|2:0,0:0:0:0:
335,30,274447,22,0,P|242:19|163:87,1,188.999994232178,4|0,1:0|2:0,0:0:0:0:
343,149,274732,6,0,P|333:77|286:37,1,125.999996154785,4|8,1:0|2:3,0:0:0:0:
177,156,275018,70,2,P|256:199|354:160,1,188.999994232178,4|0,1:0|2:0,0:1:0:0:
420,99,275304,1,8,1:2:0:0:
512,126,275447,1,8,2:3:0:0:
443,193,275589,1,0,1:0:0:0:
252,109,275732,21,8,1:2:0:0:
178,88,275804,1,8,1:2:0:0:
113,103,275875,1,8,1:2:0:0:
79,155,275947,1,8,1:2:0:0:
81,202,276018,1,8,3:2:0:0:
115,225,276089,1,8,3:2:0:0:
145,217,276161,1,8,3:2:0:0:
160,190,276232,1,8,3:2:0:0:
154,176,276304,102,0,P|91:210|65:323,1,188.999994232178,4|0,1:0|2:0,0:0:0:0:
127,372,276589,2,0,P|178:368|200:348,1,62.9999980773926,8|0,2:3|2:0,0:0:0:0:
272,235,276732,2,0,P|246:187|231:139,2,105,2|0|0,2:1|1:0|1:0,0:0:0:0:
351,275,277161,1,8,2:3:0:0:
190,280,277304,102,0,P|153:203|39:166,1,188.999994232178,2|0,1:0|2:0,0:0:0:0:
7,224,277589,2,0,P|44:246|66:243,1,62.9999980773926,0|0,1:0|2:0,0:0:0:0:
154,104,277732,1,8,2:3:0:0:
79,26,277875,1,8,2:1:0:0:
9,96,278018,5,0,1:0:0:0:
9,96,278161,1,0,1:0:0:0:
204,34,278304,2,0,B|238:38|238:38|241:42|241:42|269:48,1,62.9999980773926,8|0,2:3|2:0,0:0:0:0:
452,97,278447,102,2,B|479:57|408:6|323:81|407:178,1,220.499993270874,6|0,1:0|2:0,0:1:0:0:
408,171,278732,2,0,L|467:185,1,52.5,8|0,1:0|2:0,0:0:0:0:
177,240,278875,6,0,B|134:222|89:213|89:213|113:137|116:79,1,204.749990627289,8|0,2:3|2:0,0:0:0:0:
166,43,279161,101,0,1:0:0:0:
367,89,279304,1,0,1:0:0:0:
216,109,279447,1,8,2:3:0:0:
354,266,279589,6,0,P|313:190|224:191,1,173.250005287171,6|0,2:1|2:0,0:0:0:0:
221,196,279875,2,0,P|222:217|228:229,1,26.25,8|8,2:3|2:3,0:3:0:0:
264,289,280018,21,12,2:3:0:0:
273,330,280161,1,8,2:3:0:0:
315,220,280304,85,4,2:3:0:0:
330,97,280447,1,4,2:3:0:0:
182,284,280589,101,8,2:3:0:0:
166,376,280732,1,0,1:0:0:0:
273,330,280875,53,0,2:0:0:0:
421,349,281589,5,0,2:0:0:0:
500,368,282232,101,0,2:0:0:0:
442,251,283089,5,0,2:0:0:0:
502,64,284304,5,0,2:0:0:0:
512,60,284375,1,0,2:0:0:0:
