osu file format v14

[General]
AudioFilename: audio.ogg
AudioLeadIn: 0
PreviewTime: 125589
Countdown: 0
SampleSet: Soft
StackLeniency: 0.7
Mode: 0
LetterboxInBreaks: 0
WidescreenStoryboard: 1

[Editor]
Bookmarks: 280874
DistanceSpacing: 1.3
BeatDivisor: 4
GridSize: 32
TimelineZoom: 3.699999

[Metadata]
Title:Shizuku
TitleUnicode:雫
Artist:Asaki
ArtistUnicode:あさき
Creator:seros
Version:BONKI'S HYPER
Source:ポップンミュージック 12 いろは
Tags:kalibe yukic bongo yuuki_noa snowy_wind yuuki noa snowy wind ttmnzk tt mouse drop 神曲 shinkyoku おんなのこ Onnanoko ロングバージョン Teardrops Long Version orie Pop'n Music 12 Iroha Kaimei Riddles Lively beatmania IIDX INFINITAS (2020) DDR DanceDanceRevolution X3 VS 2ndMIX REFLEC BEAT limelight plus ノスタルジア FORTE nostalgia ポップンリズミン pop'n rhythm ダンキラ!!! DANKIRA!!! Boys, be DANCING! hd bemani konami japanese rock j-rock jrock pop j-pop jpop poetic rhythm game
BeatmapID:4101130
BeatmapSetID:1975936

[Difficulty]
HPDrainRate:5
CircleSize:4
OverallDifficulty:8
ApproachRate:8
SliderMultiplier:1.8
SliderTickRate:1

[Events]
//Background and Video events
0,0,"84919303_p0.jpg",0,0
//Break Periods
//Storyboard Layer 0 (Background)
//Storyboard Layer 1 (Fail)
//Storyboard Layer 2 (Pass)
//Storyboard Layer 3 (Foreground)
//Storyboard Layer 4 (Overlay)
//Storyboard Sound Samples

[TimingPoints]
15732,285.714285714286,4,2,1,60,1,0
16303,-100,4,2,1,25,0,0
16874,-100,4,2,30,70,0,0
17874,-100,4,2,31,70,0,0
18159,-100,4,2,32,70,0,0
18589,-100,4,2,33,70,0,0
18874,-100,4,2,34,70,0,0
19017,-100,4,2,34,60,0,0
19160,-100,4,2,35,70,0,0
19445,-100,4,2,36,70,0,0
19589,-100,4,2,37,70,0,0
19874,-100,4,2,36,70,0,0
20017,-100,4,2,35,70,0,0
20160,-100,4,2,38,70,0,0
20302,-100,4,2,38,60,0,0
20446,-100,4,2,39,70,0,0
20874,-100,4,2,40,70,0,0
21160,-100,4,2,36,70,0,0
21303,-100,4,2,39,70,0,0
21588,-100,4,2,36,70,0,0
21731,-100,4,2,38,70,0,0
22017,-100,4,2,35,70,0,0
22160,-100,4,2,41,70,0,0
22302,-100,4,2,38,70,0,0
22446,-100,4,2,42,70,0,0
22874,-100,4,2,43,70,0,0
23160,-100,4,2,35,70,0,0
23303,-100,4,2,36,70,0,0
23374,-100,4,2,36,60,0,0
23445,-100,4,2,36,70,0,0
23589,-100,4,2,40,70,0,0
24017,-100,4,2,1,70,0,0
24302,-100,4,2,33,70,0,0
24446,-100,4,2,36,70,0,0
24589,-100,4,2,35,70,0,0
24732,-100,4,2,43,70,0,0
25732,-100,4,2,1,70,0,0
25874,-100,4,2,1,60,0,0
26017,-100,4,2,30,70,0,0
26446,-100,4,2,45,70,0,0
26732,-100,4,2,30,70,0,0
27017,-100,4,2,46,70,0,0
27303,-100,4,2,32,70,0,0
27374,-100,4,2,32,60,0,0
27445,-100,4,2,32,70,0,0
28017,-100,4,2,34,70,0,0
28303,-100,4,2,35,70,0,0
28517,-100,4,2,35,60,0,0
28589,-100,4,2,36,70,0,0
28731,-100,4,2,37,70,0,0
28874,-100,4,2,32,70,0,0
29017,-100,4,2,36,70,0,0
29159,-100,4,2,35,70,0,0
29303,-100,4,2,38,70,0,0
29732,-100,4,2,39,70,0,0
30017,-100,4,2,34,70,0,0
30160,-100,4,2,36,70,0,0
30446,-100,4,2,39,70,0,0
30731,-100,4,2,36,70,0,0
30874,-100,4,2,38,70,0,0
31016,-100,4,2,38,60,0,0
31160,-100,4,2,38,70,0,0
31303,-100,4,2,41,70,0,0
31445,-100,4,2,41,60,0,0
31589,-100,4,2,47,85,0,0
32017,-100,4,2,43,85,0,0
32303,-100,4,2,35,85,0,0
32446,-100,4,2,32,85,0,0
32589,-100,4,2,37,85,0,0
32732,-100,4,2,40,85,0,0
33446,-100,4,2,32,85,0,0
33588,-100,4,2,36,85,0,0
33732,-100,4,2,35,85,0,0
33874,-100,4,2,43,85,0,0
34303,-100,4,2,1,85,0,0
35160,-111.111111111111,4,2,1,60,0,0
36017,-111.111111111111,4,2,1,50,0,0
37446,-250,4,2,1,50,0,0
37660,-250,4,2,1,60,0,0
37732,-250,4,2,1,50,0,0
37874,-142.857142857143,4,2,1,50,0,0
38303,-111.111111111111,4,2,1,50,0,0
38731,-111.111111111111,4,2,1,60,0,0
38874,-111.111111111111,4,2,1,50,0,0
39588,-111.111111111111,4,2,1,60,0,0
39732,-111.111111111111,4,2,1,50,0,0
40731,-111.111111111111,4,2,1,60,0,0
40874,-111.111111111111,4,2,1,50,0,0
41946,-111.111111111111,4,2,1,60,0,0
42017,-111.111111111111,4,2,1,50,0,0
47159,-111.111111111111,4,2,1,60,0,0
47303,-111.111111111111,4,2,1,50,0,0
47588,-111.111111111111,4,2,1,60,0,0
47732,-111.111111111111,4,2,1,50,0,0
50302,-111.111111111111,4,2,1,60,0,0
50446,-111.111111111111,4,2,1,50,0,0
51016,-111.111111111111,4,2,1,60,0,0
51160,-111.111111111111,4,2,1,50,0,0
51302,-111.111111111111,4,2,1,60,0,0
51446,-111.111111111111,4,2,1,50,0,0
53302,-111.111111111111,4,2,1,60,0,0
53446,-111.111111111111,4,2,1,50,0,0
54445,-111.111111111111,4,2,1,60,0,0
54589,-111.111111111111,4,2,1,50,0,0
55588,-111.111111111111,4,2,1,60,0,0
55732,-111.111111111111,4,2,1,50,0,0
55874,-111.111111111111,4,2,1,60,0,0
56016,-111.111111111111,4,2,1,50,0,0
56731,-111.111111111111,4,2,1,60,0,0
56874,-111.111111111111,4,2,1,50,0,0
58588,-111.111111111111,4,2,1,60,0,0
58732,-111.111111111111,4,2,1,50,0,0
59016,-111.111111111111,4,2,1,60,0,0
59160,-111.111111111111,4,2,1,50,0,0
61874,-222.222222222222,4,2,24,60,0,0
62016,-222.222222222222,4,2,21,60,0,0
62160,-222.222222222222,4,2,22,60,0,0
62303,-222.222222222222,4,2,24,60,0,0
62446,-222.222222222222,4,2,21,60,0,0
62589,-100,4,2,23,60,0,0
62874,-100,4,2,1,60,0,0
71160,-100,4,2,1,40,0,0
71732,-100,4,2,30,75,0,0
71874,-100,4,2,30,60,0,0
72016,-100,4,2,30,75,0,0
72445,-100,4,2,30,70,0,0
72732,-100,4,2,31,70,0,0
72874,-100,4,2,31,60,0,0
73017,-100,4,2,31,70,0,0
73302,-100,4,2,31,60,0,0
73446,-100,4,2,1,70,0,0
73732,-100,4,2,35,60,0,0
74302,-100,4,2,36,60,0,0
74446,-100,4,2,37,60,0,0
74588,-100,4,2,33,60,0,0
74732,-100,4,2,36,60,0,0
74874,-100,4,2,35,60,0,0
75017,-100,4,2,38,60,0,0
75302,-100,4,2,1,70,0,0
75446,-100,4,2,37,70,0,0
75588,-100,4,2,37,60,0,0
75732,-100,4,2,35,70,0,0
76017,-100,4,2,36,70,0,0
76160,-100,4,2,37,70,0,0
76302,-100,4,2,37,60,0,0
76446,-100,4,2,36,70,0,0
76589,-100,4,2,38,60,0,0
76732,-100,4,2,41,70,0,0
77017,-100,4,2,34,70,0,0
77303,-100,4,2,42,70,0,0
77732,-100,4,2,43,70,0,0
77874,-100,4,2,43,60,0,0
78017,-100,4,2,35,70,0,0
78160,-100,4,2,36,70,0,0
78374,-100,4,2,36,60,0,0
78446,-100,4,2,40,70,0,0
78731,-100,4,2,1,70,0,0
79016,-100,4,2,1,60,0,0
79160,-100,4,2,32,70,0,0
79303,-100,4,2,36,70,0,0
79446,-100,4,2,35,70,0,0
79589,-100,4,2,38,70,0,0
79874,-100,4,2,43,70,0,0
80160,-100,4,2,43,60,0,0
80303,-100,4,2,43,70,0,0
80374,-100,4,2,43,60,0,0
80446,-100,4,2,43,70,0,0
80589,-100,4,2,48,80,0,0
80874,-100,4,2,38,70,0,0
81303,-100,4,2,35,70,0,0
81445,-100,4,2,35,60,0,0
81589,-100,4,2,35,70,0,0
81732,-100,4,2,35,60,0,0
81874,-100,4,2,35,70,0,0
82159,-100,4,2,36,70,0,0
82303,-100,4,2,32,70,0,0
82445,-100,4,2,32,60,0,0
82589,-100,4,2,37,70,0,0
82731,-100,4,2,49,70,0,0
82874,-100,4,2,37,70,0,0
83016,-100,4,2,37,60,0,0
83160,-100,4,2,34,70,0,0
83445,-100,4,2,37,70,0,0
83589,-100,4,2,36,70,0,0
83803,-100,4,2,36,60,0,0
83874,-100,4,2,36,70,0,0
84016,-100,4,2,35,70,0,0
84089,-100,4,2,35,60,0,0
84160,-100,4,2,38,70,0,0
84589,-100,4,2,39,70,0,0
84731,-100,4,2,39,60,0,0
84874,-100,4,2,35,70,0,0
85016,-100,4,2,36,70,0,0
85303,-100,4,2,39,70,0,0
85588,-100,4,2,35,70,0,0
85874,-100,4,2,38,70,0,0
86016,-100,4,2,35,70,0,0
86160,-100,4,2,41,70,0,0
86446,-100,4,2,47,70,0,0
86588,-100,4,2,47,60,0,0
86732,-100,4,2,47,70,0,0
86874,-100,4,2,43,70,0,0
87159,-100,4,2,35,70,0,0
87303,-100,4,2,36,70,0,0
87446,-100,4,2,37,70,0,0
87589,-100,4,2,34,70,0,0
88303,-100,4,2,32,70,0,0
88445,-100,4,2,36,70,0,0
88589,-100,4,2,35,70,0,0
88732,-100,4,2,43,70,0,0
89017,-100,4,2,1,70,0,0
89374,-100,4,2,1,60,0,0
89445,-100,4,2,1,70,0,0
90017,-100,4,2,1,80,0,0
90159,-100,4,2,1,60,0,0
90303,-100,4,2,1,80,0,0
90588,-100,4,2,1,60,0,0
90732,-100,4,2,1,80,0,0
94017,-100,4,2,1,60,0,0
97303,-100,4,2,1,85,0,0
97446,-100,4,2,1,75,0,0
99160,-100,4,2,1,60,0,0
125874,-100,4,2,23,60,0,0
126160,-100,4,2,22,60,0,0
126303,-100,4,2,24,60,0,0
126446,-100,4,2,21,60,0,0
126589,-100,4,2,23,60,0,0
126874,-100,4,2,1,60,0,0
135160,-100,4,2,1,40,0,0
135732,-100,4,2,30,75,0,0
135874,-100,4,2,30,60,0,0
136016,-100,4,2,1,60,0,0
136160,-100,4,2,30,75,0,0
136445,-100,4,2,30,70,0,0
136732,-100,4,2,31,70,0,0
136874,-100,4,2,31,60,0,0
137017,-100,4,2,31,70,0,0
137446,-100,4,2,1,70,0,0
137732,-100,4,2,35,60,0,0
138302,-100,4,2,36,60,0,0
138446,-100,4,2,37,60,0,0
138588,-100,4,2,33,60,0,0
138732,-100,4,2,36,60,0,0
138874,-100,4,2,35,60,0,0
139017,-100,4,2,38,60,0,0
139302,-100,4,2,1,70,0,0
139446,-100,4,2,37,70,0,0
139732,-100,4,2,35,70,0,0
140017,-100,4,2,36,70,0,0
140160,-100,4,2,37,70,0,0
140302,-100,4,2,37,60,0,0
140446,-100,4,2,36,70,0,0
140588,-100,4,2,38,60,0,0
140732,-100,4,2,41,70,0,0
141017,-100,4,2,34,70,0,0
141303,-100,4,2,42,70,0,0
141732,-100,4,2,43,70,0,0
142017,-100,4,2,35,70,0,0
142160,-100,4,2,36,70,0,0
142446,-100,4,2,40,70,0,0
142731,-100,4,2,1,70,0,0
143160,-100,4,2,32,70,0,0
143302,-100,4,2,36,70,0,0
143446,-100,4,2,35,70,0,0
143589,-100,4,2,38,70,0,0
143874,-100,4,2,43,70,0,0
144303,-100,4,2,52,70,0,0
144446,-100,4,2,52,60,0,0
144589,-83.3333333333333,4,2,48,80,0,0
144874,-83.3333333333333,4,2,38,70,0,0
145016,-83.3333333333333,4,2,38,60,0,0
145160,-100,4,2,38,70,0,0
145303,-100,4,2,35,70,0,0
146016,-100,4,2,35,60,0,0
146160,-100,4,2,36,70,0,0
146303,-100,4,2,32,70,0,0
146589,-100,4,2,37,70,0,0
146731,-100,4,2,49,70,0,0
146874,-100,4,2,37,70,0,0
147160,-100,4,2,34,70,0,0
147445,-100,4,2,37,70,0,0
147589,-100,4,2,36,70,0,0
147731,-100,4,2,35,70,0,0
147874,-100,4,2,36,70,0,0
148016,-100,4,2,35,70,0,0
148160,-100,4,2,38,70,0,0
148589,-100,4,2,39,70,0,0
148732,-100,4,2,39,60,0,0
148874,-100,4,2,35,70,0,0
149016,-100,4,2,36,70,0,0
149160,-100,4,2,1,60,0,0
149303,-100,4,2,39,70,0,0
149589,-100,4,2,35,70,0,0
149874,-100,4,2,38,70,0,0
150016,-100,4,2,35,70,0,0
150160,-100,4,2,41,70,0,0
150231,-100,4,2,41,60,0,0
150302,-100,4,2,41,70,0,0
150446,-100,4,2,47,70,0,0
150588,-100,4,2,47,60,0,0
150732,-100,4,2,1,60,0,0
150874,-100,4,2,43,70,0,0
151160,-100,4,2,35,70,0,0
151302,-100,4,2,36,70,0,0
151446,-100,4,2,37,70,0,0
151589,-100,4,2,34,70,0,0
152017,-100,4,2,1,60,0,0
152303,-100,4,2,32,70,0,0
152446,-100,4,2,36,70,0,0
152589,-100,4,2,35,70,0,0
152660,-100,4,2,35,60,0,0
152732,-100,4,2,43,70,0,0
153017,-100,4,2,1,70,0,0
154017,-100,4,2,1,80,0,0
154159,-100,4,2,1,60,0,0
154303,-100,4,2,1,80,0,0
155374,-100,4,2,1,60,0,0
161446,-111.111111111111,4,2,1,60,0,0
162232,-100,4,2,1,60,0,0
172303,-100,4,2,3,60,0,0
172445,-100,4,2,1,60,0,0
172589,-100,4,2,3,60,0,0
180660,-100,4,2,1,60,0,0
180732,-100,4,2,3,60,0,0
188517,-100,4,2,1,60,0,0
188589,-100,4,2,3,60,0,0
188731,-100,4,2,1,60,0,0
188874,-100,4,2,3,60,0,0
189159,-100,4,2,1,60,0,0
189303,-100,4,2,3,60,0,0
190589,-250,4,2,3,60,0,0
191160,-250,4,2,1,60,0,0
199160,-125,4,2,1,60,0,0
199732,-125,4,2,1,60,0,0
204303,-111.111111111111,4,2,1,60,0,0
210160,-333.333333333332,4,2,1,60,0,0
211017,-100,4,2,1,60,0,0
212303,-100,4,2,1,60,0,0
212732,-90.9090909090909,4,2,1,60,0,0
214160,-250,4,2,1,60,0,0
217160,-125,4,2,1,60,0,0
220445,-125,4,2,1,70,0,0
220589,-125,4,2,37,70,0,0
220874,-125,4,2,35,70,0,0
221160,-125,4,2,36,70,0,0
221303,-100,4,2,37,70,0,0
221445,-100,4,2,37,60,0,0
221589,-100,4,2,36,70,0,0
221732,-100,4,2,38,60,0,0
222017,-100,4,2,34,70,0,0
222446,-100,4,2,42,70,0,0
222517,-100,4,2,42,60,0,0
222589,-125,4,2,42,60,0,0
222874,-125,4,2,43,70,0,0
223159,-125,4,2,35,70,0,0
223303,-125,4,2,36,70,0,0
223589,-125,4,2,40,70,0,0
223874,-125,4,2,1,70,0,0
224303,-125,4,2,32,70,0,0
224446,-125,4,2,36,70,0,0
224589,-125,4,2,35,70,0,0
224732,-125,4,2,38,70,0,0
224874,-125,4,2,38,60,0,0
225017,-125,4,2,43,70,0,0
225445,-125,4,2,50,70,0,0
225732,-125,4,2,48,80,0,0
226017,-100,4,2,38,70,0,1
226160,-100,4,2,38,60,0,0
226303,-100,4,2,38,70,0,0
226446,-100,4,2,35,70,0,0
227159,-100,4,2,35,60,0,0
227303,-100,4,2,36,70,0,0
227446,-100,4,2,32,70,0,0
227732,-100,4,2,37,70,0,0
227874,-100,4,2,49,70,0,0
227946,-100,4,2,49,60,0,0
228017,-100,4,2,37,70,0,0
228231,-100,4,2,37,60,0,0
228303,-100,4,2,34,70,0,0
228445,-100,4,2,34,60,0,0
228589,-100,4,2,37,70,0,0
228732,-100,4,2,36,70,0,0
228875,-100,4,2,35,70,0,0
229017,-100,4,2,36,70,0,0
229160,-100,4,2,35,70,0,0
229303,-100,4,2,38,70,0,0
229445,-100,4,2,38,60,0,0
229588,-100,4,2,38,70,0,0
229732,-100,4,2,39,70,0,0
230017,-100,4,2,35,70,0,0
230159,-100,4,2,36,70,0,0
230303,-100,4,2,1,60,0,0
230446,-100,4,2,39,70,0,0
230731,-100,4,2,35,70,0,0
231017,-100,4,2,38,70,0,0
231160,-100,4,2,35,70,0,0
231303,-100,4,2,41,70,0,0
231589,-100,4,2,47,70,0,0
231731,-100,4,2,47,60,0,0
231874,-100,4,2,1,60,0,0
232017,-100,4,2,43,70,0,0
232303,-100,4,2,35,70,0,0
232445,-100,4,2,36,70,0,0
232589,-100,4,2,37,70,0,0
232732,-100,4,2,34,70,0,0
233160,-100,4,2,1,60,0,0
233446,-100,4,2,32,70,0,0
233589,-100,4,2,36,70,0,0
233732,-100,4,2,35,70,0,0
233874,-100,4,2,43,70,0,0
234016,-100,4,2,43,60,0,0
234160,-100,4,2,1,70,0,0
234874,-100,4,2,1,60,0,0
235160,-200,4,2,30,80,0,0
235446,-100,4,2,30,80,0,0
235589,-100,4,2,45,80,0,0
235874,-100,4,2,30,80,0,0
236160,-100,4,2,46,80,0,0
236445,-100,4,2,36,80,0,0
236589,-100,4,2,32,80,0,0
236731,-100,4,2,32,60,0,0
236874,-100,4,2,51,80,0,0
237017,-100,4,2,37,80,0,0
237160,-100,4,2,35,80,0,0
237374,-100,4,2,35,60,0,0
237446,-100,4,2,35,80,0,0
237588,-100,4,2,33,80,0,0
237732,-100,4,2,36,80,0,0
237874,-100,4,2,37,80,0,0
238159,-100,4,2,36,80,0,0
238303,-100,4,2,35,80,0,0
238446,-100,4,2,38,80,0,0
238588,-100,4,2,38,60,0,0
238732,-100,4,2,1,80,0,0
238874,-100,4,2,37,80,0,0
239160,-100,4,2,35,80,0,0
239303,-100,4,2,36,80,0,0
239446,-100,4,2,37,70,0,0
239589,-100,4,2,39,80,0,0
239874,-100,4,2,36,80,0,0
240089,-100,4,2,36,60,0,0
240160,-100,4,2,38,80,0,0
240445,-100,4,2,41,80,0,0
240732,-100,4,2,47,80,0,0
241160,-100,4,2,43,80,0,0
241302,-100,4,2,43,60,0,0
241446,-100,4,2,35,80,0,0
241589,-100,4,2,36,80,0,0
241732,-100,4,2,37,80,0,0
241874,-100,4,2,40,80,0,0
242303,-100,4,2,1,60,0,0
242589,-100,4,2,32,80,0,0
242732,-100,4,2,36,80,0,0
242874,-100,4,2,35,80,0,0
243017,-100,4,2,34,80,0,0
243302,-100,4,2,38,80,0,0
243446,-100,4,2,35,80,0,0
243732,-100,4,2,52,80,0,0
244017,-100,4,2,53,80,0,0
244231,-100,4,2,1,80,0,0
244303,-100,4,2,30,80,0,0
244445,-100,4,2,30,60,0,0
244589,-100,4,2,30,80,0,0
244732,-100,4,2,45,80,0,0
245017,-100,4,2,30,80,0,0
245303,-100,4,2,46,80,0,0
245445,-100,4,2,46,60,0,0
245589,-100,4,2,36,80,0,0
245732,-100,4,2,32,80,0,0
245874,-100,4,2,37,80,0,0
246017,-100,4,2,51,80,0,0
246159,-100,4,2,37,80,0,0
246303,-100,4,2,35,80,0,0
246445,-100,4,2,36,80,0,0
246589,-100,4,2,34,80,0,0
246732,-100,4,2,34,60,0,0
246874,-100,4,2,36,80,0,0
247017,-100,4,2,39,80,0,0
247302,-100,4,2,36,80,0,0
247446,-100,4,2,35,80,0,0
247589,-100,4,2,38,80,0,0
247660,-100,4,2,38,60,0,0
247874,-100,4,2,38,80,0,0
248017,-100,4,2,39,85,0,0
248159,-100,4,2,39,60,0,0
248303,-100,4,2,35,85,0,0
248446,-100,4,2,36,85,0,0
248732,-100,4,2,39,85,0,0
249017,-100,4,2,36,85,0,0
249160,-100,4,2,38,85,0,0
249588,-100,4,2,41,85,0,0
249732,-100,4,2,55,85,0,0
249874,-100,4,2,47,85,0,0
250303,-100,4,2,38,85,0,0
250445,-100,4,2,36,85,0,0
250589,-100,4,2,35,85,0,0
250732,-100,4,2,32,85,0,0
250874,-100,4,2,37,85,0,0
251017,-100,4,2,40,85,0,0
251231,-100,4,2,40,60,0,0
251303,-100,4,2,40,85,0,0
251446,-100,4,2,32,85,0,0
251588,-100,4,2,32,60,0,0
251660,-100,4,2,32,85,0,0
251874,-100,4,2,36,85,0,0
252017,-100,4,2,38,85,0,0
252160,-100,4,2,50,85,0,0
252445,-100,4,2,32,85,0,0
252589,-100,4,2,54,85,0,0
252874,-100,4,2,55,85,0,0
253160,-100,4,2,54,85,0,0
253303,-100,4,2,55,85,0,0
253446,-100,4,2,1,70,0,0
253588,-100,4,2,1,60,0,0
253660,-100,4,2,1,70,0,0
253732,-125,4,2,1,70,0,0
254017,-125,4,2,1,60,0,0
272732,-111.111111111111,4,2,1,60,0,0

[Colours]
Combo1 : 208,250,112
Combo2 : 186,194,193
Combo3 : 135,130,120
Combo4 : 198,189,217
Combo5 : 228,163,228
Combo6 : 149,234,202
Combo7 : 159,189,221
Combo8 : 240,77,77

[HitObjects]
102,310,16303,70,0,B|112:266|112:266|91:226,3,90
20,277,16874,2,0,B|90:256|93:305|197:284,1,180,6|8,1:2|0:3,0:0:0:0:
364,225,17303,2,0,P|319:220|281:197,1,90,2|0,1:2|0:0,0:0:0:0:
192,40,17588,1,2,1:2:0:0:
297,84,17731,1,8,0:3:0:0:
172,22,17874,6,0,L|195:200,1,180,2|2,1:2|1:2,0:0:0:0:
347,343,18303,1,8,0:3:0:0:
347,343,18588,101,2,1:2:0:0:
238,279,18731,1,0,1:0:0:0:
146,314,18874,1,10,0:3:0:0:
130,342,19017,1,0,0:0:0:0:
263,372,19160,6,0,P|272:282|290:194,1,180,2|10,1:2|0:2,0:0:0:0:
145,29,19588,2,0,P|135:118|117:206,1,180,2|2,1:2|1:2,0:0:0:0:
192,262,20017,101,10,0:2:0:0:
192,262,20160,2,0,L|217:149,1,90,2|0,1:2|0:0,0:0:0:0:
445,85,20446,5,2,1:2:0:0:
374,114,20588,1,8,0:3:0:0:
457,80,20731,1,0,0:0:0:0:
395,0,20874,102,0,B|413:41|413:41|401:84,1,90,2|0,1:2|1:0,0:0:0:0:
302,78,21160,1,10,0:3:0:0:
264,286,21303,6,0,B|215:216|215:216|231:122,1,180,2|2,1:2|1:2,0:0:0:0:
410,175,21731,2,0,L|321:193,1,90,10|0,0:3|0:0,0:0:0:0:
180,305,22017,1,2,1:2:0:0:
244,372,22160,2,0,P|259:329|263:285,1,90,2|8,1:2|0:3,0:0:0:0:
87,123,22446,102,0,P|17:172|31:256,1,180,2|0,1:2|1:0,0:0:0:0:
31,256,22874,2,0,L|118:236,1,90,10|0,0:3|0:0,0:0:0:0:
237,168,23160,5,2,1:2:0:0:
177,115,23303,2,0,L|168:56,2,45,2|0|10,1:2|1:0|0:3,0:0:0:0:
217,292,23588,102,0,P|289:241|378:243,1,180,2|0,1:2|1:0,0:0:0:0:
340,384,24017,1,8,0:3:0:0:
490,361,24160,2,0,P|446:349|410:323,1,90,0|2,0:0|1:2,0:0:0:0:
416,163,24446,5,2,1:2:0:0:
512,200,24588,1,10,0:3:0:0:
478,273,24731,2,0,L|452:94,1,180,2|0,1:2|1:0,0:0:0:0:
375,66,25160,101,8,0:3:0:0:
163,270,25446,1,0,1:0:0:0:
281,202,25588,1,0,1:0:0:0:
212,112,25731,2,0,B|184:151|184:151|195:191,1,90,8|0,0:3|0:0,0:0:0:0:
199,345,26017,6,0,B|279:321|279:321|295:304|295:304|365:284,1,180,6|8,1:2|0:3,0:0:0:0:
450,316,26446,1,2,1:2:0:0:
506,253,26588,1,0,0:0:0:0:
457,185,26731,1,2,1:2:0:0:
376,200,26874,1,8,0:3:0:0:
365,284,27017,102,0,L|342:371,1,90,2|0,1:2|0:0,0:0:0:0:
202,257,27303,1,2,1:2:0:0:
196,235,27374,1,0,1:0:0:0:
191,213,27446,1,8,0:3:0:0:
287,206,27588,5,0,0:0:0:0:
116,271,27731,1,2,1:2:0:0:
298,205,27874,101,0,1:0:0:0:
102,278,28017,2,0,P|61:260|18:249,1,90,10|0,0:3|0:0,0:0:0:0:
308,205,28303,2,0,P|357:149|405:111,1,135,2|0,1:2|0:0,0:0:0:0:
490,154,28588,2,0,P|485:109|493:65,1,90,10|2,0:2|1:2,0:0:0:0:
304,72,28874,5,2,0:2:0:0:
417,213,29017,2,0,L|435:301,1,90,2|10,1:2|0:2,0:0:0:0:
224,362,29303,102,0,P|141:344|130:260,1,180,2|0,1:2|1:0,0:0:0:0:
130,260,29660,1,0,0:0:0:0:
130,260,29731,2,0,L|219:275,1,90,10|0,0:3|0:0,0:0:0:0:
359,269,30017,5,2,1:2:0:0:
299,323,30160,1,2,1:2:0:0:
375,345,30303,1,8,0:3:0:0:
170,357,30446,102,0,B|186:275|186:275|183:263|183:263|196:180,1,180,6|2,1:2|1:2,0:0:0:0:
32,220,30874,2,0,B|12:263|12:263|30:301,1,90,10|0,0:3|0:0,0:0:0:0:
105,269,31160,1,2,1:2:0:0:
196,180,31303,2,0,L|188:68,1,90,2|0,1:2|0:0,0:0:0:0:
189,90,31588,6,0,B|286:73|256:115|366:105,1,180,2|0,1:2|1:0,0:0:0:0:
365,105,31946,1,0,0:3:0:0:
365,105,32017,1,10,0:3:0:0:
459,72,32160,1,8,1:2:0:0:
408,290,32303,101,0,1:2:0:0:
488,330,32446,1,2,1:2:0:0:
413,302,32588,1,8,0:2:0:0:
247,373,32731,6,0,P|222:287|238:199,1,180,2|0,1:2|1:0,0:0:0:0:
376,218,33160,2,0,P|340:243|319:282,1,90,8|0,0:3|0:0,0:0:0:0:
129,319,33446,2,0,P|103:282|87:240,1,90,2|2,1:2|1:2,0:0:0:0:
238,199,33731,101,10,0:3:0:0:
444,153,33874,2,0,P|447:65|385:3,1,180,6|0,1:2|1:0,0:0:0:0:
183,42,34303,5,8,0:3:0:0:
318,111,34446,1,0,0:0:0:0:
340,115,34517,1,0,1:0:0:0:
362,119,34588,1,0,1:0:0:0:
202,195,34731,1,0,1:0:0:0:
294,249,34874,1,8,0:3:0:0:
218,314,35017,1,0,1:0:0:0:
256,384,35160,37,4,1:0:0:0:
251,18,35446,1,8,0:3:0:0:
251,18,35588,2,0,B|240:113|279:86|263:189,1,161.999995056153,0|0,1:0|1:0,0:0:0:0:
264,177,36017,1,8,0:3:0:0:
13,310,36303,2,0,B|64:281|64:281|168:312,1,161.999995056153,0|8,1:0|0:3,0:0:0:0:
455,329,36874,1,0,1:0:0:0:
455,329,37017,1,0,1:0:0:0:
371,377,37160,2,0,L|357:298,1,80.9999975280763,8|0,0:3|0:0,0:0:0:0:
466,110,37446,6,0,L|480:57,1,54,0|0,1:0|0:0,0:0:0:0:
498,50,37731,1,8,0:3:0:0:
381,204,37874,2,0,L|358:112,1,94.499997116089,0|0,1:0|0:0,0:0:0:0:
362,94,38160,1,0,1:0:0:0:
299,286,38303,2,0,L|193:215,1,121.499996292114,8|0,0:3|0:0,0:0:0:0:
192,200,38588,102,0,P|211:162|221:119,1,80.9999975280763,0|0,1:0|0:0,0:0:0:0:
39,264,38874,2,0,P|16:230|0:193,1,80.9999975280763,8|0,0:3|0:0,0:0:0:0:
230,289,39160,2,0,P|262:265|290:235,1,80.9999975280763,0|0,1:0|1:0,0:0:0:0:
100,186,39446,2,0,P|95:145|97:105,1,80.9999975280763,8|0,0:3|0:0,0:0:0:0:
1,352,39731,22,0,P|81:358|157:334,1,161.999995056153,0|8,1:0|0:3,0:0:0:0:
272,217,40160,2,0,P|349:212|397:273,2,161.999995056153,0|0|0,1:0|1:0|0:0,0:0:0:0:
361,365,40874,2,0,P|438:356|477:288,1,161.999995056153,0|8,1:0|0:3,0:0:0:0:
477,288,41446,102,0,L|397:274,1,80.9999975280763,0|0,1:0|1:0,0:0:0:0:
293,307,41731,2,0,B|230:299|230:299|193:349,1,121.499996292114,8|0,0:3|0:0,0:0:0:0:
265,383,42017,2,0,P|225:268|181:154,1,242.999992584229,0|0,1:0|1:0,0:0:0:0:
182,155,42731,5,0,1:0:0:0:
118,115,42874,2,0,P|126:75|131:35,1,80.9999975280763,8|0,0:3|1:0,0:0:0:0:
253,104,43160,2,0,P|335:100|413:81,1,161.999995056153,0|8,1:0|0:3,0:0:0:0:
472,35,43588,1,0,0:0:0:0:
399,173,43731,2,0,P|407:212|420:250,1,80.9999975280763,0|0,1:0|1:0,0:0:0:0:
477,144,44017,1,8,0:3:0:0:
250,364,44303,102,0,P|261:283|267:203,1,161.999995056153,4|8,1:0|0:3,0:0:0:0:
421,336,44731,2,0,P|380:332|340:328,1,80.9999975280763,0|0,1:0|0:0,0:0:0:0:
183,248,45017,1,0,1:0:0:0:
120,295,45160,2,0,P|80:305|41:315,1,80.9999975280763,8|0,0:3|0:0,0:0:0:0:
352,167,45446,6,0,P|432:178|512:187,2,161.999995056153,0|8|0,1:0|0:3|1:0,0:0:0:0:
352,167,46160,1,0,1:0:0:0:
258,28,46303,2,0,B|275:68|275:68|263:103,1,80.9999975280763,8|0,0:3|0:0,0:0:0:0:
102,263,46588,2,0,P|33:228|31:151,1,161.999995056153,0|8,1:0|0:3,0:0:0:0:
251,190,47017,2,0,L|329:209,1,80.9999975280763,0|0,1:0|0:0,0:0:0:0:
180,313,47303,1,0,1:0:0:0:
123,154,47446,2,0,P|127:113|130:73,1,80.9999975280763,8|0,0:3|0:0,0:0:0:0:
340,204,47731,102,0,B|333:289|357:265|345:367,1,161.999995056153,0|8,1:0|0:3,0:0:0:0:
269,329,48160,1,0,0:0:0:0:
432,208,48303,2,0,P|425:168|418:128,1,80.9999975280763,0|0,1:0|1:0,0:0:0:0:
418,128,48588,1,8,0:3:0:0:
335,191,48874,6,0,P|254:180|175:165,1,161.999995056153,0|8,1:0|0:3,0:0:0:0:
213,2,49303,2,0,P|293:12|372:27,1,161.999995056153,0|0,1:0|1:0,0:0:0:0:
279,98,49731,1,8,0:3:0:0:
111,231,50017,101,0,1:0:0:0:
50,161,50160,2,0,B|47:119|47:119|77:95,1,80.9999975280763
135,321,50446,5,0,0:0:0:0:
199,234,50588,2,0,B|202:192|202:192|171:168,1,80.9999975280763,0|0,1:0|1:0,0:0:0:0:
33,305,50874,2,0,L|110:329,1,80.9999975280763,8|0,0:3|0:0,0:0:0:0:
392,206,51160,102,0,P|354:220|315:230,1,80.9999975280763,0|0,1:0|0:0,0:0:0:0:
379,304,51446,1,8,0:3:0:0:
459,382,51588,2,0,P|465:302|481:222,1,161.999995056153,0|0,1:0|1:0,0:0:0:0:
278,326,52017,2,0,P|307:353|333:384,1,80.9999975280763,8|0,0:3|0:0,0:0:0:0:
415,152,52303,6,0,P|338:179|261:203,2,161.999995056153,0|8|0,1:0|0:3|1:0,0:0:0:0:
215,109,53017,1,0,1:0:0:0:
167,184,53160,2,0,P|176:223|182:263,1,80.9999975280763,8|0,0:3|0:0,0:0:0:0:
362,352,53446,22,0,P|362:311|366:271,1,80.9999975280763,4|8,1:0|0:0,0:0:0:0:
442,228,53731,1,8,0:3:0:0:
263,310,53874,2,0,P|184:291|104:280,1,161.999995056153,0|0,1:0|1:0,0:0:0:0:
278,173,54303,2,0,P|317:164|354:149,1,80.9999975280763,8|0,0:3|0:0,0:0:0:0:
113,56,54588,86,0,P|128:93|140:131,1,80.9999975280763,0|8,1:0|0:0,0:0:0:0:
44,122,54874,1,8,0:3:0:0:
244,72,55017,2,0,P|234:152|213:230,1,161.999995056153,0|0,1:0|1:0,0:0:0:0:
32,299,55446,2,0,P|16:261|9:221,1,80.9999975280763,8|0,0:3|0:0,0:0:0:0:
117,223,55731,85,8,1:0:0:0:
235,337,55874,2,0,L|155:320,1,80.9999975280763,0|8,0:0|0:3,0:0:0:0:
336,267,56160,2,0,B|402:251|402:251|409:244|409:244|490:222,1,161.999995056153,0|0,1:0|1:0,0:0:0:0:
238,166,56588,2,0,L|253:245,1,80.9999975280763,8|0,0:3|0:0,0:0:0:0:
438,353,56874,54,0,L|422:273,1,80.9999975280763,0|8,1:0|0:0,0:0:0:0:
328,188,57160,1,8,0:3:0:0:
268,346,57303,2,0,P|192:332|174:258,1,161.999995056153,0|0,1:0|1:0,0:0:0:0:
174,258,57731,2,0,P|228:267|222:322,1,121.499996292114,8|0,0:3|0:0,0:0:0:0:
327,268,58017,54,0,B|422:254|386:289|486:280,1,161.999995056153,0|8,1:0|0:3,0:0:0:0:
284,113,58446,2,0,P|287:153|280:193,1,80.9999975280763,0|0,1:0|0:0,0:0:0:0:
433,183,58731,1,0,1:0:0:0:
458,91,58874,2,0,P|419:104|379:109,1,80.9999975280763,8|0,0:3|0:0,0:0:0:0:
211,42,59160,54,0,P|132:52|74:108,1,161.999995056153,0|8,1:0|0:3,0:0:0:0:
114,176,59588,1,0,1:0:0:0:
114,176,59874,53,0,1:0:0:0:
42,310,60017,2,0,B|51:270|51:270|28:236,1,80.9999975280763,8|0,0:3|0:0,0:0:0:0:
193,149,60303,2,0,L|350:186,1,161.999995056153,0|8,1:0|0:3,0:0:0:0:
161,242,60731,1,2,1:0:0:0:
221,320,60874,2,0,L|242:242,1,80.9999975280763,0|10,0:0|1:0,0:0:0:0:
467,286,61160,2,0,L|445:208,1,80.9999975280763,10|2,0:3|0:0,0:0:0:0:
307,40,61446,70,0,L|301:0,1,40.4999987640381,0|0,1:0|0:0,0:0:0:0:
301,0,61874,22,0,L|307:40,1,40.4999987640381,2|2,2:3|2:3,0:0:0:0:
266,116,62160,1,2,1:3:0:0:
390,217,62303,1,10,1:3:0:0:
342,300,62446,1,2,1:3:0:0:
406,205,62589,54,0,B|314:201|333:243|230:233,1,180,6|8,1:3|0:3,0:0:0:0:
95,93,63017,2,0,B|78:80|67:55|67:55|115:61|142:98|133:173,1,180,8|0,1:1|1:0,0:0:0:0:
90,319,63446,2,0,P|55:291|49:248,1,90,8|0,0:3|0:0,0:0:0:0:
269,245,63731,6,0,L|252:333,1,90,0|8,1:0|0:0,0:0:0:0:
390,298,64017,1,8,0:3:0:0:
252,333,64160,2,0,L|222:155,1,180,0|0,1:0|1:0,0:0:0:0:
458,190,64588,102,0,B|395:155|395:155|340:186,1,135,8|0,0:3|0:0,0:0:0:0:
394,254,64874,2,0,L|390:298,2,45,8|0|0,1:0|0:0|0:0,0:0:0:0:
399,123,65160,5,8,0:3:0:0:
481,291,65303,2,0,L|302:271,1,180,0|0,1:0|1:0,0:0:0:0:
266,89,65731,2,0,L|257:178,1,90,8|0,0:3|0:0,0:0:0:0:
41,304,66017,102,0,B|111:288|111:288|128:271|128:271|209:251,1,180,0|8,1:0|0:3,0:0:0:0:
245,338,66446,1,0,1:0:0:0:
245,338,66731,5,0,1:0:0:0:
257,178,66874,2,0,L|266:89,1,90,8|0,0:3|0:0,0:0:0:0:
428,236,67160,101,8,1:0:0:0:
388,313,67303,1,8,0:0:0:0:
465,308,67446,1,8,0:3:0:0:
351,248,67588,2,0,P|262:231|172:231,1,180,0|0,1:0|1:0,0:0:0:0:
53,164,68017,2,0,P|97:155|138:138,1,90,8|0,0:3|0:0,0:0:0:0:
329,4,68303,6,0,P|311:69|297:135,1,135,8|0,1:0|0:0,0:0:0:0:
313,156,68588,1,8,0:3:0:0:
187,5,68731,2,0,P|203:47|217:90,1,90,8|0,1:2|0:0,0:0:0:0:
378,221,69017,1,0,1:0:0:0:
446,186,69160,2,0,P|435:142|427:97,1,90,8|0,0:3|0:0,0:0:0:0:
297,251,69446,102,0,P|256:269|212:278,1,90,8|0,1:0|0:0,0:0:0:0:
362,325,69731,1,8,0:3:0:0:
179,353,69874,2,0,P|94:342|64:262,1,180,8|0,1:2|1:0,0:0:0:0:
255,180,70303,2,0,L|271:46,1,135,8|0,0:3|0:0,0:0:0:0:
265,30,70588,5,0,1:0:0:0:
354,124,70731,1,0,1:0:0:0:
172,93,70874,2,0,L|128:81,2,45,8|0|0,0:3|1:0|1:0,0:0:0:0:
253,207,71160,21,8,1:3:0:0:
255,223,71231,1,8,1:3:0:0:
258,240,71303,1,8,1:3:0:0:
261,256,71374,1,8,1:3:0:0:
263,273,71446,1,8,1:2:0:0:
266,290,71517,1,8,1:2:0:0:
269,306,71588,1,8,1:2:0:0:
271,323,71660,1,8,1:2:0:0:
274,340,71731,5,6,1:2:0:0:
447,233,71874,2,0,L|359:254,1,90,0|8,0:0|0:3,0:0:0:0:
149,258,72160,2,0,P|249:274|271:355,1,180,2|2,0:2|1:2,0:0:0:0:
194,378,72588,1,8,0:3:0:0:
74,221,72731,2,0,L|87:132,1,90,2|0,1:2|0:0,0:0:0:0:
348,114,73017,69,2,1:2:0:0:
279,189,73160,2,0,P|263:146|242:106,1,90,10|0,0:3|0:0,0:0:0:0:
460,140,73446,2,0,P|425:168|399:204,1,90,0|0,1:0|1:0,0:0:0:0:
328,9,73731,2,0,P|369:25|413:34,1,90,10|0,0:3|0:0,0:0:0:0:
348,114,74017,38,0,B|368:211|335:187|352:292,1,180,2|10,1:2|0:2,0:0:0:0:
512,329,74446,2,0,P|485:292|444:275,1,90,2|2,1:2|0:2,0:0:0:0:
264,317,74731,1,2,1:2:0:0:
342,373,74874,1,10,0:2:0:0:
258,204,75017,70,0,B|190:221|190:221|177:235|177:235|89:258,1,180,2|0,1:2|1:0,0:0:0:0:
26,193,75446,2,0,B|3:154|3:154|17:111,1,90,10|0,0:3|0:0,0:0:0:0:
219,113,75731,1,2,1:2:0:0:
142,164,75874,1,0,1:0:0:0:
137,83,76017,1,10,0:3:0:0:
258,204,76160,38,0,L|248:293,1,90,6|0,1:2|0:0,0:0:0:0:
311,360,76446,1,2,1:2:0:0:
311,360,76588,1,10,0:3:0:0:
465,270,76731,2,0,P|382:248|370:164,1,180,2|2,0:0|1:2,0:0:0:0:
503,87,77160,1,8,0:3:0:0:
440,5,77303,2,0,P|450:94|462:183,1,180,2|0,1:2|1:0,0:0:0:0:
353,72,77731,70,0,P|289:67|241:59,1,90,10|0,0:3|0:0,0:0:0:0:
189,23,78017,1,2,1:2:0:0:
267,161,78160,1,2,1:2:0:0:
200,208,78303,2,0,L|156:197,1,45,10|0,0:3|0:0,0:0:0:0:
295,328,78446,38,0,B|391:303|391:303|398:294|398:294|465:278,1,180,2|0,1:2|1:0,0:0:0:0:
207,288,78874,2,0,P|202:332|212:376,1,90,8|0,0:3|0:0,0:0:0:0:
309,238,79160,1,2,1:2:0:0:
384,338,79303,1,2,1:2:0:0:
421,209,79446,1,10,0:3:0:0:
286,333,79588,70,0,L|108:304,1,180,2|2,1:2|1:2,0:0:0:0:
47,229,80017,1,8,0:3:0:0:
62,373,80160,1,0,0:2:0:0:
200,271,80303,2,0,L|192:226,1,45,0|0,1:2|0:0,0:0:0:0:
112,287,80446,37,0,1:0:0:0:
278,210,80588,2,0,P|341:210|354:271,1,135,10|0,0:3|0:0,0:0:0:0:
278,210,80874,70,0,P|197:219|177:139,1,180,6|8,1:2|0:3,0:0:0:0:
427,52,81303,2,0,L|410:140,1,90,2|0,1:2|0:0,0:0:0:0:
339,80,81588,1,2,1:2:0:0:
497,114,81731,1,0,0:0:0:0:
319,66,81874,2,0,B|219:57|254:101|143:90,1,180,6|2,1:2|1:2,0:0:0:0:
349,208,82303,38,0,P|390:226|428:249,1,90,10|0,0:3|0:0,0:0:0:0:
145,245,82588,2,0,P|144:289|134:333,1,90,2|2,1:2|1:2,0:0:0:0:
281,308,82874,2,0,P|304:346|322:387,1,90,10|0,2:3|0:0,0:0:0:0:
242,195,83160,70,0,L|278:18,1,180,2|10,1:2|0:3,0:0:0:0:
32,109,83588,2,0,P|94:132|133:185,1,135,2|0,1:2|0:0,0:0:0:0:
179,69,83874,2,0,P|132:75|117:117,1,90,2|10,1:2|0:3,0:0:0:0:
47,206,84088,1,0,1:0:0:0:
46,206,84160,2,0,P|50:290|131:314,1,180,2|0,1:2|1:0,0:0:0:0:
286,201,84588,38,0,P|242:210|215:244,1,90,10|0,0:3|0:0,0:0:0:0:
418,301,84874,2,0,L|505:279,1,90,2|2,1:2|1:2,0:0:0:0:
294,286,85160,69,10,0:3:0:0:
360,375,85303,2,0,L|386:181,1,180,6|2,1:2|1:2,0:0:0:0:
349,79,85731,1,10,0:3:0:0:
505,121,85874,2,0,B|460:106|460:106|411:132,1,90,2|2,0:2|1:2,0:0:0:0:
227,203,86160,37,2,1:2:0:0:
303,161,86303,1,8,0:3:0:0:
192,42,86446,2,0,L|174:130,1,90,2|0,1:2|0:0,0:0:0:0:
306,241,86731,69,0,1:0:0:0:
210,326,86874,2,0,B|107:311|145:354|33:342,1,180,10|2,0:3|1:2,0:0:0:0:
131,202,87303,1,2,1:2:0:0:
131,202,87446,1,10,0:3:0:0:
22,174,87588,38,0,L|45:260,1,90,2|0,1:2|0:0,0:0:0:0:
212,308,87874,1,0,1:0:0:0:
283,253,88017,2,0,L|306:166,1,90,8|0,0:3|0:0,0:0:0:0:
164,94,88303,2,0,L|140:180,1,90,2|2,1:2|1:2,0:0:0:0:
382,252,88588,69,10,0:3:0:0:
440,186,88731,2,0,B|407:113|407:113|397:106|397:106|361:24,1,180,2|0,1:2|1:0,0:0:0:0:
469,45,89160,1,8,0:3:0:0:
306,166,89303,1,8,1:3:0:0:
283,169,89374,1,0,1:0:0:0:
261,172,89446,1,8,1:3:0:0:
296,84,89588,1,8,1:3:0:0:
387,142,89731,1,8,0:3:0:0:
181,209,89874,21,8,1:3:0:0:
181,209,90017,2,0,B|171:161|171:161|188:124,1,90,6|0,1:2|0:0,0:0:0:0:
261,172,90303,6,0,B|330:191|330:191|352:222|352:222|420:238,1,180,8|0,0:3|0:0,0:0:0:0:
254,348,90731,2,0,L|237:259,1,90,2|8,1:0|0:3,0:0:0:0:
414,140,91017,2,0,L|353:309,1,180,2|0,1:1|1:0,0:0:0:0:
160,341,91446,6,0,P|76:339|54:258,2,180,8|2|8,0:3|1:0|0:3,0:0:0:0:
214,280,92303,2,0,B|219:176|183:204|192:102,1,180,6|8,0:2|0:3,0:0:0:0:
182,1,92731,2,0,P|146:28|109:54,1,90,0|12,1:0|3:0,0:0:0:0:
267,64,93017,1,2,1:0:0:0:
161,179,93160,1,8,0:3:0:0:
296,233,93303,102,0,B|366:244|366:244|390:266|390:266|488:279,1,180,6|0,0:0|0:0,0:0:0:0:
439,188,93731,1,8,0:3:0:0:
322,318,93874,1,2,0:0:0:0:
452,181,94017,2,0,B|468:137|468:137|445:100,1,90,0|0,1:0|1:0,0:0:0:0:
361,149,94303,6,0,P|275:177|187:196,1,180,8|2,0:3|3:1,0:0:0:0:
123,127,94731,1,0,0:0:0:0:
21,268,94874,102,0,P|107:286|162:355,1,180,8|2,0:3|1:2,0:0:0:0:
277,266,95303,2,0,P|280:310|265:352,1,90,0|8,3:0|0:3,0:0:0:0:
196,256,95588,5,2,1:3:0:0:
366,330,95731,1,0,0:0:0:0:
457,294,95874,1,0,3:0:0:0:
365,344,96017,2,0,L|377:246,1,90,8|0,0:3|0:0,0:0:0:0:
313,184,96231,1,0,0:0:0:0:
313,184,96303,2,0,P|374:206|435:179,1,135,0|2,1:0|0:0,0:0:0:0:
153,67,96731,101,6,1:0:0:0:
260,22,96874,2,0,L|244:110,1,90,6|0,1:2|0:0,0:0:0:0:
247,206,97160,5,8,0:3:0:0:
314,150,97303,1,0,1:0:0:0:
172,166,97446,2,0,P|130:150|86:138,1,90,2|0,0:1|3:0,0:0:0:0:
36,259,97731,2,0,P|77:275|121:287,1,90,8|0,0:3|0:0,0:0:0:0:
261,335,98017,101,14,1:0:0:0:
184,369,98160,1,8,0:0:0:0:
273,240,98303,6,0,P|288:197|305:155,1,90,8|14,0:3|1:0,0:0:0:0:
348,314,98588,101,8,0:0:0:0:
348,314,98731,1,0,1:0:0:0:
172,230,98874,69,8,0:3:0:0:
172,230,99017,1,2,2:1:0:0:
219,161,99160,6,0,P|231:250|239:339,1,180,2|8,1:2|0:3,0:0:0:0:
464,340,99588,2,0,P|382:310|356:227,1,180,0|0,3:0|1:1,0:0:0:0:
507,180,100017,2,0,P|463:169|420:156,1,90,8|0,0:3|0:0,0:0:0:0:
370,94,100303,1,2,1:2:0:0:
370,94,100588,101,8,0:3:0:0:
193,148,100731,2,0,L|279:173,1,90,0|0,0:0|3:0,0:0:0:0:
369,269,101017,1,0,3:0:0:0:
273,347,101160,2,0,P|276:302|281:257,1,90,8|2,0:3|0:0,0:0:0:0:
187,240,101446,6,0,P|101:268|17:299,1,180,0|8,0:0|0:3,0:0:0:0:
0,154,101874,2,0,P|41:170|85:179,1,90,2|0,0:0|0:0,0:0:0:0:
295,92,102160,1,0,1:0:0:0:
198,80,102303,2,0,L|217:167,1,90,8|0,0:3|0:0,0:0:0:0:
380,281,102588,102,0,P|393:238|412:197,1,90,0|2,1:0|0:2,0:0:0:0:
245,298,102874,2,0,P|208:272|178:238,1,90,8|0,0:3|0:0,0:0:0:0:
293,219,103160,2,0,P|287:174|286:129,1,90,0|0,1:0|3:0,0:0:0:0:
146,332,103446,2,0,P|81:350|16:369,1,135,8|0,0:3|0:0,0:0:0:0:
16,369,103731,70,0,P|31:327|36:282,1,90,0|0,1:0|0:0,0:0:0:0:
115,142,104017,1,8,0:3:0:0:
7,180,104160,1,2,0:3:0:0:
7,180,104231,1,0,0:0:0:0:
7,180,104303,2,0,B|103:167|75:209|183:200,1,180,2|8,0:0|0:3,0:0:0:0:
279,65,104731,1,0,0:0:0:0:
279,65,104874,2,0,P|234:71|191:84,1,90,2|0,0:1|0:0,0:0:0:0:
267,241,105160,2,0,B|284:198|284:198|264:158,1,90,8|2,0:3|0:0,0:0:0:0:
60,295,105446,101,0,1:0:0:0:
183,200,105588,1,0,2:0:0:0:
60,295,105731,2,0,B|119:306|119:306|122:310|122:310|190:322,1,135,8|0,0:3|0:0,1:1:0:0:
199,341,106017,2,0,P|242:330|287:327,1,90,2|0,3:1|0:0,0:0:0:0:
410,350,106303,1,8,0:3:0:0:
494,323,106446,2,0,P|406:302|333:251,1,180,2|0,3:0|0:0,0:0:0:0:
469,121,106874,1,8,0:3:0:0:
383,54,107017,5,0,1:0:0:0:
383,54,107088,1,0,0:0:0:0:
383,54,107160,1,2,1:2:0:0:
107,266,107446,1,8,0:3:0:0:
205,257,107588,1,2,1:0:0:0:
72,177,107731,2,0,L|81:87,1,90,0|8,0:0|0:0,0:0:0:0:
290,89,108017,2,0,P|225:100|192:156,1,135,8|2,0:3|0:0,0:0:0:0:
266,190,108303,102,0,L|354:208,1,90,6|0,1:2|0:0,0:0:0:0:
427,172,108588,1,8,0:3:0:0:
228,274,108731,2,0,B|155:302|155:302|140:323|140:323|68:347,1,180,0|0,3:0|3:0,0:0:0:0:
255,277,109160,2,0,P|265:233|275:189,1,90,8|0,0:3|0:0,0:0:0:0:
104,36,109446,2,0,P|94:80|84:124,1,90,2|0,1:2|0:0,0:0:0:0:
133,194,109731,1,8,0:3:0:0:
133,194,110017,5,0,1:0:0:0:
222,183,110160,1,2,1:3:0:0:
311,173,110303,2,0,P|353:189|394:207,1,90,8|2,0:3|0:0,0:0:0:0:
480,82,110588,102,0,P|438:100|396:116,1,90,2|0,3:1|0:0,0:0:0:0:
332,65,110874,1,8,0:3:0:0:
400,200,111017,6,0,B|427:302|385:281|405:383,1,180
512,311,111446,2,0,P|473:287|429:284,1,90,8|0,0:3|0:0,0:0:0:0:
205,349,111731,102,0,P|286:326|292:241,1,180,2|8,1:2|0:3,0:0:0:0:
216,208,112160,1,2,1:2:0:0:
154,256,112303,1,0,3:0:0:0:
91,210,112446,1,6,3:0:0:0:
38,266,112588,2,0,P|48:309|53:354,1,90,8|0,0:3|0:0,0:0:0:0:
158,267,112874,6,0,P|147:223|142:178,1,90,2|0,0:0|0:0,0:0:0:0:
182,63,113160,1,8,0:3:0:0:
55,108,113303,2,0,P|132:151|221:144,1,180,2|0,1:2|0:0,0:0:0:0:
421,170,113731,102,0,P|339:144|329:60,1,180,8|0,0:3|1:0,0:0:0:0:
438,0,114160,1,0,0:0:0:0:
438,0,114303,2,0,P|445:44|457:87,1,90,8|0,0:3|0:0,0:0:0:0:
333,183,114588,2,0,P|318:272|301:361,1,180,2|8,0:0|0:3,0:0:0:0:
4,275,115160,6,0,B|95:268|68:303|180:299,1,180,0|8,0:0|0:3,0:0:0:0:
238,196,115588,2,0,P|194:205|150:216,1,90,2|0,0:0|0:0,0:0:0:0:
187,109,115874,1,0,0:0:0:0:
7,130,116017,2,0,P|50:140|94:150,1,90,8|0,0:3|0:0,0:0:0:0:
274,31,116303,86,0,L|290:119,1,90,2|0,1:2|0:0,0:0:0:0:
435,194,116588,2,0,L|419:106,1,90,8|0,0:3|0:0,0:0:0:0:
256,249,116874,2,0,L|344:232,1,90,2|0,1:2|3:0,0:0:0:0:
361,252,117160,2,0,L|272:268,1,90,8|0,0:3|0:0,0:0:0:0:
112,346,117446,70,0,P|111:301|104:256,1,90,6|0,0:0|0:0,0:0:0:0:
39,207,117731,1,8,0:3:0:0:
112,346,117874,2,0,P|160:302|209:197,1,180,6|0,0:0|0:0,0:0:0:0:
86,131,118303,2,0,P|57:165|38:206,1,90,8|0,0:3|1:0,0:0:0:0:
208,199,118588,54,0,P|240:230|273:261,1,90,2|0,1:2|0:0,0:0:0:0:
424,197,118874,1,8,0:3:0:0:
273,261,119017,2,0,P|344:264|427:193,1,180,2|0,0:0|3:0,0:0:0:0:
333,175,119446,2,0,P|342:131|350:86,1,90,8|0,0:3|0:0,0:0:0:0:
287,36,119731,53,2,1:2:0:0:
431,119,119874,2,0,L|474:109,2,45,0|0|8,0:0|0:0|0:3,0:0:0:0:
242,163,120160,2,0,B|141:158|164:192|65:188,1,180,2|0,1:2|1:0,0:0:0:0:
339,222,120588,2,0,P|336:177|330:132,1,90,8|0,0:3|0:0,0:0:0:0:
258,67,120803,1,0,0:0:0:0:
258,67,120874,2,0,P|213:75|169:83,1,90,2|0,1:2|0:0,0:0:0:0:
98,38,121160,53,8,0:3:0:0:
166,192,121303,2,0,P|150:280|138:369,1,180,2|0,1:2|3:0,0:0:0:0:
329,316,121731,2,0,P|284:310|239:306,1,90,8|0,0:3|0:0,0:0:0:0:
68,231,122017,54,0,P|56:187|40:145,1,90,2|0,1:2|0:0,0:0:0:0:
253,144,122303,1,8,0:3:0:0:
131,145,122446,2,0,P|217:164|277:229,1,180,2|0,0:0|0:0,0:0:0:0:
433,147,122874,53,8,0:3:0:0:
356,168,123017,1,0,1:0:0:0:
380,311,123160,2,0,P|392:267|409:226,1,90,2|0,3:1|0:0,0:0:0:0:
488,279,123446,53,8,0:3:0:0:
289,319,123588,2,0,L|112:354,1,180,2|0,0:0|0:0,0:0:0:0:
27,171,124017,1,8,0:3:0:0:
192,255,124160,1,2,1:0:0:0:
23,351,124303,2,0,P|33:288|39:234,1,90,2|0,1:2|0:0,0:0:0:0:
97,212,124517,1,0,0:0:0:0:
97,212,124588,2,0,L|139:198,1,45,8|0,0:3|0:0,0:0:0:0:
201,133,124731,1,0,0:0:0:0:
113,100,124874,53,0,0:0:0:0:
273,200,125017,1,10,1:0:0:0:
336,142,125160,1,8,0:3:0:0:
332,119,125231,1,8,1:0:0:0:
328,97,125303,1,8,1:0:0:0:
325,75,125374,1,8,1:0:0:0:
321,53,125446,1,4,1:0:0:0:
316,47,125874,101,2,2:3:0:0:
92,226,126160,101,2,1:3:0:0:
195,323,126303,1,10,3:3:0:0:
280,272,126446,1,2,3:3:0:0:
188,336,126588,70,0,P|176:249|269:186,1,180,6|8,1:3|0:3,0:0:0:0:
512,216,127017,2,0,P|522:131|445:81,1,180,0|2,3:0|3:1,0:0:0:0:
312,42,127446,2,0,B|284:79|284:79|300:138,1,90,8|0,0:3|0:0,0:0:0:0:
372,98,127731,6,0,P|285:85|176:72,1,180,4|8,1:2|0:3,0:0:0:0:
28,236,128160,2,0,P|35:194|45:141,1,90,2|0,3:1|0:0,0:0:0:0:
10,73,128446,1,2,3:1:0:0:
117,94,128588,2,0,L|103:-14,1,90,8|0,0:3|0:0,0:0:0:0:
44,156,128874,102,0,B|135:160|113:200|216:199,1,180,6|8,0:0|0:3,0:0:0:0:
300,8,129303,2,0,P|225:28|204:139,1,180,2|2,3:1|3:1,0:0:0:0:
316,228,129731,2,0,P|304:181|286:126,1,90,8|0,0:3|0:0,0:0:0:0:
453,53,130017,2,0,P|439:155|426:244,1,180,6|8,1:2|0:3,0:0:0:0:
471,319,130446,1,2,3:1:0:0:
471,319,130731,37,0,3:0:0:0:
338,222,130874,2,0,L|249:243,1,90,8|0,0:3|0:0,0:0:0:0:
17,184,131160,86,0,P|64:185|109:203,1,90,6|0,1:2|0:0,0:0:0:0:
28,95,131446,1,8,0:3:0:0:
178,135,131588,2,0,P|281:127|357:89,1,180,0|2,3:0|3:1,0:0:0:0:
512,13,132017,2,0,P|465:6|415:22,1,90,8|0,0:3|0:0,0:0:0:0:
455,194,132303,102,0,P|447:153|435:98,1,90,2|0,1:2|0:0,0:0:0:0:
316,4,132588,1,8,0:3:0:0:
248,73,132731,2,0,P|255:117|285:260,1,180,0|2,1:0|3:1,0:0:0:0:
351,105,133160,1,8,0:3:0:0:
351,105,133303,1,0,0:0:0:0:
221,187,133446,6,0,P|164:193|96:151,1,135,2|0,1:2|0:0,0:0:0:0:
96,139,133731,1,8,0:3:0:0:
44,286,133874,2,0,P|145:284|224:332,1,180,0|2,3:0|0:0,0:0:0:0:
354,254,134303,2,0,P|397:238|440:232,1,90,8|0,0:3|3:0,0:0:0:0:
463,139,134588,37,0,1:0:0:0:
347,50,134731,1,0,0:0:0:0:
260,165,134874,2,0,P|266:191|271:220,2,45,8|0|0,0:3|0:0|0:0,0:0:0:0:
373,141,135160,101,8,1:3:0:0:
357,136,135231,1,8,1:3:0:0:
340,132,135303,1,8,1:3:0:0:
324,129,135374,1,8,1:3:0:0:
308,124,135446,1,8,1:2:0:0:
291,120,135517,1,8,1:2:0:0:
275,117,135588,1,8,1:2:0:0:
259,112,135660,1,8,1:2:0:0:
242,108,135731,85,6,1:2:0:0:
71,137,135874,2,0,P|109:157|167:163,1,90,0|8,0:0|0:3,0:0:0:0:
344,224,136160,2,0,P|245:221|187:271,1,180,2|2,0:2|1:2,0:0:0:0:
358,317,136588,1,8,0:3:0:0:
444,259,136731,2,0,P|440:220|431:165,1,90,2|0,1:2|0:0,0:0:0:0:
312,65,137017,1,2,1:2:0:0:
362,135,137160,37,10,0:3:0:0:
399,54,137303,1,0,0:0:0:0:
261,0,137446,1,0,1:0:0:0:
228,75,137588,1,0,1:0:0:0:
409,45,137731,2,0,P|450:37|497:28,1,90,10|0,0:3|0:0,0:0:0:0:
318,74,138017,70,0,B|214:80|257:126|141:131,1,180,2|10,1:2|0:2,0:0:0:0:
50,7,138446,2,0,P|68:53|76:97,1,90,2|2,1:2|0:2,0:0:0:0:
253,124,138731,2,0,P|239:169|237:218,1,90,2|10,1:2|0:2,0:0:0:0:
14,181,139017,38,0,P|62:127|163:148,1,180,2|0,1:2|1:0,0:0:0:0:
82,353,139446,2,0,P|70:313|57:262,1,90,10|0,0:3|0:0,0:0:0:0:
243,217,139731,69,2,1:2:0:0:
161,285,139874,1,0,1:0:0:0:
248,208,140017,1,10,0:3:0:0:
303,321,140160,38,0,L|390:341,1,90,6|0,1:2|0:0,0:0:0:0:
245,193,140446,2,0,L|260:94,1,90,2|8,1:2|0:3,0:0:0:0:
463,109,140731,2,0,B|399:170|399:170|386:171|386:171|329:230,1,180,2|0,0:0|1:0,0:0:0:0:
167,119,141160,1,8,0:3:0:0:
168,34,141303,70,0,P|247:19|322:93,1,180,2|0,1:2|1:0,0:0:0:0:
191,282,141731,2,0,P|152:287|99:300,1,90,10|0,0:3|0:0,0:0:0:0:
99,140,142017,1,2,1:2:0:0:
163,203,142160,1,2,1:2:0:0:
296,157,142303,1,10,0:3:0:0:
366,220,142446,38,0,P|423:292|406:388,1,180,2|0,1:2|1:0,0:0:0:0:
277,245,142874,2,0,P|283:198|305:141,1,90,8|0,0:3|0:0,0:0:0:0:
429,61,143160,2,0,P|464:30|508:10,1,90,2|2,1:2|1:2,0:0:0:0:
395,147,143446,1,10,0:3:0:0:
466,201,143588,2,0,P|482:246|490:304,1,90,2|0,1:2|0:0,0:0:0:0:
239,355,143874,69,2,1:2:0:0:
224,192,144017,1,8,0:3:0:0:
379,280,144160,1,0,0:0:0:0:
289,286,144303,22,0,L|299:233,1,45,2|2,1:2|0:2,0:0:0:0:
372,182,144446,1,0,0:0:0:0:
197,276,144589,2,0,P|148:290|90:242,1,107.999996704102,10|8,0:3|1:3,0:0:0:0:
79,173,144803,1,0,0:0:0:0:
93,162,144874,6,0,P|101:114|111:55,1,107.999996704102,6|0,1:2|0:0,0:0:0:0:
35,25,145160,1,8,0:3:0:0:
183,140,145303,2,0,B|269:126|269:126|279:132|279:132|369:119,1,180,2|2,1:2|1:2,0:0:0:0:
415,54,145731,1,8,0:0:0:0:
293,9,145874,2,0,P|284:53|278:103,1,90,6|0,1:2|0:0,0:0:0:0:
165,266,146160,69,2,1:2:0:0:
165,266,146303,2,0,P|121:250|65:240,1,90,10|0,0:3|0:0,0:0:0:0:
358,213,146588,2,0,P|366:163|366:94,1,90,10|2,1:2|1:2,0:0:0:0:
208,171,146874,2,0,P|183:130|135:96,1,90,10|0,2:3|0:0,0:0:0:0:
342,307,147160,38,0,B|437:310|424:359|529:358,1,180,2|10,1:2|0:3,0:0:0:0:
255,254,147588,2,0,P|247:300|253:344,1,90,2|2,1:2|0:2,0:0:0:0:
406,202,147874,2,0,P|450:180|481:151,1,90,2|10,1:2|0:3,0:0:0:0:
249,250,148160,2,0,P|159:256|65:280,1,180,2|0,1:2|1:0,0:0:0:0:
17,73,148588,1,10,0:3:0:0:
97,120,148731,1,0,0:0:0:0:
0,243,148874,2,0,L|19:141,1,90,2|2,1:2|1:2,0:0:0:0:
97,33,149160,1,10,0:3:0:0:
186,139,149303,70,0,P|243:153|309:109,1,135,6|0,1:2|0:0,0:0:0:0:
311,106,149588,2,0,L|297:17,1,90,2|10,1:2|0:3,0:0:0:0:
467,0,149874,2,0,L|478:92,1,90,2|2,0:2|1:2,0:0:0:0:
405,171,150160,2,0,L|399:126,2,45,2|0|8,1:2|3:0|0:3,3:0:0:0:
456,251,150446,38,0,L|360:261,1,90,2|0,1:2|0:0,0:0:0:0:
230,184,150731,1,0,1:0:0:0:
166,244,150874,2,0,L|61:260,1,90,10|0,0:3|0:0,0:0:0:0:
275,339,151160,2,0,P|281:293|291:235,1,90,2|2,1:2|1:2,0:0:0:0:
398,79,151446,1,10,0:3:0:0:
398,79,151588,70,0,P|352:144|250:135,1,180,2|0,1:2|1:0,0:0:0:0:
97,86,152017,2,0,P|93:40|115:-9,1,90,8|0,0:3|0:0,0:0:0:0:
207,50,152303,1,2,1:2:0:0:
171,134,152446,1,2,1:2:0:0:
194,220,152588,2,0,P|191:248|181:269,1,45,10|0,0:3|0:0,0:0:0:0:
86,318,152731,38,0,B|63:309|49:293|49:293|82:256|129:243|178:265,1,180,2|8,1:2|1:0,0:0:0:0:
303,228,153160,1,8,0:3:0:0:
283,315,153303,1,8,1:3:0:0:
417,367,153446,1,8,1:3:0:0:
429,353,153517,1,0,1:0:0:0:
435,338,153588,1,8,1:3:0:0:
433,321,153660,1,0,1:0:0:0:
424,307,153731,102,0,L|368:291,1,45,8|0,1:3|1:0,3:0:0:0:
195,259,153874,1,8,1:3:0:0:
283,315,154017,86,0,L|303:226,1,90,6|0,1:2|0:0,0:0:0:0:
403,84,154303,2,0,P|372:123|244:107,1,180,8|0,0:3|1:0,0:0:0:0:
138,57,154731,1,0,0:0:0:0:
76,126,154874,2,0,P|41:117|-16:106,1,90,8|0,0:3|0:0,0:0:0:0:
191,0,155160,2,0,P|178:69|173:137,1,135,0|0,1:0|0:0,0:0:0:0:
173,133,155446,2,0,P|193:230|198:323,1,180,8|0,0:3|1:0,0:0:0:0:
107,228,155874,1,0,1:0:0:0:
202,316,156017,2,0,P|246:328|290:339,1,90,8|0,0:3|0:0,0:0:0:0:
428,169,156303,70,0,P|332:179|299:254,1,180,0|8,1:0|0:3,0:0:0:0:
381,364,156731,1,0,1:0:0:0:
187,98,157017,1,0,1:0:0:0:
119,156,157160,2,0,B|23:173,1,90,8|0,0:3|2:0,0:0:0:0:
267,53,157446,2,0,L|316:65,2,45,0|0|0,1:0|0:0|0:0,0:0:0:0:
173,12,157731,2,0,B|168:110|211:92|206:204,1,180,8|0,0:3|1:0,0:0:0:0:
111,265,158160,1,0,1:0:0:0:
32,186,158303,2,0,P|40:137|64:88,1,90,8|0,0:3|0:0,0:0:0:0:
203,284,158588,38,0,P|292:297|387:316,1,180,0|8,1:0|0:3,0:0:0:0:
489,185,159017,2,0,P|477:230|469:292,1,90,0|0,1:0|0:0,0:0:0:0:
471,273,159303,1,0,1:0:0:0:
381,223,159446,2,0,P|362:183|336:140,1,90,8|0,0:3|0:0,0:0:0:0:
170,350,159731,69,0,1:0:0:0:
159,270,159874,1,0,0:0:0:0:
233,301,160017,1,8,0:3:0:0:
91,318,160160,2,0,P|47:310|-25:300,1,90,0|0,0:0|1:0,0:0:0:0:
212,187,160446,1,0,1:0:0:0:
212,187,160588,2,0,P|278:156|341:180,1,135,8|0,0:3|0:0,0:0:0:0:
333,174,160874,38,0,B|306:245|332:245|306:317,2,135,0|0|0,1:0|0:0|1:0,0:0:0:0:
429,293,161446,2,0,B|378:329|400:342|342:392,2,121.499996292114,0|0|0,3:0|3:0|0:0,3:0:0:0:
512,256,162017,1,0,1:0:0:0:
424,97,162231,69,0,0:0:0:0:
416,86,162303,2,0,P|349:90|273:116,1,135,8|0,0:3|0:0,0:0:0:0:
147,71,162588,1,0,1:0:0:0:
237,39,162731,1,0,1:0:0:0:
159,158,162874,2,0,P|113:169|69:99,1,135,8|0,0:3|0:0,0:0:0:0:
154,180,163160,38,0,B|252:178|227:227|327:235,1,180,4|8,1:0|0:3,0:0:0:0:
415,43,163588,2,0,B|390:39|361:29|361:29|330:65|333:114|371:142,1,180,0|0,1:0|1:0,0:0:0:0:
415,223,164017,1,8,0:3:0:0:
415,223,164160,1,0,0:0:0:0:
512,186,164303,70,0,L|498:278,1,90,0|0,1:0|0:0,0:0:0:0:
321,234,164588,2,0,L|298:142,1,90,8|0,0:3|0:0,0:0:0:0:
413,84,164874,2,0,L|513:58,1,90,0|0,1:0|1:0,3:0:0:0:
512,72,165160,2,0,L|411:98,1,90,8|0,0:3|0:0,0:0:0:0:
302,134,165446,2,0,P|230:107|120:117,1,180,0|8,1:0|0:3,0:0:0:0:
128,114,165874,1,0,1:0:0:0:
15,371,166160,1,0,1:0:0:0:
81,314,166303,2,0,P|126:311|168:295,1,90,8|0,0:3|0:0,0:0:0:0:
342,361,166588,37,0,1:0:0:0:
287,296,166731,1,0,0:0:0:0:
376,183,166874,2,0,B|386:233|386:233|360:283,1,90,8|0,0:3|0:0,0:0:0:0:
300,216,167160,1,8,1:0:0:0:
462,248,167303,1,0,1:0:0:0:
291,206,167446,2,0,B|238:202|238:202|213:183|213:183|144:170,1,135,8|0,0:3|0:0,0:0:0:0:
110,236,167731,22,0,P|120:281|128:329,1,90,4|0,1:0|0:0,0:0:0:0:
0,121,168017,1,8,0:3:0:0:
0,121,168160,2,0,L|15:12,1,90,0|0,1:0|0:0,0:0:0:0:
83,153,168446,1,0,1:0:0:0:
181,86,168588,2,0,P|98:73|-17:59,1,180,8|0,0:3|1:0,0:0:0:0:
396,87,169160,38,0,P|363:61|333:9,1,90,8|0,0:3|0:0,0:0:0:0:
270,190,169446,2,0,P|309:174|369:174,1,90,0|0,1:0|1:0,3:0:0:0:
237,32,169731,2,0,P|230:73|200:125,1,90,8|0,0:3|0:0,0:0:0:0:
288,284,170017,38,0,P|272:233|150:209,1,180,8|8,1:1|0:3,0:0:0:0:
64,372,170446,1,0,1:0:0:0:
196,282,170588,1,8,0:1:0:0:
100,285,170731,1,8,1:1:0:0:
163,365,170874,2,0,L|262:377,1,90,8|0,0:3|0:0,0:0:0:0:
58,203,171160,69,8,1:1:0:0:
58,203,171303,1,8,1:1:0:0:
243,212,171446,2,0,L|228:123,1,90,8|0,1:3|1:0,0:0:0:0:
95,81,171731,37,8,1:1:0:0:
145,166,171874,1,8,0:1:0:0:
311,94,172017,37,8,0:3:0:0:
263,9,172160,1,0,0:3:0:0:
397,64,172303,54,0,P|447:72|507:94,1,90,4|0,2:1|0:0,0:0:0:0:
484,83,172588,1,8,0:3:0:0:
283,177,172874,1,0,0:0:0:0:
425,157,173017,2,0,P|449:207|465:259,1,90,8|8,1:0|0:3,0:0:0:0:
312,384,173303,2,0,B|313:285|347:317|359:205,1,180,0|0,1:0|1:0,0:0:0:0:
503,345,173731,2,0,P|453:345|410:319,1,90,8|0,0:3|0:0,0:0:0:0:
270,214,174017,53,0,1:0:0:0:
251,189,174160,1,8,1:1:0:0:
205,174,174303,1,8,0:3:0:0:
131,212,174446,1,0,0:0:0:0:
103,290,174588,2,0,P|109:200|156:91,2,180,0|8|0,1:0|0:3|1:0,0:0:0:0:
273,336,175303,53,8,1:1:0:0:
363,345,175446,1,8,0:3:0:0:
428,275,175588,2,0,L|393:177,1,90,0|0,1:0|0:0,0:0:0:0:
461,53,175874,2,0,L|374:36,1,45,0|0,1:0|0:0,0:0:0:0:
392,74,176017,2,0,B|325:88|325:88|294:69|294:69|210:89,1,180,8|0,0:3|1:0,0:0:0:0:
24,97,176446,1,8,1:1:0:0:
185,184,176588,1,8,0:3:0:0:
185,184,176731,1,8,0:1:0:0:
111,104,176874,54,0,P|99:146|92:200,1,90,0|0,1:0|0:0,0:0:0:0:
165,274,177160,1,8,0:3:0:0:
338,243,177303,2,0,P|268:182|183:185,1,180,8|0,1:1|1:0,0:0:0:0:
312,339,177731,2,0,B|410:313|401:365|499:342,1,180,8|0,0:3|0:0,0:0:0:0:
234,274,178160,1,8,1:1:0:0:
234,274,178303,2,0,P|221:322|215:376,1,90,8|0,0:3|0:0,0:0:0:0:
283,133,178588,53,4,3:3:0:0:
283,133,178731,1,8,1:3:0:0:
420,173,178874,1,8,0:3:0:0:
315,286,179017,1,2,0:0:0:0:
339,201,179160,54,0,P|414:174|515:185,2,180,0|8|0,1:0|0:3|1:0,0:0:0:0:
188,69,179874,1,8,1:3:0:0:
267,108,180017,2,0,P|259:152|253:197,1,90,8|8,0:3|1:1,0:0:0:0:
101,132,180303,2,0,P|96:88|87:44,1,90,0|0,0:0|1:0,0:0:0:0:
141,234,180588,1,8,0:3:0:0:
146,222,180660,1,8,0:2:0:0:
153,208,180731,2,0,B|244:208|237:252|323:256,1,180,0|8,0:0|1:1,0:0:0:0:
439,123,181160,2,0,P|452:58|410:-2,1,135,8|0,0:3|0:0,0:0:0:0:
326,128,181446,86,0,P|404:132|464:216,1,180,4|8,1:0|0:3,0:0:0:0:
288,311,181874,2,0,P|204:322|98:344,1,180,0|8,0:0|1:1,0:0:0:0:
81,217,182303,2,0,P|32:203|-18:196,1,90,8|0,0:3|1:0,0:0:0:0:
191,92,182588,2,0,P|213:161|155:256,1,180,0|8,0:0|0:3,0:0:0:0:
20,295,183017,1,0,0:0:0:0:
48,167,183160,2,0,L|70:67,1,90,0|0,1:0|1:0,0:0:0:0:
244,166,183446,1,8,0:3:0:0:
182,94,183588,1,0,0:0:0:0:
275,62,183731,54,0,B|371:48|357:98|452:92,2,180,0|8|0,1:0|0:3|1:0,0:0:0:0:
159,211,184446,1,0,1:0:0:0:
242,269,184588,2,0,P|249:221|257:169,1,90,8|0,0:3|1:0,0:0:0:0:
417,168,184874,2,0,P|385:204|357:245,1,90,0|0,0:0|1:0,0:0:0:0:
397,337,185160,2,0,P|444:331|497:337,1,90,8|0,0:3|0:0,0:0:0:0:
285,296,185446,2,0,B|243:290|243:290|197:315,1,90,0|8,1:0|1:1,0:0:0:0:
89,365,185731,2,0,B|48:371|48:371|3:351,1,90,8|0,0:3|0:0,0:0:0:0:
27,124,186017,38,0,P|85:173|65:270,1,180,2|8,1:2|0:3,0:0:0:0:
67,267,186446,1,0,0:0:0:0:
176,171,186588,2,0,P|223:178|279:190,1,90,2|8,1:2|1:1,0:0:0:0:
474,207,186874,1,8,0:3:0:0:
342,249,187017,1,0,1:0:0:0:
387,168,187160,37,2,0:2:0:0:
420,261,187303,1,10,1:1:0:0:
340,238,187446,1,10,0:3:0:0:
469,195,187588,1,2,0:2:0:0:
358,86,187731,2,0,L|332:-2,2,90,0|0|8,1:0|1:2|0:3,0:0:0:0:
358,86,188160,1,2,0:2:0:0:
325,239,188303,102,0,P|261:222|219:146,1,135,4|0,1:0|0:0,0:0:0:0:
203,138,188588,2,0,L|239:53,1,90,8|0,0:3|0:0,0:0:0:0:
319,84,188874,1,8,1:0:0:0:
132,64,189017,2,0,L|48:97,1,90,0|0,1:0|0:0,0:0:0:0:
143,66,189303,1,0,1:0:0:0:
0,182,189446,2,0,L|87:203,1,90,0|8,1:0|1:0,0:0:0:0:
232,145,189731,5,8,0:3:0:0:
192,293,189874,1,8,1:0:0:0:
335,287,190017,101,8,1:0:0:0:
345,278,190088,1,8,1:0:0:0:
348,264,190160,1,8,1:0:0:0:
380,121,190303,1,8,0:3:0:0:
380,121,190446,1,0,1:0:0:0:
182,78,190589,22,0,P|204:124|164:206,1,144,4|0,1:0|0:0,0:0:0:0:
175,211,191446,1,0,0:0:0:0:
175,211,191731,2,0,B|286:177|277:241|393:203,1,216,2|0,2:2|0:0,0:0:0:0:
420,59,192874,2,0,P|384:21|299:44,1,144,2|2,0:0|0:0,0:0:0:0:
142,116,193731,1,8,0:3:0:0:
188,178,194017,6,0,P|242:160|262:112,1,108,4|0,1:2|0:0,0:0:0:0:
113,253,194588,2,0,P|78:227|12:249,1,108,4|0,1:2|0:0,0:0:0:0:
158,321,195160,102,0,B|175:201|119:227|137:107,1,216,4|8,1:0|0:3,0:0:0:0:
91,34,196303,2,0,B|-3:50|-3:50|40:95,1,144,2|2,1:2|0:0,0:0:0:0:
360,136,197446,2,0,L|506:105,1,144,6|0,1:2|0:0,0:0:0:0:
368,145,199017,5,0,0:0:0:0:
368,145,199088,1,0,0:0:0:0:
368,145,199160,2,0,L|355:196,1,48,8|0,1:0|0:0,0:0:0:0:
244,258,199351,54,0,L|308:249,1,48,8|0,1:0|0:3,0:0:0:0:
410,316,199541,70,0,L|377:279,1,48,8|0,2:3|0:0,0:0:0:0:
270,170,199731,101,6,1:2:0:0:
150,253,200017,1,8,0:3:0:0:
150,253,200160,1,0,1:0:0:0:
150,253,200303,2,0,P|158:288|164:323,1,72,8|0,1:0|0:0,0:0:0:0:
247,315,200588,2,0,P|238:279|232:244,1,72,8|0,0:3|1:0,0:0:0:0:
87,355,200874,2,0,P|26:321|22:252,1,144,0|8,3:0|0:3,0:0:0:0:
22,252,201446,2,0,L|93:242,1,72,10|0,1:0|0:0,0:0:0:0:
160,194,201731,1,8,0:3:0:0:
429,367,202017,6,0,L|404:225,2,144,0|8|8,1:0|0:3|1:0,0:0:0:0:
399,217,202874,2,0,L|414:146,1,72,8|0,0:3|0:0,0:0:0:0:
485,114,203160,21,2,1:2:0:0:
305,228,203446,1,8,0:3:0:0:
300,30,203731,1,8,1:0:0:0:
397,169,203874,5,0,0:0:0:0:
318,134,204017,1,8,0:3:0:0:
386,82,204160,1,8,1:0:0:0:
222,195,204303,86,0,P|182:186|142:178,1,80.9999975280763,6|0,3:2|0:0,0:0:0:0:
17,114,204588,2,0,P|96:100|166:60,1,161.999995056153,8|0,0:3|3:0,0:0:0:0:
54,202,205017,1,0,1:0:0:0:
54,202,205160,2,0,P|65:240|72:280,1,80.9999975280763,8|0,0:3|0:0,0:0:0:0:
267,358,205446,22,0,P|339:328|357:252,1,161.999995056153,6|8,3:2|0:3,0:0:0:0:
357,252,206017,1,2,3:0:0:0:
506,136,206160,1,0,1:0:0:0:
415,132,206303,2,0,P|425:171|435:210,1,80.9999975280763,8|0,0:3|0:0,0:0:0:0:
255,272,206588,86,0,B|186:256|186:256|174:247|174:247|97:229,1,161.999995056153,2|8,3:2|0:3,0:0:0:0:
99,229,207017,1,2,0:0:0:0:
124,319,207160,21,6,3:1:0:0:
193,214,207303,1,2,1:2:0:0:
0,195,207446,2,0,L|19:273,1,80.9999975280763,8|2,0:3|0:0,0:0:0:0:
263,299,207731,86,0,P|340:275|420:260,1,161.999995056153,6|8,1:2|0:3,0:0:0:0:
420,260,208160,1,0,1:0:0:0:
249,85,208303,22,0,P|171:108|91:123,1,161.999995056153,0|8,1:0|0:3,0:0:0:0:
91,123,208731,1,2,2:0:0:0:
374,178,208874,102,0,P|361:139|350:100,1,80.9999975280763,2|8,1:0|3:0,0:0:0:0:
138,206,209160,38,0,P|150:244|161:283,1,80.9999975280763,8|8,0:3|0:3,0:0:0:0:
276,169,209446,101,8,1:0:0:0:
257,176,209517,1,8,1:0:0:0:
238,183,209588,1,8,1:0:0:0:
245,201,209660,1,8,1:0:0:0:
252,220,209731,1,8,0:3:0:0:
270,213,209803,1,8,1:0:0:0:
289,206,209874,1,8,1:0:0:0:
282,188,209946,1,0,1:0:0:0:
275,169,210017,1,10,1:0:0:0:
360,289,210160,6,0,L|464:314,1,107.999996704102,10|6,1:0|1:0,0:0:0:0:
262,190,211017,54,0,P|177:216|86:230,1,180,14|12,1:0|3:0,0:0:0:0:
39,167,211446,5,8,0:3:0:0:
471,217,211731,5,8,1:0:0:0:
427,220,211827,101,12,1:3:0:0:
383,223,211922,5,12,1:3:0:0:
350,196,212017,101,8,0:3:0:0:
306,193,212112,5,12,1:3:0:0:
262,190,212208,101,12,1:3:0:0:
225,216,212303,86,0,B|210:263|210:263|227:299,1,90,6|0,1:2|0:0,0:0:0:0:
300,264,212588,1,8,0:3:0:0:
434,369,212732,2,0,P|385:277|287:268,1,198.000006042481,6|0,1:2|1:0,0:0:0:0:
210,345,213160,69,8,0:3:0:0:
114,172,213303,2,0,L|123:73,1,99.0000030212403,6|0,1:2|0:0,0:0:0:0:
66,283,213588,21,0,1:0:0:0:
233,188,213731,1,8,0:3:0:0:
299,263,213874,2,0,L|293:312,1,49.5000015106202,4|0,1:3|0:0,0:0:0:0:
178,261,214017,101,8,1:0:0:0:
320,162,214160,2,0,L|425:185,1,108,8|6,1:0|1:2,0:0:0:0:
383,340,216446,37,2,0:0:0:0:
383,340,216588,2,0,L|399:273,1,54,8|0,0:3|0:0,0:0:0:0:
414,273,216874,5,6,1:2:0:0:
48,291,217160,2,0,P|119:285|188:266,1,144,8|0,0:3|1:0,0:0:0:0:
251,205,217588,1,0,3:0:0:0:
276,285,217731,1,8,0:3:0:0:
171,346,217874,2,0,P|141:280|135:209,1,144,2|0,1:2|3:0,0:0:0:0:
202,132,218303,6,0,P|237:124|270:109,1,72,8|0,0:3|0:0,0:0:0:0:
344,203,218588,2,0,P|378:213|413:217,1,72,2|0,0:0|0:0,0:0:0:0:
271,314,218874,2,0,P|295:340|324:361,1,72,8|0,0:3|0:0,0:0:0:0:
396,318,219088,1,0,0:0:0:0:
396,318,219160,102,0,L|406:246,1,72,6|0,1:2|0:0,0:0:0:0:
467,191,219446,1,8,0:3:0:0:
320,222,219588,2,0,P|261:263|192:281,1,144,2|0,1:2|1:0,0:0:0:0:
76,323,220017,5,8,0:3:0:0:
165,364,220160,2,0,L|145:221,1,144,2|0,1:2|1:0,0:0:0:0:
97,157,220588,1,10,0:3:0:0:
151,94,220731,1,8,0:0:0:0:
222,60,220874,1,2,1:2:0:0:
297,80,221017,1,0,1:0:0:0:
358,128,221160,1,10,0:3:0:0:
468,9,221303,102,0,P|426:25|384:43,1,90,6|0,1:2|0:0,0:0:0:0:
384,43,221588,1,2,1:2:0:0:
210,186,221731,2,0,P|298:203|384:227,1,180,8|2,0:3|1:2,0:0:0:0:
460,200,222160,1,2,1:2:0:0:
265,364,222303,5,8,0:3:0:0:
309,294,222446,1,2,1:2:0:0:
309,294,222517,1,0,1:0:0:0:
309,294,222589,2,0,B|313:202|290:234|295:151,1,144,0|10,0:0|0:3,0:0:0:0:
432,75,223017,2,0,P|417:108|409:143,1,72,0|2,0:0|1:2,0:0:0:0:
462,204,223303,101,2,1:2:0:0:
340,86,223446,1,10,0:3:0:0:
286,160,223588,2,0,L|143:182,1,144,2|0,1:2|1:0,0:0:0:0:
85,64,224017,2,0,L|154:84,1,72,8|0,0:3|0:0,0:0:0:0:
214,236,224303,5,2,1:2:0:0:
74,202,224446,1,2,1:2:0:0:
153,179,224588,1,10,0:3:0:0:
119,327,224731,2,0,L|133:257,1,72,2|0,1:2|0:0,0:0:0:0:
234,230,225017,101,2,1:2:0:0:
212,319,225160,2,0,B|297:316|279:336|354:332,1,144,8|2,0:3|1:2,0:0:0:0:
511,141,225588,1,0,0:0:0:0:
419,280,225731,1,10,0:3:0:0:
436,285,225803,1,0,1:3:0:0:
453,291,225874,1,8,2:3:0:0:
470,297,225946,1,0,1:0:0:0:
487,302,226017,22,0,L|464:206,1,90,6|0,1:2|0:0,0:0:0:0:
323,71,226303,1,8,0:3:0:0:
431,33,226446,2,0,B|408:111|408:111|401:118|401:118|373:216,1,180,2|10,1:2|1:2,0:0:0:0:
249,314,226874,5,8,0:0:0:0:
174,356,227017,2,0,B|156:318|156:318|173:273,1,90,6|0,1:2|0:0,0:0:0:0:
419,278,227303,101,2,1:2:0:0:
494,232,227446,2,0,B|511:269|511:269|494:314,1,90,10|0,0:3|0:0,0:0:0:0:
249,314,227731,2,0,L|337:330,1,90,2|2,1:2|1:2,0:0:0:0:
409,281,227946,1,0,1:0:0:0:
409,281,228017,2,0,P|409:215|350:172,1,135,10|0,2:3|0:0,0:0:0:0:
332,178,228303,6,0,P|336:134|367:101,1,90,2|0,1:2|0:0,0:0:0:0:
456,132,228588,1,10,0:3:0:0:
262,239,228731,2,0,B|163:233|188:271|85:265,1,180,2|2,1:2|1:2,0:0:0:0:
43,202,229160,1,10,0:3:0:0:
181,278,229303,2,0,L|164:366,2,90,2|0|0,1:2|0:0|1:0,0:0:0:0:
118,109,229731,102,0,P|56:130|40:192,1,135,10|0,0:3|0:0,0:0:0:0:
134,117,230017,2,0,P|166:86|177:43,1,90,2|2,1:2|1:2,0:0:0:0:
220,183,230303,5,10,0:3:0:0:
88,35,230446,2,0,P|170:70|258:86,1,180,6|2,1:2|1:2,0:0:0:0:
329,39,230874,1,10,0:3:0:0:
474,117,231017,101,2,0:2:0:0:
408,153,231160,1,2,1:2:0:0:
477,198,231303,1,2,1:2:0:0:
409,76,231446,1,8,0:3:0:0:
477,198,231588,6,0,L|461:286,1,90,2|0,1:2|0:0,0:0:0:0:
252,355,231874,1,0,1:0:0:0:
199,297,232017,2,0,L|214:208,1,90,10|0,0:3|0:0,0:0:0:0:
377,254,232303,102,0,P|334:267|290:280,1,90,2|2,1:2|1:2,0:0:0:0:
118,225,232588,1,10,0:3:0:0:
5,304,232731,2,0,P|89:334|169:375,1,180,2|0,1:2|1:0,0:0:0:0:
208,301,233160,6,0,P|205:256|204:211,1,90,8|0,0:3|0:0,0:0:0:0:
264,124,233446,1,2,1:2:0:0:
118,171,233588,1,2,1:2:0:0:
289,210,233731,1,10,0:3:0:0:
179,107,233874,2,0,P|177:62|176:17,1,90,2|0,1:2|0:0,0:0:0:0:
31,108,234160,101,0,1:0:0:0:
64,182,234303,1,8,0:3:0:0:
134,216,234446,1,8,1:2:0:0:
213,203,234588,1,8,1:3:0:0:
281,162,234731,1,8,1:3:0:0:
341,111,234874,1,8,0:3:0:0:
418,99,235017,1,8,1:3:0:0:
481,151,235160,2,0,L|464:216,1,67.5,6|0,1:2|0:0,0:0:0:0:
449,221,235446,86,0,L|406:207,1,45,8|0,0:3|0:0,0:0:0:0:
271,309,235588,1,2,0:2:0:0:
145,79,235874,37,2,1:2:0:0:
271,309,236160,70,0,B|196:331|196:331|186:346|186:346|105:368,1,180,2|2,1:2|1:2,0:0:0:0:
48,306,236588,2,0,L|66:217,1,90,10|0,0:3|0:0,0:0:0:0:
175,244,236874,37,2,1:2:0:0:
281,326,237017,1,2,1:2:0:0:
403,230,237160,2,0,P|358:238|314:244,1,90,10|0,0:3|0:0,0:0:0:0:
314,244,237374,1,0,1:0:0:0:
314,244,237446,70,0,L|295:155,1,90,2|2,1:2|0:2,0:0:0:0:
387,139,237731,1,10,0:3:0:0:
180,249,237874,2,0,P|265:259|305:337,1,180,2|2,1:2|1:2,0:0:0:0:
174,333,238303,1,10,0:3:0:0:
100,290,238446,2,0,P|90:246|102:203,1,90,2|0,1:2|0:0,0:0:0:0:
310,253,238731,37,0,1:0:0:0:
379,290,238874,2,0,P|424:281|467:269,1,90,10|2,0:3|0:0,0:0:0:0:
276,104,239160,69,2,1:2:0:0:
318,172,239303,1,2,1:2:0:0:
276,104,239446,1,10,0:3:0:0:
157,189,239588,38,0,B|94:176|94:176|77:118|121:68,1,180,6|2,1:2|1:2,0:0:0:0:
399,197,240017,1,8,0:3:0:0:
399,197,240088,1,0,1:0:0:0:
399,197,240160,2,0,B|293:211|320:244|231:257,1,180,2|10,0:2|1:2,0:0:0:0:
204,126,240588,1,8,1:3:0:0:
298,50,240731,2,0,P|295:94|288:142,1,90,2|0,1:2|0:0,0:0:0:0:
132,200,241017,69,0,1:0:0:0:
242,270,241160,2,0,P|272:303|295:341,1,90,10|0,0:3|0:0,0:0:0:0:
104,286,241446,37,2,1:2:0:0:
218,183,241588,1,2,1:2:0:0:
78,128,241731,1,10,0:3:0:0:
132,200,241874,70,0,L|308:166,1,180,2|0,1:2|1:0,0:0:0:0:
371,328,242303,2,0,P|380:284|399:243,1,90,8|0,0:3|0:0,0:0:0:0:
495,245,242588,37,2,1:2:0:0:
338,171,242731,1,2,1:2:0:0:
492,66,242874,1,10,0:3:0:0:
435,173,243017,70,0,P|363:125|371:40,1,180,2|2,1:2|1:2,0:0:0:0:
481,43,243446,2,0,P|492:86|503:130,1,90,10|0,0:3|0:0,0:0:0:0:
400,267,243731,37,2,1:2:0:0:
448,189,243874,1,0,1:0:0:0:
334,139,244017,2,0,L|204:175,1,135,10|8,0:3|1:0,0:0:0:0:
137,140,244303,102,0,P|120:98|115:53,1,90,6|0,1:2|0:0,0:0:0:0:
203,83,244588,1,8,0:3:0:0:
19,198,244731,2,0,B|90:215|90:215|110:236|110:236|186:253,1,180,2|10,0:2|1:2,0:0:0:0:
256,193,245160,1,8,0:3:0:0:
440,301,245303,2,0,L|354:328,1,90,2|0,1:2|0:0,0:0:0:0:
368,229,245588,85,2,1:2:0:0:
266,289,245731,2,0,P|273:333|283:377,1,90,10|2,0:3|0:2,0:0:0:0:
166,152,246017,2,0,P|124:136|81:123,1,90,2|2,1:2|1:2,0:0:0:0:
335,134,246303,2,0,P|369:106|402:75,1,90,10|2,0:3|0:2,0:0:0:0:
187,245,246588,21,2,1:2:0:0:
338,225,246731,1,0,0:0:0:0:
246,117,246874,1,10,0:3:0:0:
256,199,247017,6,0,B|138:191|175:225|78:218,1,180,2|2,1:2|1:2,0:0:0:0:
207,278,247446,1,10,0:3:0:0:
61,214,247588,2,0,L|17:226,2,45,2|0|0,1:2|1:0|1:0,0:0:0:0:
117,135,247874,101,0,1:0:0:0:
119,296,248017,2,0,L|103:384,1,90,10|0,0:3|0:0,0:0:0:0:
287,282,248303,5,2,1:2:0:0:
161,205,248446,1,2,1:2:0:0:
216,342,248588,1,8,0:3:0:0:
261,184,248731,102,0,P|333:135|417:160,1,180,6|2,1:2|1:2,0:0:0:0:
243,267,249160,1,10,0:3:0:0:
329,306,249303,1,0,1:0:0:0:
329,306,249374,1,0,1:0:0:0:
329,306,249446,2,0,L|348:207,1,90,2|10,1:2|1:2,0:0:0:0:
429,283,249731,5,10,0:3:0:0:
234,278,249874,2,0,P|145:278|60:307,1,180,2|0,1:2|1:0,0:0:0:0:
0,181,250303,2,0,P|44:174|85:155,1,90,8|2,0:3|0:2,0:0:0:0:
101,82,250588,101,2,1:2:0:0:
254,153,250731,1,2,1:2:0:0:
177,183,250874,1,10,0:3:0:0:
310,85,251017,2,0,P|372:110|435:134,1,135,2|0,1:2|0:0,0:0:0:0:
454,127,251303,1,0,1:0:0:0:
339,193,251446,6,0,P|344:237|350:282,1,90,10|0,0:3|0:0,0:0:0:0:
365,306,251660,1,0,1:0:0:0:
365,306,251731,1,2,1:2:0:0:
252,210,251874,1,2,1:2:0:0:
431,226,252017,1,10,0:3:0:0:
289,345,252160,102,0,P|204:343|165:267,1,180,2|0,1:2|1:0,0:0:0:0:
157,67,252588,2,0,P|115:84|71:91,1,90,10|10,0:2|1:2,0:0:0:0:
51,82,252803,1,8,1:2:0:0:
51,82,252874,1,10,1:2:0:0:
97,225,253017,1,10,1:2:0:0:
214,148,253160,1,10,0:2:0:0:
286,198,253303,1,10,1:2:0:0:
358,156,253446,86,0,L|446:142,1,90,4|0,1:1|0:0,0:0:0:0:
493,218,253660,1,0,1:0:0:0:
493,218,253732,2,0,P|424:239|357:265,1,144,8|0,0:3|1:0,0:0:0:0:
197,319,254160,2,0,P|229:334|258:356,1,72,0|8,1:0|0:3,0:0:0:0:
252,241,254446,6,0,B|256:145|228:173|231:99,2,144,0|0|0,1:0|1:0|0:0,0:0:0:0:
329,316,255160,1,0,1:0:0:0:
329,316,255303,1,0,1:0:0:0:
232,327,255446,2,0,P|197:338|164:352,1,72,8|0,0:3|0:0,0:0:0:0:
120,281,255731,2,0,P|54:260|24:197,1,144,0|8,1:0|0:3,0:0:0:0:
78,120,256160,102,0,P|149:133|221:139,1,144,2|0,0:0|1:0,0:0:0:0:
297,87,256588,1,8,0:3:0:0:
221,139,256731,2,0,L|206:209,1,72,0|0,1:0|0:0,0:0:0:0:
342,306,257017,5,0,1:0:0:0:
418,254,257160,2,0,L|432:183,1,72,8|0,0:3|0:0,0:0:0:0:
354,167,257446,101,0,1:0:0:0:
288,224,257588,1,0,1:0:0:0:
354,167,257731,1,8,0:3:0:0:
217,39,257874,6,0,P|121:79|106:181,1,216,4|8,1:2|0:3,0:0:0:0:
106,181,258588,1,0,1:0:0:0:
70,269,258731,1,0,1:0:0:0:
36,355,258874,1,8,0:3:0:0:
22,200,259017,102,0,L|9:129,1,72,0|0,1:0|0:0,0:0:0:0:
150,253,259303,1,0,1:0:0:0:
123,342,259446,2,0,P|194:345|266:353,1,144,8|0,0:3|1:0,0:0:0:0:
465,232,259874,1,0,1:0:0:0:
312,287,260017,1,8,0:3:0:0:
405,358,260160,6,0,L|381:215,1,144,0|0,1:0|1:0,0:0:0:0:
428,150,260588,1,8,0:3:0:0:
117,123,260874,1,0,1:0:0:0:
182,76,261017,101,0,1:0:0:0:
51,70,261160,1,8,0:3:0:0:
118,203,261303,1,0,0:0:0:0:
279,146,261446,6,0,P|243:150|208:158,1,72,4|0,1:2|0:0,0:0:0:0:
117,123,261731,1,8,0:3:0:0:
0,271,261874,2,0,P|70:283|134:316,1,144,4|0,1:0|1:0,0:0:0:0:
268,366,262303,1,8,0:3:0:0:
264,348,262374,1,8,1:0:0:0:
261,330,262446,1,8,1:0:0:0:
257,312,262517,1,8,1:0:0:0:
254,295,262588,6,0,L|272:225,1,72,4|0,1:2|0:0,0:0:0:0:
181,216,262874,1,8,0:3:0:0:
430,302,263017,5,4,1:0:0:0:
181,216,263303,69,4,1:0:0:0:
430,302,263588,6,0,B|418:237|418:237|408:223|408:223|396:163,1,144,4|0,1:0|1:0,0:0:0:0:
477,123,264017,1,8,0:3:0:0:
335,20,264160,2,0,L|320:90,1,72,0|0,0:0|1:0,0:0:0:0:
419,66,264446,101,0,1:0:0:0:
314,180,264588,1,8,0:3:0:0:
241,41,264731,2,0,P|169:47|98:58,1,144,4|0,1:0|1:0,0:0:0:0:
27,226,265160,1,8,0:3:0:0:
3,141,265303,2,0,P|66:141|111:232,1,144,0|0,1:0|1:0,0:0:0:0:
236,324,265731,5,8,0:3:0:0:
165,277,265874,1,0,1:0:0:0:
165,277,265946,1,0,0:0:0:0:
165,277,266017,2,0,L|149:347,1,72,0|0,0:0|1:0,0:0:0:0:
59,356,266303,2,0,L|74:285,1,72,8|0,0:3|0:0,0:0:0:0:
236,324,266588,1,0,1:0:0:0:
302,367,266731,1,0,1:0:0:0:
365,328,266874,1,8,0:3:0:0:
303,284,267017,102,0,L|285:141,1,144,0|0,1:0|1:0,0:0:0:0:
394,223,267446,2,0,P|429:218|465:211,1,72,8|0,0:3|0:0,0:0:0:0:
199,199,267731,2,0,P|163:203|127:210,1,72,0|0,1:0|1:0,0:0:0:0:
52,167,268017,5,8,0:3:0:0:
171,292,268160,2,0,B|249:282|233:309|313:301,1,144,0|0,1:0|1:0,0:0:0:0:
382,260,268588,1,8,0:3:0:0:
390,340,268731,1,0,0:0:0:0:
311,225,268874,101,0,1:0:0:0:
451,294,269017,1,0,1:0:0:0:
321,377,269160,1,8,0:3:0:0:
226,307,269303,6,0,P|213:236|206:164,1,144,0|0,1:0|1:0,0:0:0:0:
492,106,269731,2,0,P|504:176|511:248,1,144,8|0,0:3|1:0,0:0:0:0:
289,148,270160,101,8,1:0:0:0:
408,278,270303,1,8,0:3:0:0:
425,175,270446,2,0,L|359:205,1,72,0|0,1:0|0:0,0:0:0:0:
197,261,270731,5,0,1:0:0:0:
308,262,270874,1,8,0:3:0:0:
252,327,271017,1,0,1:0:0:0:
254,198,271160,5,8,1:0:0:0:
255,184,271231,1,8,1:0:0:0:
256,171,271303,1,8,1:0:0:0:
257,157,271374,1,8,1:0:0:0:
258,144,271446,1,8,0:3:0:0:
259,130,271517,1,8,1:0:0:0:
260,117,271588,1,8,1:0:0:0:
261,103,271660,1,8,1:0:0:0:
262,90,271731,1,4,1:0:0:0:
155,150,271874,22,0,L|119:155,2,36,0|0|8,1:0|1:0|0:3,0:0:0:0:
392,111,272160,70,0,L|434:123,1,36,4|0,1:0|0:0,0:0:0:0:
119,248,272446,22,0,L|77:236,1,36,4|0,1:0|0:0,0:0:0:0:
368,357,272732,70,0,P|437:353|479:271,1,161.999995056153,4|0,1:0|1:0,0:0:0:0:
365,166,273160,1,8,0:3:0:0:
183,220,273303,1,0,0:0:0:0:
342,274,273446,5,0,1:0:0:0:
246,128,273588,1,8,1:0:0:0:
247,301,273731,101,8,0:3:0:0:
279,218,273874,2,0,P|282:137|287:56,1,161.999995056153,4|0,1:0|1:0,0:0:0:0:
210,47,274303,1,8,0:3:0:0:
354,276,274446,5,4,1:0:0:0:
145,154,274731,5,4,1:0:0:0:
354,276,275017,6,0,L|512:241,1,161.999995056153,4|0,1:0|1:0,0:0:0:0:
304,211,275446,1,8,0:3:0:0:
404,348,275588,1,0,1:0:0:0:
252,362,275731,101,8,1:0:0:0:
237,358,275803,1,8,1:0:0:0:
222,354,275874,1,8,1:0:0:0:
207,351,275946,1,8,1:0:0:0:
193,347,276017,1,8,0:3:0:0:
178,343,276088,1,8,1:0:0:0:
163,340,276160,1,8,1:0:0:0:
148,336,276231,1,8,1:0:0:0:
134,332,276303,1,4,1:0:0:0:
233,269,276446,101,0,0:0:0:0:
233,269,276517,1,0,0:0:0:0:
233,269,276588,1,8,0:3:0:0:
167,205,276731,2,0,P|161:164|156:124,1,80.9999975280763,0|0,0:0|1:0,0:0:0:0:
24,192,277017,2,0,P|29:232|34:272,1,80.9999975280763,0|8,1:0|0:3,0:0:0:0:
281,344,277303,102,0,P|354:317|373:242,1,161.999995056153,0|0,1:0|1:0,0:0:0:0:
295,199,277731,2,0,P|303:159|312:119,1,80.9999975280763,8|0,0:3|0:0,0:0:0:0:
394,160,278017,5,0,1:0:0:0:
243,57,278160,1,0,1:0:0:0:
394,160,278303,1,8,0:3:0:0:
243,57,278446,102,0,B|190:77|190:77|176:93|176:93|96:120,1,161.999995056153,4|0,1:2|1:0,0:0:0:0:
26,78,278874,2,0,B|7:116|7:116|19:152,1,80.9999975280763,8|0,0:3|0:0,0:0:0:0:
223,246,279160,5,0,1:0:0:0:
160,200,279303,1,0,1:0:0:0:
233,169,279446,1,8,0:3:0:0:
150,277,279588,2,0,L|166:356,1,80.9999975280763
310,372,279874,101,8,0:3:0:0:
405,323,280017,1,8,0:3:0:0:
449,252,280160,1,8,0:3:0:0:
460,201,280303,1,4,0:3:0:0:
448,176,280446,1,4,0:3:0:0:
431,163,280588,1,8,0:3:0:0:
420,163,280731,1,0,1:0:0:0:
