osu file format v14

[General]
AudioFilename: audio.mp3
AudioLeadIn: 0
PreviewTime: 49117
Countdown: 0
SampleSet: Soft
StackLeniency: 0.7
Mode: 0
LetterboxInBreaks: 0
WidescreenStoryboard: 1

[Editor]
Bookmarks: 19117,34117,49117,64117,79117,86617,101617,116617,131617,146617,161617,176617,191617,214117
DistanceSpacing: 0.7
BeatDivisor: 4
GridSize: 32
TimelineZoom: 1.5

[Metadata]
Title:Starlight
TitleUnicode:Starlight
Artist:Asaka Karin (CV: Kubota Miyu)
ArtistUnicode:朝香果林(CV.久保田未夢)
Creator:Noctiam
Version:Hard
Source:ラブライブ!虹ヶ咲学園スクールアイドル同好会
Tags:love live! Nijigasaki High School Idol Club Nijigaku ニジガク tokimeki runner school idol festival スクールアイドルフェスティバル all stars sifas スクスタ sukusuta solo full ver perfect dream project pdp japanese anime video game
BeatmapID:2002154
BeatmapSetID:953793

[Difficulty]
HPDrainRate:4
CircleSize:3.8
OverallDifficulty:6
ApproachRate:8
SliderMultiplier:1.6
SliderTickRate:1

[Events]
//Background and Video events
0,0,"karinallstar.jpg"
//Break Periods
2,79309,83985
2,131809,138360
//Storyboard Layer 0 (Background)
//Storyboard Layer 1 (Fail)
//Storyboard Layer 2 (Pass)
//Storyboard Layer 3 (Foreground)
//Storyboard Layer 4 (Overlay)
//Storyboard Sound Samples

[TimingPoints]
360,468.75,4,2,1,30,1,0
360,-500,4,2,1,30,0,0
711,-500,4,2,1,5,0,0
828,-333.333333333333,4,2,1,35,0,0
1180,-333.333333333333,4,2,1,5,0,0
1297,-250,4,2,1,40,0,0
1649,-250,4,2,1,5,0,0
1766,-200,4,2,1,45,0,0
2117,-200,4,2,1,5,0,0
2235,-166.666666666667,4,2,1,50,0,0
2586,-166.666666666667,4,2,1,5,0,0
2703,-142.857142857143,4,2,1,55,0,0
3055,-142.857142857143,4,2,1,5,0,0
3172,-125,4,2,1,60,0,0
3524,-125,4,2,1,5,0,0
3641,-111.111111111111,4,2,1,60,0,0
3875,-111.111111111111,4,2,0,55,0,0
4110,-100,4,2,0,60,0,0
11602,-80,4,2,0,60,0,0
11610,-80,4,2,0,75,0,0
18992,-80,4,2,0,5,0,0
19102,-90.9090909090909,4,2,0,60,0,0
32227,-66.6666666666667,4,2,0,75,0,0
34102,-100,4,2,0,60,0,0
41602,-66.6666666666667,4,2,0,60,0,0
41610,-66.6666666666667,4,2,0,75,0,0
49102,-100,4,2,0,60,0,0
56602,-80,4,2,0,60,0,0
56610,-80,4,2,0,70,0,0
64110,-66.6666666666667,4,2,0,85,0,1
79110,-100,4,2,0,60,0,0
84735,-80,4,2,0,70,0,0
86602,-90.9090909090909,4,2,0,60,0,0
99735,-66.6666666666667,4,2,0,75,0,0
101602,-100,4,2,0,75,0,0
101610,-100,4,2,0,60,0,0
109110,-66.6666666666667,4,2,0,75,0,0
116141,-100,4,2,0,75,0,0
116610,-66.6666666666667,4,2,0,85,0,1
130438,-133.333333333333,4,2,0,85,0,1
131610,-80,4,2,0,60,0,0
139110,-125,4,2,0,60,0,0
142860,-66.6666666666667,4,2,0,75,0,0
146610,-100,4,2,0,60,0,0
154110,-66.6666666666667,4,2,0,75,0,0
161610,-100,4,2,0,60,0,0
169110,-80,4,2,0,75,0,0
176610,-66.6666666666667,4,2,0,85,0,1
191610,-66.6666666666667,4,2,0,85,0,0
206610,-125,4,2,0,60,0,0
212235,-66.6666666666667,4,2,0,75,0,0

[Colours]
Combo1 : 4,187,183
Combo2 : 0,244,244
Combo3 : 0,72,145
Combo4 : 0,132,196

[HitObjects]
256,192,360,12,0,3758,0:0:0:0:
314,124,3875,6,0,L|336:67,2,35.9999989013672,8|8|8,0:0|0:0|0:0,0:0:0:0:
148,62,4578,1,8,0:0:0:0:
246,207,5047,1,8,0:0:0:0:
76,158,5516,1,8,0:0:0:0:
238,89,5985,5,8,0:0:0:0:
132,229,6453,1,8,0:0:0:0:
282,319,6922,1,8,0:0:0:0:
383,174,7391,1,8,0:0:0:0:
206,176,7860,5,8,0:0:0:0:
352,272,8328,1,8,0:0:0:0:
417,108,8797,1,8,0:0:0:0:
273,210,9266,1,8,0:0:0:0:
196,66,9735,6,0,P|137:67|55:106,1,120,8|0,0:0|0:0,0:0:0:0:
58,116,10203,2,0,L|42:227,1,80
116,286,10672,2,0,P|175:285|247:250,1,120,8|0,0:0|0:0,0:0:0:0:
250,232,11140,2,0,L|267:120,1,80
382,14,11610,6,0,P|427:68|428:118,1,100,8|0,1:0|0:0,0:0:0:0:
353,154,12078,2,0,P|362:226|403:264,1,100,8|0,1:0|0:0,0:0:0:0:
470,342,12547,2,0,L|365:357,1,100,8|0,1:0|0:0,0:0:0:0:
277,259,13016,2,0,L|164:323,1,100,8|0,1:0|0:0,0:0:0:0:
47,261,13485,6,0,P|33:196|43:136,1,100,8|0,1:0|0:0,0:0:0:0:
130,116,13953,2,0,L|261:146,1,100,8|0,1:0|0:0,0:0:0:0:
364,108,14422,2,0,P|364:58|351:9,1,100,8|0,1:0|0:0,0:0:0:0:
295,182,14891,1,8,1:0:0:0:
197,278,15125,6,0,L|117:281,1,50
75,214,15360,1,8,1:0:0:0:
75,214,15594,1,8,1:0:0:0:
75,214,15828,1,8,1:0:0:0:
75,214,16063,1,8,1:0:0:0:
75,214,16297,6,0,P|134:202|188:151,1,100,8|8,1:0|1:0,0:0:0:0:
224,103,16766,2,0,P|274:111|329:154,1,100,8|8,1:0|1:0,0:0:0:0:
437,213,17235,6,0,L|446:283,3,50,2|2|2|2,0:0|0:0|0:0|0:0,0:0:0:0:
420,294,17703,2,0,L|403:352,3,50,2|2|2|2,0:0|0:0|0:0|0:0,0:0:0:0:
441,372,18172,1,2,0:0:0:0:
118,53,19110,6,0,P|70:96|54:140,1,88.000002685547,8|0,1:0|0:0,0:0:0:0:
41,200,19578,2,0,L|131:261,1,88.000002685547,8|0,1:0|0:0,0:0:0:0:
186,314,20047,2,0,P|134:342|80:338,1,88.000002685547,8|0,1:0|0:0,0:0:0:0:
62,321,20399,1,8,1:0:0:0:
119,175,20750,1,8,1:0:0:0:
242,272,20985,6,0,L|361:287,1,88.000002685547,10|0,1:0|0:0,0:0:0:0:
421,312,21453,2,0,L|406:200,1,88.000002685547,8|0,1:0|0:0,0:0:0:0:
367,133,21922,2,0,P|299:134|263:155,1,88.000002685547,8|0,1:0|0:0,0:0:0:0:
249,165,22274,1,8,1:0:0:0:
289,276,22625,1,8,1:0:0:0:
445,244,22860,6,0,P|478:194|476:117,1,132.00000402832,8|0,1:0|0:0,0:0:0:0:
466,85,23328,1,8,1:0:0:0:
387,97,23563,2,0,L|323:63,1,44.0000013427735
308,72,23797,2,0,P|257:103|196:92,1,88.000002685547,8|0,1:0|0:0,0:0:0:0:
194,85,24149,2,0,P|125:55|47:60,1,132.00000402832,8|0,1:0|0:0,0:0:0:0:
109,236,24735,6,0,P|30:188|21:108,1,176.000005371094,8|8,1:0|1:0,0:0:0:0:
201,179,25672,2,0,L|170:364,1,176.000005371094,8|8,1:0|1:0,1:0:0:0:
0,199,26610,6,0,L|98:180,1,88.000002685547,2|0,1:0|0:0,0:0:0:0:
160,244,27078,2,0,L|271:265,1,88.000002685547
292,174,27547,2,0,P|339:143|357:106,1,88.000002685547,8|0,1:0|0:0,0:0:0:0:
426,51,28016,2,0,P|439:96|472:138,1,88.000002685547
483,271,28485,6,0,L|380:287,1,88.000002685547,8|0,1:0|0:0,0:0:0:0:
341,341,28953,2,0,L|222:315,1,88.000002685547
200,264,29422,2,0,P|163:252|100:251,1,88.000002685547,8|0,1:0|0:0,0:0:0:0:
46,291,29891,2,0,P|25:245|18:194,1,88.000002685547,8|0,1:0|0:0,0:0:0:0:
31,73,30360,6,0,L|162:57,1,132.00000402832,8|0,1:0|0:0,0:0:0:0:
210,53,30828,1,8,1:0:0:0:
180,145,31063,2,0,L|95:160,1,44.0000013427735
105,177,31297,2,0,P|131:228|232:243,1,132.00000402832,8|0,1:0|0:0,0:0:0:0:
240,228,31766,2,0,P|312:204|379:227,1,132.00000402832,8|0,1:0|0:0,0:0:0:0:
404,243,32235,6,0,L|479:118,1,120.000004577637,8|0,1:0|0:0,0:0:0:0:
426,103,32586,2,0,P|360:120|276:99,1,120.000004577637,8|0,1:0|0:0,0:0:0:0:
261,87,32938,2,0,L|161:57,1,60.0000022888184,8|0,1:0|0:0,0:0:0:0:
157,97,33172,2,0,P|185:158|258:177,1,120.000004577637,8|0,1:0|0:0,0:0:0:0:
233,232,33524,2,0,P|167:243|120:288,1,120.000004577637,8|0,1:0|0:0,0:0:0:0:
76,258,33875,2,0,P|93:193|49:104,1,120.000004577637,8|4,1:0|0:0,0:0:0:0:
236,61,34578,5,8,0:0:0:0:
351,193,35047,2,0,P|428:160|445:62,1,160,0|8,0:0|0:0,0:0:0:0:
365,73,35750,1,8,1:0:0:0:
261,134,35985,6,0,L|304:308,1,160,8|8,1:0|0:0,0:0:0:0:
379,326,36688,1,0,0:0:0:0:
379,326,36922,1,0,0:0:0:0:
397,240,37156,1,0,0:0:0:0:
484,252,37391,1,8,0:0:0:0:
459,336,37625,1,8,1:0:0:0:
459,336,37742,1,8,1:0:0:0:
459,336,37860,5,0,0:0:0:0:
302,255,38328,2,0,L|446:164,1,160,8|0,0:0|0:0,0:0:0:0:
290,71,39266,2,0,P|236:104|185:97,1,80,8|8,0:0|1:0,0:0:0:0:
175,29,39735,5,8,1:0:0:0:
175,29,40203,1,8,0:0:0:0:
53,240,40672,6,0,L|45:131,1,80,10|2,0:1|0:0,0:0:0:0:
139,92,41141,2,0,L|146:192,1,80,2|2,0:0|0:0,0:0:0:0:
119,314,41610,6,0,P|202:344|349:297,1,240.000009155274,8|8,1:0|1:0,0:0:0:0:
468,126,42547,2,0,B|500:199|455:252|405:210|345:147,1,180.000006866455,8|8,1:0|0:0,0:0:0:0:
344,140,43016,2,0,P|285:182|258:251,1,120.000004577637,8|8,1:0|1:0,0:0:0:0:
185,298,43485,6,0,B|68:267|68:267|32:213|53:146,1,240.000009155274,8|8,1:0|1:0,0:0:0:0:
238,46,44422,2,0,P|325:50|404:137,1,180.000006866455,8|8,1:0|1:0,0:0:0:0:
364,155,44891,2,0,P|306:194|226:168,1,120.000004577637,0|8,0:0|1:0,0:0:0:0:
188,106,45360,5,2,0:0:0:0:
295,119,45594,1,2,0:0:0:0:
336,218,45828,1,2,0:0:0:0:
282,312,46063,1,2,0:0:0:0:
180,275,46297,1,2,0:0:0:0:
132,178,46531,1,2,0:0:0:0:
132,178,46766,1,2,0:0:0:0:
199,111,47000,1,8,1:0:0:0:
199,111,47117,1,8,1:0:0:0:
199,111,47235,5,8,1:0:0:0:
132,178,47469,1,8,1:0:0:0:
51,106,47703,2,0,L|22:225,1,120.000004577637,8|8,1:0|1:0,0:0:0:0:
120,269,48172,2,0,L|141:331,3,60.0000022888184,8|8|8|8,1:0|1:0|1:0|1:0,0:0:0:0:
88,344,48641,2,0,L|26:311,3,60.0000022888184,8|8|8|8,1:0|1:0|1:0|1:0,0:0:0:0:
17,283,49110,6,0,P|27:215|70:150,1,120,2|2,0:0|0:0,0:0:0:0:
154,139,49813,2,0,L|42:62,1,120,2|2,0:0|0:0,0:0:0:0:
156,40,50516,2,0,P|199:33|260:55,1,80,2|2,0:0|0:0,0:0:0:0:
234,84,50867,2,0,L|303:112,1,40
413,100,51219,5,0,0:0:0:0:
482,154,51453,2,0,L|461:256,1,80,0|2,0:0|0:0,0:0:0:0:
414,303,51922,2,0,P|459:313|491:347,2,80,0|0|2,0:0|0:0|0:0,0:0:0:0:
325,305,52625,1,2,0:0:0:0:
180,332,52860,5,2,0:0:0:0:
206,202,53211,1,2,0:0:0:0:
82,248,53563,2,0,P|48:197|53:129,1,120,2|0,0:0|0:0,0:0:0:0:
74,104,54031,1,2,0:0:0:0:
133,168,54266,1,2,0:0:0:0:
185,97,54500,1,2,0:0:0:0:
111,23,54735,6,0,L|22:35,1,80,2|0,0:0|0:0,0:0:0:0:
77,108,55203,2,0,L|109:198,1,80,0|2,0:0|0:0,0:0:0:0:
190,166,55672,2,0,L|288:137,1,80,2|0,0:0|0:0,0:0:0:0:
291,58,56141,2,0,P|337:93|353:185,1,120,2|0,0:0|0:0,0:0:0:0:
332,199,56610,5,8,1:0:0:0:
254,367,57078,1,8,0:0:0:0:
164,149,57547,1,8,0:0:0:0:
64,334,58016,1,8,0:0:0:0:
165,223,58485,5,8,0:0:0:0:
88,260,58719,2,0,L|22:250,2,50,0|0|8,0:0|0:0|0:0,0:0:0:0:
172,302,59188,1,0,0:0:0:0:
250,251,59422,1,8,0:0:0:0:
165,223,59656,1,0,0:0:0:0:
249,333,59891,2,0,P|306:331|352:351,1,100,8|0,0:0|0:0,0:0:0:0:
376,207,60360,6,0,L|422:84,1,100,8|0,1:0|0:0,0:0:0:0:
304,140,60828,2,0,L|282:10,1,100,8|0,1:0|0:0,0:0:0:0:
207,117,61297,2,0,L|123:15,1,100,8|0,1:0|0:0,0:0:0:0:
113,146,61766,2,0,L|-10:100,1,100,8|0,1:0|0:0,0:0:0:0:
32,220,62235,6,0,L|57:283,3,50,8|8|8|8,0:0|0:0|0:0|0:0,0:0:0:0:
87,271,62703,2,0,L|150:285,3,50,8|8|8|8,0:0|0:0|0:0|0:0,0:0:0:0:
174,256,63172,1,8,1:0:0:0:
198,350,63406,1,8,1:0:0:0:
285,348,63641,2,0,P|360:308|359:233,1,150,8|0,1:0|0:0,0:0:0:0:
333,219,64110,6,0,P|273:229|227:187,1,120.000004577637,8|0,1:0|0:0,0:0:0:0:
296,119,64578,1,8,1:0:0:0:
402,163,64813,1,0,0:0:0:0:
470,54,65047,2,0,P|407:79|334:69,1,120.000004577637,0|0,1:0|0:0,0:0:0:0:
259,61,65516,2,0,L|162:38,2,60.0000022888184,8|0|8,1:0|0:0|1:0,0:0:0:0:
356,150,65985,6,0,P|289:178|229:173,1,120.000004577637,8|0,1:0|0:0,0:0:0:0:
111,192,66453,2,0,L|221:265,1,120.000004577637,8|0,1:0|1:0,0:0:0:0:
334,304,66922,2,0,P|306:257|306:177,1,120.000004577637,0|0,1:0|0:0,0:0:0:0:
425,144,67391,2,0,L|407:287,1,120.000004577637,8|0,1:0|1:0,0:0:0:0:
302,355,67860,5,0,0:0:0:0:
226,246,68094,1,0,0:0:0:0:
228,377,68328,1,8,1:0:0:0:
301,267,68563,1,0,0:0:0:0:
178,315,68797,2,0,P|115:312|52:270,1,120.000004577637
28,157,69266,2,0,L|151:129,1,120.000004577637,8|0,1:0|0:0,0:0:0:0:
276,111,69735,6,0,P|228:60|175:37,1,120.000004577637
210,168,70203,2,0,L|343:228,1,120.000004577637,8|0,1:0|0:0,0:0:0:0:
431,147,70672,2,0,L|467:12,1,120.000004577637
330,45,71141,2,0,L|346:107,2,60.0000022888184,8|0|0,1:0|1:0|1:0,0:0:0:0:
197,40,71610,5,0,1:0:0:0:
266,151,71844,1,0,0:0:0:0:
144,100,72078,1,8,1:0:0:0:
244,185,72313,1,0,0:0:0:0:
112,178,72547,2,0,L|-16:195,1,120.000004577637,0|0,1:0|0:0,0:0:0:0:
103,266,73016,2,0,L|226:311,1,120.000004577637,8|0,1:0|0:0,0:0:0:0:
344,351,73485,6,0,P|379:289|367:217,1,120.000004577637,0|0,1:0|0:0,0:0:0:0:
271,162,73953,2,0,P|335:169|408:143,1,120.000004577637,8|0,1:0|1:0,0:0:0:0:
462,57,74422,2,0,L|322:39,1,120.000004577637,0|0,1:0|0:0,0:0:0:0:
387,154,74891,2,0,P|454:182|476:248,1,120.000004577637,8|0,1:0|1:0,0:0:0:0:
348,300,75360,6,0,B|396:334|319:354|319:354|258:346|231:273,1,180.000006866455,0|0,1:0|1:0,0:0:0:0:
247,306,75828,1,8,1:0:0:0:
108,272,76063,2,0,P|200:244|225:215,1,120.000004577637,0|0,1:0|0:0,0:0:0:0:
234,119,76531,1,0,0:0:0:0:
124,78,76766,2,0,P|123:155|140:198,1,120.000004577637,8|0,1:0|1:0,0:0:0:0:
258,308,77235,5,0,0:0:0:0:
315,183,77469,1,0,0:0:0:0:
356,276,77703,1,0,0:0:0:0:
230,224,77938,1,0,0:0:0:0:
404,196,78172,2,0,L|461:306,1,120.000004577637
315,183,78641,2,0,B|217:150|170:216|170:216|200:275|244:205,1,240.000009155274
46,30,84735,6,0,L|59:97,3,50
84,113,85203,2,0,L|73:161,3,50
107,201,85672,2,0,P|181:188|215:63,1,200
288,28,86610,5,0,1:0:0:0:
371,103,86844,2,0,P|447:93|475:69,2,88.000002685547
275,119,87547,2,0,P|263:186|310:286,1,176.000005371094,8|0,1:0|1:0,0:0:0:0:
399,254,88250,1,0,1:0:0:0:
466,360,88485,6,0,P|399:343|323:366,1,132.00000402832,0|0,1:0|0:0,0:0:0:0:
301,344,88953,2,0,L|213:339,1,88.000002685547
105,360,89422,2,0,P|122:309|86:193,1,176.000005371094,8|0,1:0|1:0,0:0:0:0:
17,122,90125,1,0,1:0:0:0:
108,53,90360,6,0,L|199:34,2,88.000002685547,0|0|0,1:0|0:0|0:0,0:0:0:0:
36,112,91063,1,0,1:0:0:0:
101,171,91297,2,0,P|151:172|215:139,1,88.000002685547,8|0,1:0|0:0,0:0:0:0:
279,111,91766,1,0,1:0:0:0:
210,39,92000,1,0,1:0:0:0:
333,23,92235,6,0,P|368:86|345:193,1,176.000005371094
296,263,92938,1,0,1:0:0:0:
209,218,93172,1,8,1:0:0:0:
162,301,93406,1,0,0:0:0:0:
243,352,93641,2,0,L|335:344,1,88.000002685547,0|0,1:0|1:0,0:0:0:0:
446,319,94110,6,0,P|421:274|423:214,1,88.000002685547,0|0,1:0|0:0,0:0:0:0:
449,152,94578,2,0,P|460:99|449:58,1,88.000002685547,8|0,1:0|0:0,0:0:0:0:
355,29,95047,2,0,L|233:43,1,88.000002685547,0|0,1:0|0:0,0:0:0:0:
154,104,95516,2,0,L|245:119,1,88.000002685547,8|0,1:0|0:0,0:0:0:0:
347,198,95985,6,0,P|337:152|359:107,1,88.000002685547,0|0,1:0|0:0,0:0:0:0:
469,213,96453,2,0,P|475:262|450:302,1,88.000002685547,8|0,1:0|0:0,0:0:0:0:
344,351,96922,2,0,P|303:327|178:339,1,176.000005371094,0|8,1:0|1:0,0:0:0:0:
88,352,97625,1,0,0:0:0:0:
17,277,97860,6,0,L|12:170,1,88.000002685547,0|0,1:0|0:0,0:0:0:0:
92,95,98328,1,8,1:0:0:0:
150,159,98563,2,0,L|139:262,2,88.000002685547,0|0|0,0:0|1:0|0:0,0:0:0:0:
199,60,99266,2,0,P|233:89|290:91,1,88.000002685547,8|0,1:0|0:0,0:0:0:0:
386,21,99735,6,0,P|427:73|432:124,1,120.000004577637,8|0,1:0|0:0,0:0:0:0:
408,159,100086,2,0,P|393:218|414:281,1,120.000004577637,8|0,1:0|0:0,0:0:0:0:
445,294,100438,2,0,P|477:280|508:253,1,60.0000022888184,8|0,1:0|0:0,0:0:0:0:
488,223,100672,2,0,P|424:210|365:229,1,120.000004577637,2|2,0:0|0:0,0:0:0:0:
335,245,101024,2,0,P|274:260|221:238,1,120.000004577637,2|2,0:0|0:0,0:0:0:0:
188,214,101375,2,0,L|160:275,1,60.0000022888184,2|2,0:0|0:0,0:0:0:0:
152,300,101610,6,0,P|102:309|20:241,2,160,0|8|0,0:0|0:0|0:0,0:0:0:0:
267,189,103016,1,8,0:0:0:0:
305,279,103250,2,0,L|363:270,1,40,0|0,1:0|1:0,0:0:0:0:
376,282,103485,6,0,P|370:228|389:190,1,80,0|0,1:0|0:0,0:0:0:0:
450,141,103953,1,8,0:0:0:0:
383,60,104188,2,0,L|303:56,2,80
487,57,104891,1,8,0:0:0:0:
460,162,105125,1,0,1:0:0:0:
460,162,105242,1,0,1:0:0:0:
460,162,105360,6,0,L|487:325,2,160,0|8|0,1:0|0:0|0:0,0:0:0:0:
363,32,106766,1,8,0:0:0:0:
293,109,107000,2,0,L|235:101,1,40,0|0,1:0|1:0,0:0:0:0:
216,116,107235,6,0,P|191:83|72:62,1,160,0|0,1:0|0:0,0:0:0:0:
79,57,108172,1,0,1:0:0:0:
31,155,108406,1,0,0:0:0:0:
31,155,108524,1,0,0:0:0:0:
31,155,108641,1,8,0:0:0:0:
74,238,108875,1,0,0:0:0:0:
22,326,109110,6,0,P|140:315|247:380,1,240.000009155274,8|8,1:0|1:0,0:0:0:0:
390,342,110047,2,0,P|362:294|365:201,1,120.000004577637,8|0,1:0|0:0,0:0:0:0:
380,207,110399,1,0,0:0:0:0:
380,207,110516,2,0,P|389:144|374:72,1,120.000004577637,8|0,1:0|1:0,0:0:0:0:
234,15,110985,6,0,P|203:78|263:242,1,240.000009155274,8|8,1:0|1:0,0:0:0:0:
490,123,111922,2,0,P|429:103|369:120,1,120.000004577637,8|0,1:0|0:0,0:0:0:0:
349,131,112274,1,0,0:0:0:0:
349,131,112391,2,0,P|277:141|230:114,1,120.000004577637,8|0,1:0|0:0,0:0:0:0:
142,38,112860,5,8,1:0:0:0:
47,74,113094,1,0,0:0:0:0:
49,178,113328,1,8,0:0:0:0:
150,213,113563,1,0,1:0:0:0:
213,123,113797,2,0,P|251:171|253:229,1,120.000004577637,0|0,1:0|0:0,0:0:0:0:
179,322,114266,1,8,0:0:0:0:
46,229,114500,6,0,L|63:165,4,60.0000022888184,0|0|0|0|8,1:0|1:0|1:0|1:0|1:0,0:0:0:0:
37,275,115086,2,0,L|70:343,4,60.0000022888184,8|8|8|8|8,0:0|0:0|0:0|0:0|0:0,0:0:0:0:
64,256,115672,2,0,P|124:257|174:219,1,120.000004577637,8|8,1:0|1:0,0:0:0:0:
241,89,116141,2,0,P|239:154|262:205,1,120,8|0,1:0|0:0,0:0:0:0:
287,221,116610,6,0,P|369:172|475:197,1,180.000006866455,0|8,1:0|0:0,0:0:0:0:
477,199,117078,1,8,1:0:0:0:
434,290,117313,2,0,P|387:309|310:283,1,120.000004577637,0|0,1:0|0:0,0:0:0:0:
304,279,117664,1,0,1:0:0:0:
220,337,118016,1,8,1:0:0:0:
85,296,118250,2,0,L|158:285,1,60.0000022888184,0|0,1:0|0:0,0:0:0:0:
162,272,118485,6,0,P|140:211|149:148,1,120.000004577637,0|8,1:0|0:0,0:0:0:0:
145,157,118836,1,8,1:0:0:0:
145,157,118953,1,8,1:0:0:0:
86,87,119188,1,8,0:0:0:0:
163,29,119422,2,0,L|225:23,1,60.0000022888184,0|0,0:0|1:0,0:0:0:0:
245,48,119656,1,0,0:0:0:0:
326,27,119891,2,0,L|399:24,1,60.0000022888184,8|0,1:0|0:0,0:0:0:0:
412,47,120125,1,0,1:0:0:0:
462,145,120360,6,0,P|433:204|463:324,1,180.000006866455,0|0,1:0|1:0,0:0:0:0:
468,335,120828,1,8,1:0:0:0:
356,285,121063,2,0,P|285:296|183:244,1,180.000006866455,0|0,1:0|1:0,0:0:0:0:
169,220,121531,1,0,0:0:0:0:
71,178,121766,1,8,1:0:0:0:
24,277,122000,1,0,0:0:0:0:
129,328,122235,6,0,P|201:337|280:259,1,180.000006866455,0|0,1:0|0:0,0:0:0:0:
297,248,122703,1,8,1:0:0:0:
354,313,122938,1,0,0:0:0:0:
432,269,123172,2,0,L|428:207,1,60.0000022888184,0|0,0:0|1:0,0:0:0:0:
441,174,123406,1,0,0:0:0:0:
330,178,123641,2,0,L|260:168,2,60.0000022888184,8|0|0,1:0|0:0|1:0,0:0:0:0:
401,104,124110,6,0,P|309:92|246:-3,1,180.000006866455,0|0,1:0|0:0,0:0:0:0:
237,11,124578,1,8,1:0:0:0:
149,42,124813,2,0,P|122:104|159:218,1,180.000006866455,0|0,1:0|1:0,0:0:0:0:
172,227,125281,1,0,0:0:0:0:
254,147,125516,2,0,L|282:220,1,60.0000022888184,8|0,1:0|0:0,0:0:0:0:
262,240,125750,1,0,1:0:0:0:
332,312,125985,5,0,1:0:0:0:
430,273,126219,2,0,L|441:210,1,60.0000022888184,0|8,0:0|0:0,0:0:0:0:
420,182,126453,2,0,P|406:114|429:63,1,120.000004577637,8|0,1:0|0:0,0:0:0:0:
348,20,126922,2,0,L|232:12,1,60.0000022888184,8|0,0:0|1:0,0:0:0:0:
255,40,127156,1,0,0:0:0:0:
170,100,127391,2,0,L|54:108,1,60.0000022888184,8|0,1:0|0:0,0:0:0:0:
77,80,127625,1,0,1:0:0:0:
34,182,127860,6,0,P|19:254|110:373,1,180.000006866455,0|8,1:0|0:0,0:0:0:0:
89,369,128328,1,8,1:0:0:0:
142,304,128563,2,0,P|213:294|287:334,1,120.000004577637,0|0,1:0|0:0,0:0:0:0:
275,335,128914,2,0,L|340:352,1,60.0000022888184,0|0,1:0|0:0,0:0:0:0:
418,311,129266,1,8,1:0:0:0:
390,215,129500,1,0,1:0:0:0:
485,144,129735,2,0,B|477:78|424:111|392:139|316:114|270:65,1,240.000009155274,0|8,1:0|1:0,0:0:0:0:
164,19,130438,6,0,P|197:62|37:171,1,300.000011444092,0|2,0:0|1:0,0:0:0:0:
479,282,139110,6,0,P|406:189|334:208,1,192,0|8,1:0|0:0,0:0:0:0:
213,315,140047,2,0,L|127:205,1,128,8|2,1:0|1:0,0:0:0:0:
88,131,140750,1,2,1:0:0:0:
167,81,140985,2,0,P|219:84|296:40,1,128,0|0,1:0|0:0,0:0:0:0:
364,16,141688,1,8,0:0:0:0:
429,68,141922,2,0,L|452:145,1,64,8|0,1:0|0:0,0:0:0:0:
359,187,142391,1,2,1:0:0:0:
310,280,142625,1,2,1:0:0:0:
396,359,142860,6,0,P|454:325|442:216,2,180.000006866455,8|8|8,1:0|1:0|1:0,0:0:0:0:
292,311,143797,2,0,L|166:333,1,120.000004577637,8|0,1:0|0:0,0:0:0:0:
142,352,144149,1,8,1:0:0:0:
34,277,144500,1,8,1:0:0:0:
108,193,144735,6,0,P|113:131|93:74,1,120.000004577637,8|0,1:0|0:0,0:0:0:0:
71,52,145086,2,0,P|145:51|196:26,1,120.000004577637,8|0,1:0|0:0,0:0:0:0:
212,13,145438,5,2,0:0:0:0:
281,70,145672,1,2,0:0:0:0:
362,42,145906,1,2,0:0:0:0:
418,108,146141,1,2,0:0:0:0:
359,170,146375,1,2,0:0:0:0:
392,254,146610,1,4,0:0:0:0:
392,254,147078,5,8,0:0:0:0:
198,176,147547,2,0,P|121:209|104:307,1,160,0|8,0:0|0:0,0:0:0:0:
206,324,148250,1,0,1:0:0:0:
298,248,148485,6,0,L|255:74,1,160,0|8,1:0|0:0,0:0:0:0:
133,58,149188,1,0,0:0:0:0:
133,58,149422,1,0,0:0:0:0:
115,144,149656,1,0,0:0:0:0:
28,132,149891,1,8,0:0:0:0:
53,48,150125,1,0,1:0:0:0:
53,48,150242,1,0,1:0:0:0:
53,48,150360,5,0,1:0:0:0:
210,129,150828,2,0,L|66:220,1,160,8|0,0:0|0:0,0:0:0:0:
222,313,151766,2,0,P|276:280|327:287,1,80,8|0,1:0|1:0,0:0:0:0:
337,355,152235,5,0,1:0:0:0:
337,355,152703,1,8,0:0:0:0:
459,144,153172,6,0,L|467:253,1,80,2|2,0:0|0:0,0:0:0:0:
373,292,153641,2,0,L|366:192,1,80,2|2,0:0|0:0,0:0:0:0:
393,70,154110,6,0,P|310:40|163:87,1,240.000009155274,8|8,1:0|1:0,0:0:0:0:
44,258,155047,2,0,B|12:185|57:132|107:174|167:237,1,180.000006866455,8|8,1:0|0:0,0:0:0:0:
168,244,155516,2,0,P|227:202|254:133,1,120.000004577637,8|0,1:0|1:0,0:0:0:0:
327,86,155985,6,0,B|444:117|444:117|480:171|459:238,1,240.000009155274,8|0,1:0|0:0,0:0:0:0:
274,338,156922,2,0,P|187:334|108:247,1,180.000006866455,8|8,1:0|0:0,0:0:0:0:
148,229,157391,2,0,P|206:190|286:216,1,120.000004577637,8|0,1:0|1:0,0:0:0:0:
324,278,157860,5,2,0:0:0:0:
217,265,158094,1,2,0:0:0:0:
176,166,158328,1,2,0:0:0:0:
230,72,158563,1,2,0:0:0:0:
332,109,158797,1,2,0:0:0:0:
380,206,159031,1,2,0:0:0:0:
380,206,159266,1,2,0:0:0:0:
313,273,159500,1,8,1:0:0:0:
313,273,159617,1,8,1:0:0:0:
313,273,159735,5,8,1:0:0:0:
380,206,159969,1,8,1:0:0:0:
461,278,160203,2,0,L|490:159,1,120.000004577637,8|8,1:0|1:0,0:0:0:0:
392,115,160672,2,0,L|371:53,3,60.0000022888184,8|8|8|8,0:0|0:0|0:0|0:0,0:0:0:0:
424,40,161141,2,0,L|486:73,3,60.0000022888184,8|8|8|8,0:0|0:0|0:0|0:0,0:0:0:0:
495,101,161610,6,0,P|485:169|442:234,1,120,4|2,0:0|0:0,0:0:0:0:
358,245,162313,2,0,L|470:322,1,120,2|2,0:0|0:0,0:0:0:0:
356,344,163016,2,0,P|313:351|252:329,1,80,2|2,0:0|0:0,0:0:0:0:
245,348,163367,2,0,L|254:296,1,40
99,284,163719,5,0,0:0:0:0:
30,230,163953,2,0,L|51:128,1,80,0|2,0:0|0:0,0:0:0:0:
98,81,164422,2,0,P|53:71|21:37,2,80,0|0|2,0:0|0:0|0:0,0:0:0:0:
187,79,165125,1,2,0:0:0:0:
332,52,165360,5,2,0:0:0:0:
306,182,165711,1,2,0:0:0:0:
430,136,166063,2,0,P|464:187|459:255,1,120,2|0,0:0|0:0,0:0:0:0:
438,280,166531,1,2,0:0:0:0:
379,216,166766,1,2,0:0:0:0:
327,287,167000,1,2,0:0:0:0:
401,361,167235,6,0,L|490:349,1,80,2|0,0:0|0:0,0:0:0:0:
435,276,167703,2,0,L|403:186,1,80,0|2,0:0|0:0,0:0:0:0:
322,218,168172,2,0,L|224:247,1,80,2|0,0:0|0:0,0:0:0:0:
221,326,168641,2,0,P|175:291|159:199,1,120,2|0,0:0|0:0,0:0:0:0:
180,185,169110,5,8,1:0:0:0:
258,17,169578,1,8,0:0:0:0:
348,235,170047,1,8,0:0:0:0:
448,50,170516,1,8,0:0:0:0:
347,161,170985,5,8,0:0:0:0:
424,124,171219,2,0,L|490:134,2,50,0|0|8,0:0|0:0|0:0,0:0:0:0:
340,82,171688,1,0,0:0:0:0:
262,133,171922,1,8,0:0:0:0:
347,161,172156,1,0,0:0:0:0:
263,51,172391,2,0,P|206:53|160:33,1,100,8|0,0:0|0:0,0:0:0:0:
136,177,172860,6,0,L|90:300,1,100,8|0,1:0|0:0,0:0:0:0:
208,244,173328,2,0,L|230:374,1,100,8|0,1:0|0:0,0:0:0:0:
305,267,173797,2,8,L|389:369,1,100,8|0,1:0|0:0,0:0:0:0:
399,238,174266,2,0,L|522:284,1,100,8|0,1:0|0:0,0:0:0:0:
480,164,174735,6,0,L|455:101,3,50,8|8|8|8,0:0|0:0|0:0|0:0,0:0:0:0:
428,126,175203,2,0,L|365:112,3,50,8|8|8|8,0:0|0:0|0:0|0:0,0:0:0:0:
350,142,175672,1,0,1:0:0:0:
323,43,175906,1,0,1:0:0:0:
227,36,176141,2,0,P|152:76|153:151,1,150,8|0,1:0|0:0,0:0:0:0:
174,159,176610,6,0,P|234:149|287:197,1,120.000004577637,0|0,1:0|0:0,0:0:0:0:
216,265,177078,1,8,1:0:0:0:
109,216,177313,1,0,0:0:0:0:
42,330,177547,2,0,P|105:305|178:315,1,120.000004577637,0|0,1:0|0:0,0:0:0:0:
253,323,178016,2,0,L|350:346,2,60.0000022888184,8|0|0,1:0|0:0|1:0,0:0:0:0:
156,234,178485,6,0,P|223:206|283:211,1,120.000004577637,0|0,1:0|0:0,0:0:0:0:
401,192,178953,2,0,L|291:119,1,120.000004577637,8|0,1:0|0:0,0:0:0:0:
178,80,179422,2,0,P|206:127|206:207,1,120.000004577637,0|0,1:0|0:0,0:0:0:0:
87,240,179891,2,0,L|105:97,1,120.000004577637,8|8,1:0|0:0,0:0:0:0:
210,29,180360,5,2,0:0:0:0:
286,138,180594,1,2,0:0:0:0:
284,7,180828,1,2,0:0:0:0:
211,117,181063,1,2,0:0:0:0:
334,69,181297,2,0,P|397:72|460:114,1,120.000004577637,2|2,0:0|0:0,0:0:0:0:
484,227,181766,2,0,L|361:255,1,120.000004577637,2|0,0:0|0:0,0:0:0:0:
236,273,182235,6,0,P|284:324|337:347,1,120.000004577637,0|0,1:0|0:0,0:0:0:0:
302,216,182703,2,0,L|169:156,1,120.000004577637,8|8,1:0|0:0,0:0:0:0:
81,237,183172,2,0,L|45:372,1,120.000004577637
182,339,183641,2,0,L|166:277,2,60.0000022888184,0|0|0,1:0|1:0|1:0,0:0:0:0:
315,344,184110,5,2,0:0:0:0:
246,233,184344,1,2,0:0:0:0:
368,284,184578,1,2,0:0:0:0:
268,199,184813,1,2,0:0:0:0:
400,206,185047,2,0,L|528:189,1,120.000004577637,2|2,0:0|0:0,0:0:0:0:
409,118,185516,2,0,L|286:73,1,120.000004577637,2|2,0:0|0:0,0:0:0:0:
168,33,185985,6,0,P|133:95|145:167,1,120.000004577637,0|0,1:0|0:0,0:0:0:0:
241,222,186453,2,0,P|177:215|104:241,1,120.000004577637,8|0,1:0|1:0,0:0:0:0:
50,327,186922,2,0,L|190:345,1,120.000004577637
125,230,187391,2,0,P|58:202|36:136,1,120.000004577637,8|0,1:0|1:0,0:0:0:0:
164,84,187860,6,0,B|116:50|193:30|193:30|254:38|281:111,1,180.000006866455,0|0,1:0|0:0,0:0:0:0:
265,78,188328,1,8,1:0:0:0:
404,112,188563,2,0,P|312:140|287:169,1,120.000004577637,0|0,1:0|0:0,0:0:0:0:
278,265,189031,1,0,0:0:0:0:
388,306,189266,2,0,P|389:229|372:186,1,120.000004577637,8|0,1:0|1:0,0:0:0:0:
254,76,189735,5,0,1:0:0:0:
197,201,189969,1,0,0:0:0:0:
156,108,190203,1,8,1:0:0:0:
282,160,190438,1,0,1:0:0:0:
108,188,190672,2,0,L|51:78,1,120.000004577637,2|2,0:0|0:0,0:0:0:0:
197,201,191141,2,0,L|198:270,2,60.0000022888184,2|2|2,0:0|0:0|0:0,0:0:0:0:
206,63,191610,6,0,P|234:124|283:149,1,120.000004577637,8|0,1:0|0:0,0:0:0:0:
304,143,191961,1,8,0:0:0:0:
304,143,192078,1,8,1:0:0:0:
390,101,192313,2,0,P|427:153|412:277,2,180.000006866455,0|0|8,0:0|0:0|1:0,0:0:0:0:
322,35,193250,1,0,0:0:0:0:
287,115,193485,6,0,L|167:123,1,120.000004577637,8|0,0:0|0:0,0:0:0:0:
144,100,193836,1,8,0:0:0:0:
144,100,193953,1,8,1:0:0:0:
63,169,194188,2,0,P|42:105|88:5,2,180.000006866455,0|0|8,0:0|0:0|1:0,0:0:0:0:
159,170,195125,1,0,0:0:0:0:
102,243,195360,6,0,P|67:299|87:353,1,120.000004577637,8|0,0:0|0:0,0:0:0:0:
112,362,195711,1,8,0:0:0:0:
112,362,195828,1,8,1:0:0:0:
220,295,196063,2,0,P|266:217|244:109,2,180.000006866455,0|0|0,0:0|0:0|1:0,0:0:0:0:
123,291,197000,1,0,0:0:0:0:
201,366,197235,5,0,1:0:0:0:
299,329,197469,2,0,P|373:336|433:365,2,120.000004577637,2|10|0,0:0|0:0|0:0,0:0:0:0:
205,260,198172,2,0,P|197:227|208:187,1,60.0000022888184,8|8,1:0|1:0,0:0:0:0:
219,170,198406,1,0,1:0:0:0:
321,219,198641,1,0,0:0:0:0:
408,166,198875,1,0,0:0:0:0:
356,75,199110,6,0,P|299:97|243:80,1,120.000004577637,8|0,0:0|0:0,0:0:0:0:
218,56,199461,1,8,0:0:0:0:
218,56,199578,1,8,1:0:0:0:
135,122,199813,2,0,P|72:122|8:14,2,180.000006866455,0|0|8,0:0|0:0|1:0,0:0:0:0:
219,72,200750,1,0,0:0:0:0:
239,170,200985,6,0,L|262:301,1,120.000004577637,8|0,0:0|0:0,0:0:0:0:
241,319,201336,1,8,0:0:0:0:
241,319,201453,1,8,1:0:0:0:
343,263,201688,2,0,P|427:265|467:351,2,180.000006866455,0|0|8,0:0|0:0|1:0,0:0:0:0:
262,317,202625,1,0,0:0:0:0:
190,245,202860,6,0,P|169:180|183:112,1,120.000004577637,8|0,0:0|0:0,0:0:0:0:
175,129,203211,1,0,0:0:0:0:
175,129,203328,1,0,1:0:0:0:
93,150,203563,2,0,P|32:147|-2:94,1,120.000004577637,0|8,0:0|0:0,0:0:0:0:
37,22,204031,1,0,0:0:0:0:
112,56,204266,2,0,L|243:32,1,120.000004577637,8|0,1:0|0:0,0:0:0:0:
301,99,204735,1,0,0:0:0:0:
211,211,204969,5,0,0:0:0:0:
338,173,205203,1,8,1:0:0:0:
208,125,205438,1,0,0:0:0:0:
290,237,205672,2,0,P|299:297|280:354,1,120.000004577637,8|0,0:0|0:0,0:0:0:0:
190,372,206141,2,0,P|143:328|25:305,1,180.000006866455
7,277,206610,6,0,P|25:207|17:136,2,128,8|8|8,0:0|0:0|0:0,0:0:0:0:
145,202,208016,1,8,0:0:0:0:
242,357,208485,6,0,P|172:339|101:347,2,128,8|8|8,0:0|0:0|0:0,0:0:0:0:
167,219,209891,1,8,0:0:0:0:
347,280,210360,6,8,P|365:210|357:139,2,128,0|8|8,0:0|0:0|0:0,0:0:0:0:
231,151,211766,1,8,0:0:0:0:
404,141,212235,6,0,L|479:266,1,120.000004577637
426,281,212586,2,0,P|360:264|276:285,1,120.000004577637
261,297,212938,2,0,L|161:327,1,60.0000022888184
157,287,213172,2,0,P|185:226|258:207,1,120.000004577637
233,152,213524,2,0,P|167:141|120:96,1,120.000004577637
76,126,213875,2,0,P|93:191|49:280,1,120.000004577637
