osu file format v14

[General]
AudioFilename: audio.mp3
AudioLeadIn: 0
PreviewTime: 57950
Countdown: 0
SampleSet: Soft
StackLeniency: 0.5
Mode: 0
LetterboxInBreaks: 0
WidescreenStoryboard: 0

[Editor]
DistanceSpacing: 1.1
BeatDivisor: 4
GridSize: 4
TimelineZoom: 1.9

[Metadata]
Title:Wayawayawa-! (TV Size)
TitleUnicode:わやわやわー! (TV Size)
Artist:Asaka
ArtistUnicode:亜咲花
Creator:MianYa
Version:Yeah!
Source:道産子ギャルはなまらめんこい
Tags:japanese anime ed ending j-pop jpop pop Ooishi Masayoshi eba 大石昌良 Dosanko Gyaru wa Namaramenkoi Hokkaido Gals Are Super Adorable! __Ag leominexd leomine Graphical iRedi
BeatmapID:4545550
BeatmapSetID:2156286

[Difficulty]
HPDrainRate:6
CircleSize:4
OverallDifficulty:9
ApproachRate:9.2
SliderMultiplier:2.1
SliderTickRate:1

[Events]
//Background and Video events
Video,0,"video.mp4"
0,0,"BG.jpg",0,0
//Break Periods
//Storyboard Layer 0 (Background)
//Storyboard Layer 1 (Fail)
//Storyboard Layer 2 (Pass)
//Storyboard Layer 3 (Foreground)
//Storyboard Layer 4 (Overlay)
//Storyboard Sound Samples

[TimingPoints]
1421,447.761194029851,4,2,1,35,1,0
1421,-166.666666666667,4,2,1,35,0,0
2204,-166.666666666667,4,2,1,5,0,0
2316,-166.666666666667,4,2,1,35,0,0
3100,-166.666666666667,4,2,1,5,0,0
3212,-166.666666666667,4,2,1,35,0,0
3995,-166.666666666667,4,2,1,5,0,0
4107,-166.666666666667,4,2,1,35,0,0
4891,-166.666666666667,4,2,1,5,0,0
5003,-166.666666666667,4,2,1,35,0,0
5786,-166.666666666667,4,2,1,5,0,0
5898,-166.666666666667,4,2,1,35,0,0
6682,-166.666666666667,4,2,1,5,0,0
6794,-90.9090909090909,4,2,1,35,0,0
7129,-90.9090909090909,4,2,1,5,0,0
7241,-111.111111111111,4,2,1,35,0,0
7577,-111.111111111111,4,2,1,5,0,0
7689,-178.571428571429,4,2,1,35,0,0
8585,-200,4,2,1,55,0,0
8921,-200,4,2,1,5,0,0
9032,-200,4,2,1,55,0,0
9144,-200,4,2,1,5,0,0
9928,-200,4,2,1,55,0,0
10040,-200,4,2,1,5,0,0
10823,-200,4,2,1,55,0,0
10935,-200,4,2,1,5,0,0
11495,-200,4,2,1,55,0,0
13734,-100,4,2,1,70,0,0
14629,-200,4,2,1,70,0,0
14853,-50,4,2,1,70,0,0
15077,-66.6666666666667,4,2,2,70,0,0
15133,-66.6666666666667,4,2,2,5,0,0
15301,-66.6666666666667,4,2,2,70,0,0
15357,-66.6666666666667,4,2,2,5,0,0
15749,-55.5555555555556,4,2,1,80,0,0
16197,-55.5555555555556,4,2,2,80,0,0
18659,-66.6666666666667,4,2,2,80,0,0
18715,-66.6666666666667,4,2,2,5,0,0
18883,-66.6666666666667,4,2,2,80,0,0
18939,-66.6666666666667,4,2,2,5,0,0
19331,-55.5555555555556,4,2,2,80,0,0
22913,-55.5555555555556,4,2,1,80,0,0
23361,-55.5555555555556,4,2,2,80,0,0
26271,-55.5555555555556,4,2,1,80,0,0
26943,-55.5555555555556,4,2,2,80,0,0
27167,-55.5555555555556,4,2,1,80,0,0
27615,-55.5555555555556,4,2,2,80,0,0
28062,-100,4,2,1,80,0,0
28734,-200,4,2,1,80,0,0
29406,-50,4,2,2,80,0,0
29629,-200,4,2,2,80,0,0
30077,-100,4,2,2,50,0,0
31421,-100,4,2,1,50,0,0
33100,-100,4,2,1,5,0,0
33212,-100,4,2,2,50,0,0
35003,-100,4,2,1,50,0,0
36458,-100,4,2,1,5,0,0
36570,-100,4,2,1,50,0,0
36794,-100,4,2,2,50,0,0
38585,-100,4,2,1,50,0,0
38921,-100,4,2,1,5,0,0
39032,-100,4,2,1,50,0,0
39144,-100,4,2,1,5,0,0
39704,-100,4,2,1,50,0,0
40376,-100,4,2,2,50,0,0
42167,-100,4,2,1,50,0,0
42503,-76.9230769230769,4,2,1,75,0,0
44182,-71.4285714285714,4,2,1,65,0,0
44853,-71.4285714285714,4,2,2,65,0,0
45973,-71.4285714285714,4,2,1,65,0,0
46644,-71.4285714285714,4,2,2,65,0,0
47764,-71.4285714285714,4,2,1,65,0,0
48435,-71.4285714285714,4,2,2,65,0,0
49555,-71.4285714285714,4,2,1,65,0,0
50226,-71.4285714285714,4,2,2,65,0,0
50898,-71.4285714285714,4,2,1,65,0,0
51346,-71.4285714285714,4,2,1,70,0,0
52689,-71.4285714285714,4,2,2,70,0,0
53137,-71.4285714285714,4,2,1,70,0,0
53809,-71.4285714285714,4,2,2,70,0,0
54256,-71.4285714285714,4,2,1,70,0,0
54480,-71.4285714285714,4,2,2,70,0,0
54704,-71.4285714285714,4,2,1,70,0,0
54928,-100,4,2,1,70,0,1
55600,-100,4,2,2,70,0,1
56719,-100,4,2,2,70,0,0
56943,-100,4,2,2,78,0,0
57167,-71.4285714285714,4,2,1,78,0,0
57838,-55.5555555555556,4,2,1,78,0,0
58286,-71.4285714285714,4,2,1,78,0,0
58342,-71.4285714285714,4,2,1,5,0,0
58398,-71.4285714285714,4,2,1,78,0,0
58454,-71.4285714285714,4,2,1,5,0,0
58510,-71.4285714285714,4,2,1,78,0,0
58566,-71.4285714285714,4,2,1,5,0,0
58734,-50,4,2,1,85,0,0
61644,-50,4,2,2,85,0,0
61868,-50,4,2,1,85,0,0
64107,-40,4,2,1,85,0,0
64275,-40,4,2,1,5,0,0
64331,-100,4,2,1,85,0,0
64442,-100,4,2,1,5,0,0
64554,-40,4,2,1,85,0,0
64722,-40,4,2,1,5,0,0
64778,-100,4,2,1,85,0,0
64890,-100,4,2,1,5,0,0
65002,-40,4,2,1,85,0,0
65170,-40,4,2,1,5,0,0
65226,-100,4,2,2,85,0,0
65450,-100,4,2,1,85,0,0
65898,-50,4,2,1,85,0,0
68809,-50,4,2,2,85,0,0
69032,-50,4,2,1,85,0,0
70823,-50,4,2,2,85,0,0
71047,-50,4,2,1,85,0,0
73062,-55.5555555555556,4,2,1,80,0,0
73510,-55.5555555555556,4,2,2,80,0,0
75972,-66.6666666666667,4,2,2,80,0,0
76029,-66.6666666666667,4,2,2,5,0,0
76197,-66.6666666666667,4,2,2,80,0,0
76253,-66.6666666666667,4,2,2,5,0,0
76644,-55.5555555555556,4,2,2,80,0,0
79443,-55.5555555555556,4,2,1,80,0,0
79555,-55.5555555555556,4,2,2,80,0,0
80003,-55.5555555555556,4,2,1,80,0,0
80674,-55.5555555555556,4,2,2,80,0,0
83136,-66.6666666666667,4,2,2,80,0,0
83193,-66.6666666666667,4,2,2,5,0,0
83361,-66.6666666666667,4,2,2,80,0,0
83417,-66.6666666666667,4,2,2,5,0,0
83585,-66.6666666666667,4,2,1,80,0,0
83808,-55.5555555555556,4,2,1,80,0,0
84256,-55.5555555555556,4,2,2,80,0,0
84480,-55.5555555555556,4,2,1,80,0,0
85152,-55.5555555555556,4,2,2,80,0,0
85376,-55.5555555555556,4,2,1,80,0,0
86047,-55.5555555555556,4,2,2,80,0,0
86159,-55.5555555555556,4,2,1,80,0,0
86719,-55.5555555555556,4,2,2,80,0,0
86943,-55.5555555555556,4,2,1,80,0,0
87391,-55.5555555555556,4,2,1,50,0,0

[Colours]
Combo1 : 26,240,149
Combo2 : 255,244,38
Combo3 : 17,249,255
Combo4 : 255,21,243
SliderBorder : 17,249,255

[HitObjects]
373,219,1421,6,0,B|414:249|466:239|482:212|482:212|437:200|421:227|435:288,1,220.499993270874,2|0,2:2|0:0,0:0:0:0:
365,315,2316,6,0,B|335:352|286:338|272:307|272:307|258:277|218:258|171:298,1,220.499993270874,2|0,2:2|0:0,0:0:0:0:
26,249,3212,6,0,B|86:246|105:317|105:317|93:244|161:213,1,220.499993270874,2|0,2:2|0:0,0:0:0:0:
87,159,4107,6,0,P|68:91|71:167,1,220.499993270874,2|0,2:2|0:0,0:0:0:0:
255,181,5003,6,0,B|217:160|188:179|154:197|148:229|148:229|187:213|178:156,1,220.499993270874,2|0,2:2|0:0,0:0:0:0:
247,259,5898,6,0,B|290:269|316:252|308:226|352:208|381:223|381:223|352:221|318:242|317:264,1,220.499993270874,2|0,2:2|0:0,0:0:0:0:
461,299,6794,6,0,P|517:290|460:311,1,173.250005287171,2|0,2:2|0:0,0:0:0:0:
376,346,7241,6,0,P|368:386|371:343,1,141.749995674133,2|0,2:2|0:0,0:0:0:0:
272,309,7689,6,0,P|251:294|271:306,1,117.600001435547,2|2,2:2|2:2,0:0:0:0:
376,346,8361,1,0,1:1:0:0:
475,182,8585,6,0,L|490:86,1,78.75,4|0,1:2|0:0,0:0:0:0:
489,84,9032,6,0,L|446:93,1,26.25,10|0,2:2|0:0,0:0:0:0:
263,172,9928,6,0,L|288:166,1,26.25,10|0,2:2|0:0,0:0:0:0:
129,72,10823,6,0,L|104:78,1,26.25,10|0,2:2|0:0,0:0:0:0:
55,284,11495,5,2,1:2:0:0:
207,342,11719,1,10,2:2:0:0:
176,271,11943,5,4,1:2:0:0:
184,263,12391,5,2,1:2:0:0:
350,232,12615,1,10,2:2:0:0:
343,223,13062,6,0,L|309:213,1,26.25,10|0,2:2|0:0,0:0:0:0:
470,160,13286,2,0,L|477:202,1,26.25,2|0,1:2|0:0,0:0:0:0:
491,200,13510,2,0,L|482:237,1,26.25,10|0,2:2|0:0,0:0:0:0:
320,363,13734,6,0,P|391:343|485:327,1,157.5,4|0,1:2|0:0,0:0:0:0:
502,368,14182,2,0,P|477:357|455:344,1,52.5,2|0,2:2|0:0,0:0:0:0:
328,264,14406,5,2,1:2:0:0:
312,232,14518,1,0,0:0:0:0:
359,132,14629,2,0,L|362:113,3,13.125
291,154,14853,6,0,B|422:180,1,105,0|0,1:1|0:0,0:0:0:0:
506,236,15077,6,0,L|494:305,1,39.3750015020371,8|0,2:2|0:0,0:0:0:0:
437,346,15301,6,0,L|445:385,1,39.3750015020371,8|0,1:2|0:0,0:0:0:0:
201,288,15749,6,0,L|97:258,1,94.499997116089,4|0,1:2|0:0,0:0:0:0:
32,299,15973,2,0,P|10:327|44:316,1,94.499997116089,2|0,2:2|0:0,0:0:0:0:
179,187,16197,6,0,L|283:157,1,94.499997116089,10|0,2:2|0:0,0:0:0:0:
339,209,16421,2,0,P|361:237|327:226,1,94.499997116089,2|0,2:2|0:0,0:0:0:0:
118,91,16644,6,0,P|148:158|183:284,1,188.999994232178,2|0,1:2|0:0,0:0:0:0:
69,323,16980,1,0,0:0:0:0:
81,315,17092,6,0,P|124:334|165:359,1,94.499997116089,10|0,2:2|0:0,0:0:0:0:
339,209,17316,2,0,P|299:233|256:253,1,94.499997116089,2|0,2:2|0:0,0:0:0:0:
58,169,17540,6,0,P|23:138|16:92,1,94.499997116089,2|0,1:2|0:0,0:0:0:0:
75,27,17764,2,0,B|100:8|123:26|123:26|102:44|66:27,1,94.499997116089,2|0,2:2|0:0,0:0:0:0:
197,143,17988,6,0,P|228:108|274:101,1,94.499997116089,10|0,2:2|0:0,0:0:0:0:
339,160,18212,2,0,B|358:185|340:208|340:208|322:187|339:151,1,94.499997116089,2|0,2:2|0:0,0:0:0:0:
477,0,18435,5,2,1:2:0:0:
493,219,18659,6,0,P|501:201|511:185,1,39.3750015020371,8|0,2:2|0:0,0:0:0:0:
403,90,18883,6,0,P|417:114|426:140,1,39.3750015020371,8|0,2:2|0:0,0:0:0:0:
248,293,19331,6,0,P|201:272|144:263,1,94.499997116089,2|0,1:2|0:0,0:0:0:0:
74,244,19555,2,0,B|66:270|82:293|82:293|73:270|80:253,1,94.499997116089,2|0,2:2|0:0,0:0:0:0:
251,371,19779,6,0,P|269:322|303:276,1,94.499997116089,10|0,2:2|0:0,0:0:0:0:
339,213,20003,2,0,B|363:226|367:254|367:254|357:231|341:223,1,94.499997116089,2|0,2:2|0:0,0:0:0:0:
110,142,20226,6,0,P|196:116|187:22,1,188.999994232178,2|0,1:2|0:0,0:0:0:0:
36,35,20562,1,0,0:0:0:0:
48,27,20674,6,0,P|91:46|132:71,1,94.499997116089,8|0,2:2|0:0,0:0:0:0:
196,233,20898,1,0,0:0:0:0:
187,210,21010,1,0,0:0:0:0:
189,188,21122,6,0,B|217:113|340:129|338:217|338:217|323:171|270:158,1,283.499991348267,2|0,1:2|0:0,0:0:0:0:
387,361,21570,6,0,B|308:374|260:259|337:217|337:217|305:253|320:305,1,283.499991348267,10|0,2:2|0:0,0:0:0:0:
481,302,22018,5,2,1:2:0:0:
481,302,22241,6,0,P|422:279|373:270,1,94.499997116089,8|0,2:2|0:0,0:0:0:0:
134,367,22465,1,10,2:2:0:0:
202,367,22577,1,0,0:0:0:0:
245,314,22689,1,0,0:0:0:0:
231,247,22801,1,0,0:0:0:0:
170,216,22913,6,0,L|68:235,1,94.499997116089,4|0,1:2|0:0,0:0:0:0:
15,294,23137,2,0,B|38:303|38:303|3:283|0:249,1,94.499997116089,2|0,2:2|0:0,0:0:0:0:
173,135,23361,6,0,L|275:154,1,94.499997116089,10|0,2:2|0:0,0:0:0:0:
328,213,23585,2,0,B|304:222|304:222|339:202|343:168,1,94.499997116089,2|0,2:2|0:0,0:0:0:0:
111,67,23809,6,0,P|141:134|176:260,1,188.999994232178,2|0,1:2|0:0,0:0:0:0:
149,370,24144,1,0,0:0:0:0:
136,359,24256,6,0,P|93:339|47:326,1,94.499997116089,10|0,2:2|0:0,0:0:0:0:
252,300,24480,2,0,P|294:280|335:255,1,94.499997116089,2|0,2:2|0:0,0:0:0:0:
489,119,24704,6,0,P|429:107|377:83,1,94.499997116089,2|0,1:2|0:0,0:0:0:0:
355,21,24928,2,0,B|304:38|310:85|310:85|331:78|331:49,1,94.499997116089,2|0,2:2|0:0,0:0:0:0:
146,125,25152,6,0,P|205:136|257:160,1,94.499997116089,10|0,2:2|0:0,0:0:0:0:
280,223,25376,2,0,B|330:205|324:158|324:158|303:165|303:194,1,94.499997116089,2|0,2:2|0:0,0:0:0:0:
142,1,25600,5,2,1:2:0:0:
142,1,25823,2,0,L|116:116,1,94.499997116089,8|0,2:2|0:0,0:0:0:0:
72,347,26047,1,8,2:2:0:0:
19,302,26159,1,0,0:0:0:0:
22,234,26271,1,8,2:2:0:0:
78,194,26383,1,8,2:2:0:0:
144,214,26495,5,4,1:2:0:0:
392,312,26719,1,2,2:2:0:0:
332,352,26831,1,0,0:0:0:0:
271,319,26943,2,0,P|282:269|305:222,1,94.499997116089,10|0,2:2|0:0,0:0:0:0:
511,137,27167,6,0,B|455:140|437:89|437:89|413:28|343:42,1,188.999994232178,14|0,2:2|1:1,0:0:0:0:
249,135,27503,1,0,0:0:0:0:
234,128,27615,6,0,P|172:144|120:176,1,94.499997116089,10|0,2:2|0:0,0:0:0:0:
0,29,27838,2,0,P|54:48|109:76,1,94.499997116089,10|0,2:2|0:0,0:0:0:0:
337,259,28062,5,14,2:2:0:0:
155,166,28734,6,0,L|158:180,1,13.125,0|0,1:1|0:0,0:0:0:0:
171,194,28846,6,0,L|169:206,1,13.125,0|0,3:3|0:0,0:0:0:0:
121,266,28958,6,0,L|118:280,1,13.125,8|0,2:2|0:0,0:0:0:0:
105,294,29070,6,0,L|107:306,1,13.125,8|0,2:2|0:0,0:0:0:0:
131,332,29182,5,2,1:2:0:0:
363,365,29406,6,0,P|407:344|462:330,1,105,8|0,2:2|0:0,0:0:0:0:
473,332,29629,6,0,P|462:323|446:315,1,26.25,10|0,2:2|0:0,0:0:0:0:
291,274,29853,1,0,1:1:0:0:
384,173,30077,5,2,1:2:0:0:
203,32,30749,5,2,2:2:0:0:
16,152,31421,5,8,2:1:0:0:
84,186,31644,1,0,1:1:0:0:
154,156,31868,1,2,1:2:0:0:
253,343,32540,5,2,2:2:0:0:
399,202,32988,6,0,L|388:129,1,52.5,2|0,3:2|0:0,0:0:0:0:
411,119,33212,2,0,L|397:188,1,52.5,10|0,2:2|0:0,0:0:0:0:
448,277,33435,1,2,1:2:0:0:
509,235,33659,5,0,1:1:0:0:
237,214,34331,5,2,2:2:0:0:
230,207,34779,5,2,1:2:0:0:
397,159,35003,1,8,2:1:0:0:
152,61,35450,5,2,1:2:0:0:
152,61,36122,6,0,P|98:113|151:172,1,157.5,0|0,3:3|0:0,0:0:0:0:
223,208,36570,5,2,3:2:0:0:
149,174,36794,1,10,2:2:0:0:
61,294,37018,1,0,1:1:0:0:
137,254,37241,5,2,1:2:0:0:
358,338,37913,5,2,2:2:0:0:
464,44,38585,5,8,2:1:0:0:
346,94,38809,2,0,L|279:74,1,52.5,0|0,1:1|0:0,0:0:0:0:
281,97,39032,2,0,L|343:76,1,52.5,2|0,1:2|0:0,0:0:0:0:
93,192,39704,5,2,2:2:0:0:
369,368,40152,5,2,3:2:0:0:
465,274,40376,1,10,2:2:0:0:
357,218,40600,1,2,1:2:0:0:
389,290,40823,5,0,1:1:0:0:
389,290,41719,5,2,1:2:0:0:
389,290,42167,5,8,2:1:0:0:
153,369,42391,5,0,1:1:0:0:
208,312,42503,2,0,P|182:241|147:187,1,136.499993751526,12|0,2:2|0:0,0:0:0:0:
268,64,42838,1,0,1:1:0:0:
228,132,42950,1,0,0:0:0:0:
288,184,43062,6,0,P|351:164|420:131,1,136.499993751526,8|0,2:2|1:1,0:0:0:0:
159,206,43510,5,10,2:2:0:0:
169,207,43622,1,0,0:0:0:0:
178,209,43734,1,2,3:2:0:0:
149,235,43846,5,8,2:2:0:0:
91,181,43958,1,10,2:2:0:0:
148,120,44070,1,8,2:2:0:0:
116,43,44182,6,0,P|229:66|310:0,1,220.499993270874,4|0,1:2|0:0,0:0:0:0:
419,164,44629,2,0,P|403:199|402:246,1,73.4999977569581,2|0,2:2|0:0,0:0:0:0:
461,373,44853,2,0,P|438:341|397:317,1,73.4999977569581,10|0,2:2|0:0,0:0:0:0:
259,306,45077,1,2,2:2:0:0:
295,303,45189,1,0,0:0:0:0:
328,287,45301,1,0,1:1:0:0:
202,168,45525,6,0,L|217:86,1,73.4999977569581,2|0,2:2|0:0,0:0:0:0:
215,95,45749,1,8,2:2:0:0:
17,227,45973,6,0,P|152:262|289:358,1,293.999991027832,12|0,2:2|0:0,0:0:0:0:
380,126,46644,2,0,P|316:161|277:239,1,146.999995513916,8|0,2:2|0:0,0:0:0:0:
250,321,46980,1,0,0:0:0:0:
278,347,47092,5,2,1:2:0:0:
1,280,47316,2,0,P|41:267|72:234,1,73.4999977569581,8|0,2:2|0:0,0:0:0:0:
213,172,47540,1,10,2:2:0:0:
227,193,47652,1,0,0:0:0:0:
142,292,47764,6,0,P|117:177|10:173,1,220.499993270874,12|0,2:2|0:0,0:0:0:0:
262,54,48212,2,0,P|295:26|337:30,1,73.4999977569581,2|0,2:2|0:0,0:0:0:0:
268,211,48435,2,0,P|227:195|209:156,1,73.4999977569581,10|0,2:2|0:0,0:0:0:0:
402,127,48659,1,2,2:2:0:0:
410,162,48771,1,0,0:0:0:0:
395,194,48883,1,0,1:1:0:0:
272,335,49107,6,0,L|364:313,1,73.4999977569581,2|0,2:2|0:0,0:0:0:0:
343,317,49331,1,10,2:2:0:0:
44,324,49555,6,0,P|140:230|23:179,1,293.999991027832,12|2,2:2|2:2,0:0:0:0:
223,227,50226,2,0,P|258:211|290:185,1,73.4999977569581,8|0,2:2|0:0,0:0:0:0:
139,95,50450,2,0,P|167:117|201:132,1,73.4999977569581
335,58,50674,5,0,1:1:0:0:
442,229,50898,6,0,P|478:214|539:198,1,73.4999977569581,14|0,2:2|0:0,0:0:0:0:
428,357,51122,2,0,P|394:341|359:329,1,73.4999977569581,14|0,2:2|0:0,0:0:0:0:
158,267,51346,6,0,B|122:303|69:301|49:277|49:277|91:258|111:282|107:344,1,220.499993270874,4|0,1:2|0:0,0:0:0:0:
181,346,51794,1,2,1:2:0:0:
37,170,52018,1,14,2:2:0:0:
276,208,52241,1,2,3:2:0:0:
284,205,52315,1,0,3:3:0:0:
292,203,52390,1,0,3:3:0:0:
301,201,52464,1,0,1:1:0:0:
506,136,52689,6,0,P|489:178|479:220,1,73.4999977569581,10|0,2:2|0:0,0:0:0:0:
401,344,52913,2,0,P|389:300|378:274,1,73.4999977569581,10|0,2:2|0:0,0:0:0:0:
210,91,53137,6,0,B|234:156|342:142|340:65|340:65|329:94|304:100,1,220.499993270874,4|0,1:2|0:0,0:0:0:0:
270,38,53585,5,2,1:2:0:0:
135,160,53809,6,0,P|96:138|43:126,1,73.4999977569581,10|0,2:2|0:0,0:0:0:0:
1,173,54032,1,2,2:2:0:0:
219,243,54256,6,0,P|254:215|283:205,1,73.4999977569581,8|0,2:2|0:0,0:0:0:0:
431,189,54480,2,0,P|389:172|366:152,1,73.4999977569581,8|0,2:2|0:0,0:0:0:0:
270,38,54704,2,0,P|276:82|270:112,1,73.4999977569581,10|0,2:2|0:0,0:0:0:0:
147,318,54928,6,0,B|55:313|32:159|188:104|241:226|241:226|290:356|515:330|524:196|524:196|508:276|431:280,1,840,4|0,1:2|0:0,0:0:0:0:
431,189,56943,5,0,1:1:0:0:
431,189,57167,6,0,P|395:178|363:161,1,73.4999977569581,14|8,2:2|2:2,0:0:0:0:
125,123,57391,2,0,P|161:112|193:95,1,73.4999977569581,14|0,2:2|0:0,0:0:0:0:
331,15,57615,1,0,3:3:0:0:
217,309,57838,6,0,P|186:234|124:125,1,188.999994232178,8|2,2:2|1:2,0:0:0:0:
20,286,58286,6,0,L|5:335,1,36.749998878479,10|0,2:2|0:0,0:0:0:0:
29,297,58398,6,0,L|14:346,1,36.749998878479,0|0,3:3|0:0,0:0:0:0:
36,306,58510,6,0,L|21:355,1,36.749998878479,2|0,3:2|0:0,0:0:0:0:
310,306,58734,6,0,P|363:322|423:350,1,105,4|0,1:2|0:0,0:0:0:0:
501,176,58958,2,0,P|458:207|420:243,1,105,2|0,2:2|0:0,0:0:0:0:
264,365,59182,6,0,P|289:314|297:244,1,105,10|0,2:2|0:0,0:0:0:0:
334,76,59406,2,0,P|346:131|384:190,1,105,2|0,2:2|0:0,0:0:0:0:
512,364,59629,6,0,P|411:332|287:302,1,210,2|0,1:2|0:0,0:0:0:0:
143,359,59965,1,0,0:0:0:0:
200,298,60077,6,0,P|220:246|197:182,1,105,10|0,2:2|0:0,0:0:0:0:
71,106,60301,2,0,P|51:158|74:222,1,105,2|0,2:2|0:0,0:0:0:0:
143,359,60525,1,0,1:1:0:0:
361,252,60749,6,0,P|307:239|264:198,1,105,2|0,2:2|0:0,0:0:0:0:
143,359,60973,2,0,P|181:318|238:301,1,105,10|0,2:2|0:0,0:0:0:0:
175,118,61197,2,0,P|190:170|176:228,1,105,2|0,2:2|0:0,0:0:0:0:
366,352,61421,6,0,P|351:300|365:242,1,105,2|0,1:2|0:0,0:0:0:0:
512,152,61644,1,10,2:2:0:0:
428,208,61756,1,2,2:2:0:0:
352,140,61868,6,0,P|369:87|386:40,1,105,10|0,2:2|0:0,0:0:0:0:
217,175,62092,2,0,P|234:224|250:274,1,105,2|0,2:2|0:0,0:0:0:0:
261,25,62316,6,0,P|161:45|34:17,1,210,2|0,1:2|0:0,0:0:0:0:
43,205,62652,1,0,0:0:0:0:
1,130,62764,6,0,P|43:124|108:148,1,105,10|0,2:2|0:0,0:0:0:0:
289,155,62988,2,0,P|250:174|209:228,1,105,2|0,2:2|0:0,0:0:0:0:
83,286,63212,5,2,1:2:0:0:
89,311,63323,1,0,0:0:0:0:
173,381,63435,5,2,2:2:0:0:
179,356,63547,1,0,0:0:0:0:
9,373,63659,6,0,P|93:355|232:311,1,210,10|0,2:2|0:0,0:0:0:0:
451,337,63995,1,0,0:0:0:0:
440,346,64107,6,0,P|353:334|364:230,1,196.875,6|0,1:2|0:0,0:0:0:0:
379,232,64331,2,0,L|376:292,1,52.5
231,129,64555,6,0,P|250:214|149:241,1,196.875,14|0,2:2|0:0,0:0:0:0:
146,226,64779,2,0,L|221:227,1,52.5
451,115,65003,6,0,P|365:134|338:33,1,196.875,6|0,1:2|0:0,0:0:0:0:
353,30,65226,1,8,2:2:0:0:
367,18,65450,5,8,2:2:0:0:
291,25,65562,1,0,0:0:0:0:
215,33,65674,1,0,3:3:0:0:
140,41,65786,1,0,3:3:0:0:
0,172,65898,6,0,B|116:168|57:265|185:256,1,210,4|0,1:2|0:0,0:0:0:0:
299,148,66234,1,0,0:0:0:0:
228,115,66346,6,0,P|168:146|160:206,1,105,10|0,2:2|0:0,0:0:0:0:
207,356,66570,2,0,P|267:325|275:265,1,105,2|0,2:2|0:0,0:0:0:0:
503,197,66794,6,0,P|444:173|409:149,1,105,2|0,1:2|0:0,0:0:0:0:
228,115,67018,2,0,P|287:91|322:67,1,105,2|0,2:2|0:0,0:0:0:0:
512,44,67241,6,0,P|488:103|464:138,1,105,10|0,2:2|0:0,0:0:0:0:
350,276,67465,2,0,P|326:217|302:182,1,105,2|0,2:2|0:0,0:0:0:0:
140,99,67689,1,0,1:1:0:0:
140,99,67913,6,0,P|90:86|45:111,1,105,2|0,2:2|0:0,0:0:0:0:
73,253,68137,2,0,P|124:256|163:223,1,105,10|0,2:2|0:0,0:0:0:0:
346,84,68361,6,0,B|355:54|350:12|291:3|291:3|236:70|249:141|325:204,1,315,2|0,2:2|0:0,0:0:0:0:
420,336,68809,5,10,2:2:0:0:
492,248,68921,1,0,0:0:0:0:
403,177,69032,1,10,2:2:0:0:
383,217,69144,1,0,0:0:0:0:
404,250,69256,6,0,P|303:187|229:96,1,210,12|0,2:2|1:1,0:0:0:0:
80,22,69592,1,0,0:0:0:0:
132,92,69704,6,0,P|114:153|94:207,1,105,2|0,2:2|0:0,0:0:0:0:
272,261,69928,2,0,P|235:223|200:183,1,105,10|0,2:2|0:0,0:0:0:0:
36,313,70152,2,0,P|86:299|138:289,1,105,2|0,2:2|0:0,0:0:0:0:
316,384,70376,6,0,P|265:370|213:360,1,105,2|0,1:2|0:0,0:0:0:0:
390,280,70600,2,0,P|409:231|431:183,1,105,10|0,2:2|0:0,0:0:0:0:
236,114,70823,2,0,P|258:161|277:210,1,105,10|0,2:2|0:0,0:0:0:0:
512,95,71047,6,0,P|392:54|308:-1,1,210,12|0,2:2|1:1,0:0:0:0:
131,40,71383,1,0,1:0:0:0:
83,100,71495,1,10,2:2:0:0:
123,164,71607,1,0,1:0:0:0:
199,184,71719,6,0,L|220:61,1,105,14|0,2:2|0:0,0:0:0:0:
479,331,72055,1,8,2:2:0:0:
393,348,72167,6,0,P|342:334|298:305,1,105,8|0,2:2|0:0,0:0:0:0:
216,80,72391,2,0,P|229:129|226:181,1,105,8|0,2:2|0:0,0:0:0:0:
72,368,72615,2,0,P|108:329|154:307,1,105,8|0,2:2|0:0,0:0:0:0:
436,263,72838,1,8,2:2:0:0:
410,232,72950,1,8,2:2:0:0:
399,200,73062,6,0,P|409:150|447:107,1,94.499997116089,4|0,1:2|0:0,0:0:0:0:
483,179,73286,2,0,P|513:197|477:199,1,94.499997116089,2|0,2:2|0:0,0:0:0:0:
286,27,73510,6,0,P|326:58|347:111,1,94.499997116089,10|0,2:2|0:0,0:0:0:0:
266,111,73734,2,0,P|235:129|250:97,1,94.499997116089,2|0,2:2|0:0,0:0:0:0:
417,313,73958,6,0,P|331:276|229:250,1,188.999994232178,2|0,1:2|0:0,0:0:0:0:
124,298,74294,1,0,0:0:0:0:
140,284,74406,6,0,P|159:241|172:195,1,94.499997116089,10|0,2:2|0:0,0:0:0:0:
12,51,74629,2,0,P|25:96|44:139,1,94.499997116089,2|0,2:2|0:0,0:0:0:0:
266,111,74853,6,0,P|326:129|362:158,1,94.499997116089,2|0,1:2|0:0,0:0:0:0:
372,226,75077,2,0,B|379:256|353:270|353:270|345:243|375:217,1,94.499997116089,2|0,2:2|0:0,0:0:0:0:
241,25,75301,6,0,P|197:70|155:89,1,94.499997116089,10|0,2:2|0:0,0:0:0:0:
90,68,75525,2,0,B|59:60|59:31|59:31|86:36|95:74,1,94.499997116089,2|0,2:2|0:0,0:0:0:0:
225,241,75749,5,2,1:2:0:0:
47,256,75973,6,0,P|65:264|81:274,1,39.3750015020371,8|0,2:2|0:0,0:0:0:0:
172,358,76197,6,0,P|148:372|122:381,1,39.3750015020371,8|0,2:2|0:0,0:0:0:0:
335,205,76644,6,0,L|441:191,1,94.499997116089,2|0,1:2|0:0,0:0:0:0:
506,229,76868,2,0,B|493:253|465:257|465:257|488:248|495:231,1,94.499997116089,2|0,2:2|0:0,0:0:0:0:
347,105,77092,6,0,L|241:91,1,94.499997116089,10|0,2:2|0:0,0:0:0:0:
176,129,77316,2,0,B|188:153|216:157|216:157|193:148|186:131,1,94.499997116089,2|0,2:2|0:0,0:0:0:0:
417,37,77540,6,0,P|361:120|334:210,1,188.999994232178,2|0,1:2|0:0,0:0:0:0:
374,354,77876,1,0,0:0:0:0:
386,336,77988,6,0,P|353:268|236:252,1,188.999994232178,10|2,2:2|2:2,0:0:0:0:
69,348,78323,1,0,0:0:0:0:
83,331,78435,6,0,B|127:276|95:180|43:149|43:149|30:205|56:221,1,283.499991348267,2|0,1:2|0:0,0:0:0:0:
248,246,78883,6,0,B|183:217|99:272|83:331|83:331|140:329|149:299,1,283.499991348267,10|0,2:2|0:0,0:0:0:0:
256,84,79331,5,2,1:2:0:0:
340,56,79443,1,8,2:2:0:0:
420,32,79555,1,8,2:2:0:0:
443,36,79779,5,10,2:2:0:0:
493,82,79891,1,0,0:0:0:0:
490,150,80003,1,8,2:2:0:0:
434,191,80115,1,8,2:2:0:0:
368,173,80226,6,0,P|319:146|269:129,1,94.499997116089,4|0,1:2|0:0,0:0:0:0:
210,79,80450,2,0,B|231:67|231:67|199:91|199:125,1,94.499997116089,2|0,2:2|0:0,0:0:0:0:
107,308,80674,6,0,P|156:284|200:253,1,94.499997116089,10|0,2:2|0:0,0:0:0:0:
275,235,80898,2,0,B|271:259|271:259|271:219|243:199,1,94.499997116089,2|0,2:2|0:0,0:0:0:0:
19,101,81122,6,0,P|22:174|134:177,1,188.999994232178,2|0,1:2|0:0,0:0:0:0:
223,120,81458,1,0,0:0:0:0:
209,107,81570,6,0,P|189:64|176:18,1,94.499997116089,10|0,2:2|0:0,0:0:0:0:
291,213,81794,2,0,P|271:255|246:296,1,94.499997116089,2|0,2:2|0:0,0:0:0:0:
465,152,82018,6,0,P|406:161|359:130,1,94.499997116089,2|0,1:2|0:0,0:0:0:0:
379,26,82241,2,0,B|430:43|424:90|424:90|403:83|403:54,1,94.499997116089,2|0,2:2|0:0,0:0:0:0:
201,208,82465,6,0,P|260:199|307:230,1,94.499997116089,10|0,2:2|0:0,0:0:0:0:
287,334,82689,2,0,B|236:317|242:270|242:270|263:277|263:306,1,94.499997116089,2|0,2:2|0:0,0:0:0:0:
470,362,82913,5,2,1:2:0:0:
398,258,83137,6,0,L|384:220,1,39.3750015020371,8|0,2:2|0:0,0:0:0:0:
465,152,83361,6,0,L|475:110,1,39.3750015020371,8|0,2:2|0:0,0:0:0:0:
328,3,83585,1,8,2:2:0:0:
288,7,83697,1,8,2:2:0:0:
257,26,83809,6,0,P|228:64|216:125,1,94.499997116089,4|0,1:2|0:0,0:0:0:0:
403,278,84032,1,2,2:2:0:0:
401,268,84144,1,0,0:0:0:0:
398,258,84256,2,0,P|362:225|303:207,1,94.499997116089,10|0,2:2|0:0,0:0:0:0:
216,108,84480,6,0,B|160:105|142:156|142:156|118:217|48:203,1,188.999994232178,12|0,2:2|1:1,0:0:0:0:
8,300,84816,1,0,0:0:0:0:
27,303,84928,6,0,P|78:320|126:341,1,94.499997116089,10|0,2:2|0:0,0:0:0:0:
315,189,85152,2,0,P|269:200|224:216,1,94.499997116089,10|0,2:2|0:0,0:0:0:0:
408,340,85376,5,4,1:2:0:0:
478,189,85600,5,0,3:3:0:0:
462,185,85712,1,0,3:3:0:0:
380,223,85823,5,10,2:2:0:0:
394,228,85935,1,8,2:2:0:0:
453,278,86047,5,10,2:2:0:0:
496,218,86159,1,0,3:3:0:0:
447,159,86271,1,10,2:2:0:0:
486,94,86383,1,8,2:2:0:0:
466,66,86495,5,10,2:2:0:0:
466,66,86719,6,0,P|416:94|364:112,1,94.499997116089,10|0,2:2|0:0,0:0:0:0:
149,181,86943,2,0,P|202:204|247:236,1,94.499997116089,10|0,2:2|0:0,0:0:0:0:
408,340,87167,1,2,1:2:0:0:
402,351,87391,5,2,2:2:0:0:
