osu file format v14

[General]
AudioFilename: audio.mp3
AudioLeadIn: 0
PreviewTime: 57950
Countdown: 0
SampleSet: Soft
StackLeniency: 0.5
Mode: 0
LetterboxInBreaks: 0
WidescreenStoryboard: 1

[Editor]
Bookmarks: 15749,30077,44406,58734,73062,87391
DistanceSpacing: 0.5
BeatDivisor: 8
GridSize: 16
TimelineZoom: 1.9

[Metadata]
Title:Wayawayawa-! (TV Size)
TitleUnicode:わやわやわー! (TV Size)
Artist:Asaka
ArtistUnicode:亜咲花
Creator:MianYa
Version:iRedi's Another
Source:道産子ギャルはなまらめんこい
Tags:japanese anime ed ending j-pop jpop pop Ooishi Masayoshi eba 大石昌良 Dosanko Gyaru wa Namaramenkoi Hokkaido Gals Are Super Adorable! __Ag leominexd leomine Graphical iRedi
BeatmapID:4548159
BeatmapSetID:2156286

[Difficulty]
HPDrainRate:5
CircleSize:4.2
OverallDifficulty:8
ApproachRate:9
SliderMultiplier:1.8
SliderTickRate:1

[Events]
//Background and Video events
0,0,"BG.jpg",0,0
Video,0,"video.mp4"
//Break Periods
//Storyboard Layer 0 (Background)
//Storyboard Layer 1 (Fail)
//Storyboard Layer 2 (Pass)
//Storyboard Layer 3 (Foreground)
//Storyboard Layer 4 (Overlay)
//Storyboard Sound Samples

[TimingPoints]
1421,447.761194029851,4,2,1,35,1,0
1421,-142.857142857143,4,2,1,35,0,0
2204,-142.857142857143,4,2,1,5,0,0
2316,-250,4,2,1,35,0,0
3100,-142.857142857143,4,2,1,5,0,0
3212,-142.857142857143,4,2,1,35,0,0
3995,-142.857142857143,4,2,1,5,0,0
4107,-250,4,2,1,35,0,0
4891,-142.857142857143,4,2,1,5,0,0
5003,-142.857142857143,4,2,1,35,0,0
5786,-142.857142857143,4,2,1,5,0,0
5898,-250,4,2,1,35,0,0
6682,-142.857142857143,4,2,1,5,0,0
6794,-111.111111111111,4,2,1,35,0,0
7129,-142.857142857143,4,2,1,5,0,0
7241,-111.111111111111,4,2,1,35,0,0
7577,-142.857142857143,4,2,1,5,0,0
7689,-100,4,2,1,35,0,0
8585,-100,4,2,1,55,0,0
8921,-142.857142857143,4,2,1,5,0,0
9032,-100,4,2,1,55,0,0
9144,-142.857142857143,4,2,1,5,0,0
9928,-100,4,2,1,55,0,0
10040,-142.857142857143,4,2,1,5,0,0
10823,-100,4,2,1,55,0,0
10935,-142.857142857143,4,2,1,5,0,0
11495,-100,4,2,1,55,0,0
11831,-142.857142857143,4,2,1,5,0,0
11943,-100,4,2,1,55,0,0
12726,-142.857142857143,4,2,1,5,0,0
12838,-100,4,2,1,55,0,0
13174,-142.857142857143,4,2,1,5,0,0
13286,-100,4,2,1,55,0,0
13622,-142.857142857143,4,2,1,5,0,0
13734,-83.3333333333333,4,2,1,70,0,0
15077,-83.3333333333333,4,2,2,70,0,0
15189,-142.857142857143,4,2,2,5,0,0
15301,-83.3333333333333,4,2,2,70,0,0
15413,-142.857142857143,4,2,2,5,0,0
15749,-66.6666666666667,4,2,1,80,0,0
16197,-66.6666666666667,4,2,2,80,0,0
18659,-83.3333333333333,4,2,2,80,0,0
19331,-66.6666666666667,4,2,2,80,0,0
22913,-66.6666666666667,4,2,1,80,0,0
23361,-66.6666666666667,4,2,2,80,0,0
26271,-66.6666666666667,4,2,1,80,0,0
26943,-66.6666666666667,4,2,2,80,0,0
27167,-58.8235294117647,4,2,1,80,0,0
27615,-66.6666666666667,4,2,2,80,0,0
28062,-66.6666666666667,4,2,1,80,0,0
29182,-100,4,2,1,80,0,0
29406,-100,4,2,2,80,0,0
29629,-83.3333333333333,4,2,2,80,0,0
30077,-333.333333333333,4,2,2,50,0,0
31421,-333.333333333333,4,2,1,50,0,0
33212,-333.333333333333,4,2,2,50,0,0
35003,-333.333333333333,4,2,1,50,0,0
36794,-333.333333333333,4,2,2,50,0,0
37241,-66.6666666666667,4,2,2,50,0,0
37297,-66.6666666666667,4,2,2,20,0,0
37913,-333.333333333333,4,2,2,50,0,0
38585,-333.333333333333,4,2,1,50,0,0
40376,-333.333333333333,4,2,2,50,0,0
42167,-125,4,2,1,50,0,0
42503,-83.3333333333333,4,2,1,75,0,0
44182,-71.4285714285714,4,2,1,65,0,0
44853,-71.4285714285714,4,2,2,65,0,0
45301,-76.9230769230769,4,2,2,65,0,0
45973,-62.5,4,2,1,65,0,0
46421,-71.4285714285714,4,2,1,65,0,0
46644,-71.4285714285714,4,2,2,65,0,0
47764,-66.6666666666667,4,2,1,65,0,0
48212,-71.4285714285714,4,2,1,65,0,0
48435,-71.4285714285714,4,2,2,65,0,0
48883,-76.9230769230769,4,2,2,65,0,0
49555,-68.9655172413793,4,2,1,65,0,0
50226,-71.4285714285714,4,2,2,65,0,0
50898,-71.4285714285714,4,2,1,65,0,0
51346,-71.4285714285714,4,2,1,70,0,0
52689,-71.4285714285714,4,2,2,70,0,0
53137,-71.4285714285714,4,2,1,70,0,0
53809,-71.4285714285714,4,2,2,70,0,0
54256,-71.4285714285714,4,2,1,70,0,0
54480,-71.4285714285714,4,2,2,70,0,0
54704,-71.4285714285714,4,2,1,70,0,0
55600,-71.4285714285714,4,2,2,70,0,0
56943,-71.4285714285714,4,2,2,78,0,0
57167,-71.4285714285714,4,2,1,78,0,0
57838,-62.5,4,2,1,78,0,0
58734,-58.8235294117647,4,2,1,85,0,0
61644,-58.8235294117647,4,2,2,85,0,0
61868,-58.8235294117647,4,2,1,85,0,0
64107,-50,4,2,1,85,0,0
64331,-58.8235294117647,4,2,1,85,0,0
64555,-50,4,2,1,85,0,0
64779,-58.8235294117647,4,2,1,85,0,0
65003,-45.4545454545455,4,2,1,85,0,0
65226,-45.4545454545455,4,2,2,85,0,0
65450,-45.4545454545455,4,2,1,85,0,0
65898,-58.8235294117647,4,2,1,85,0,0
68809,-58.8235294117647,4,2,2,85,0,0
69032,-58.8235294117647,4,2,1,85,0,0
70823,-58.8235294117647,4,2,2,85,0,0
71047,-58.8235294117647,4,2,1,85,0,0
73062,-64.5161290322581,4,2,1,80,0,0
73510,-64.5161290322581,4,2,2,80,0,0
75973,-74.0740740740741,4,2,2,80,0,0
76644,-64.5161290322581,4,2,2,80,0,0
79443,-64.5161290322581,4,2,1,80,0,0
79555,-64.5161290322581,4,2,2,80,0,0
80003,-64.5161290322581,4,2,1,80,0,0
80674,-64.5161290322581,4,2,2,80,0,0
83585,-64.5161290322581,4,2,1,80,0,0
84256,-64.5161290322581,4,2,2,80,0,0
84480,-57.1428571428571,4,2,1,80,0,0
85152,-57.1428571428571,4,2,2,80,0,0
85376,-57.1428571428571,4,2,1,80,0,0
86047,-57.1428571428571,4,2,2,80,0,0
86159,-57.1428571428571,4,2,1,80,0,0
86719,-57.1428571428571,4,2,2,80,0,0
86943,-57.1428571428571,4,2,1,80,0,0
87391,-57.1428571428571,4,2,1,50,0,0

[Colours]
Combo1 : 26,240,149
Combo2 : 255,244,38
Combo3 : 17,249,255
Combo4 : 255,21,243
SliderBorder : 17,249,255

[HitObjects]
92,0,1421,6,0,B|110:64|52:114|48:76|-6:126|9:185,1,220.499993270874,2|0,2:2|0:0,0:0:0:0:
20,197,2316,2,0,P|82:190|117:245,1,126,2|0,2:2|0:0,0:0:0:0:
124,251,3212,6,0,B|93:314|140:357|140:357|208:352|229:277,1,220.499993270874,2|0,2:2|0:0,0:0:0:0:
232,292,4107,2,0,P|213:233|199:170,1,126,2|0,2:2|0:0,0:0:0:0:
195,159,5003,6,0,B|206:79|291:54|291:54|295:92|329:113,1,220.499993270874,2|0,2:2|0:0,0:0:0:0:
336,124,5898,2,0,P|396:114|435:66,1,126,2|0,2:2|0:0,0:0:0:0:
438,50,6794,6,0,P|483:75|498:165,1,121.499996292114,2|0,2:2|0:0,0:0:0:0:
500,157,7241,2,0,P|454:182|439:272,1,121.499996292114,2|0,2:2|0:0,0:0:0:0:
435,260,7689,6,0,P|448:330|374:291,1,180,2|2,2:2|2:2,0:0:0:0:
374,308,8361,1,0,1:1:0:0:
240,189,8585,6,0,P|176:194|135:273,1,135,4|0,1:2|0:0,0:0:0:0:
138,262,9032,6,0,L|121:323,1,45,10|0,2:2|0:0,0:0:0:0:
329,173,9928,6,0,L|346:234,1,45,10|0,2:2|0:0,0:0:0:0:
213,321,10823,6,0,L|226:278,1,45,10|0,2:2|0:0,0:0:0:0:
424,188,11495,1,2,1:2:0:0:
424,188,11719,6,0,L|412:145,1,45,10|0,2:2|0:0,0:0:0:0:
267,69,11943,6,0,P|222:141|147:124,1,135,4|0,1:2|0:0,0:0:0:0:
169,133,12391,1,2,1:2:0:0:
28,196,12615,6,0,L|41:153,1,45,10|0,2:2|0:0,0:0:0:0:
163,2,13062,6,0,L|175:45,1,45,10|0,2:2|0:0,0:0:0:0:
99,90,13286,1,2,1:2:0:0:
254,157,13510,6,0,L|266:200,1,45,10|0,2:2|0:0,0:0:0:0:
189,367,13734,6,0,P|100:343|74:271,1,161.999995056153,4|0,1:2|0:0,0:0:0:0:
63,278,14182,2,0,P|71:322|92:344,1,53.9999983520508,2|0,2:2|0:0,0:0:0:0:
179,227,14406,2,0,P|167:251|166:277,1,53.9999983520508,2|0,1:2|0:0,0:0:0:0:
275,383,14629,5,0,0:0:0:0:
292,344,14741,1,0,0:0:0:0:
330,333,14853,1,0,1:1:0:0:
460,209,15077,6,0,L|521:225,1,53.9999983520508,8|0,2:2|0:0,0:0:0:0:
342,128,15301,2,0,L|395:143,1,53.9999983520508,8|0,1:2|0:0,0:0:0:0:
142,123,15749,5,4,1:2:0:0:
393,266,15973,1,2,2:2:0:0:
66,305,16197,1,10,2:2:0:0:
317,211,16421,1,2,2:2:0:0:
217,178,16644,6,0,P|237:242|251:308,1,135.000005149842,2|0,1:2|0:0,0:0:0:0:
87,185,17092,2,0,P|109:218|150:225,1,67.5000025749208,10|0,2:2|0:0,0:0:0:0:
197,88,17316,5,2,2:2:0:0:
170,52,17428,1,0,0:0:0:0:
133,44,17540,1,2,1:2:0:0:
385,151,17764,1,2,2:2:0:0:
57,99,17988,1,10,2:2:0:0:
309,206,18212,1,2,2:2:0:0:
217,178,18435,5,2,1:2:0:0:
337,21,18659,1,8,2:2:0:0:
337,21,18883,2,0,L|351:74,3,53.9999983520508,8|0|0|0,2:2|0:0|0:0|0:0,0:0:0:0:
256,142,19331,5,2,1:2:0:0:
13,5,19555,1,2,2:2:0:0:
248,58,19779,1,10,2:2:0:0:
0,158,20003,1,2,2:2:0:0:
78,96,20226,6,0,P|142:133|151:208,1,135.000005149842,2|0,1:2|0:0,0:0:0:0:
235,62,20674,1,8,2:2:0:0:
73,220,20898,5,0,0:0:0:0:
67,258,21010,1,0,0:0:0:0:
93,289,21122,2,0,P|195:298|248:403,1,202.500007724762,2|0,1:2|0:0,0:0:0:0:
191,337,21570,2,0,P|246:255|343:247,1,202.500007724762,10|0,2:2|0:0,0:0:0:0:
314,193,22018,1,2,1:2:0:0:
447,381,22241,6,0,L|539:356,1,67.5000025749208,8|0,2:2|0:0,0:0:0:0:
319,342,22465,2,0,L|385:325,3,67.5000025749208,10|0|0|0,2:2|0:0|0:0|0:0,0:0:0:0:
460,218,22913,5,4,1:2:0:0:
220,143,23137,1,2,2:2:0:0:
395,0,23361,1,10,2:2:0:0:
212,151,23585,1,2,2:2:0:0:
300,116,23809,2,0,P|234:49|155:82,1,135.000005149842,2|0,1:2|0:0,0:0:0:0:
91,200,24256,2,0,P|122:168|125:131,1,67.5000025749208,10|0,2:2|0:0,0:0:0:0:
19,52,24480,5,2,2:2:0:0:
4,29,24592,1,0,0:0:0:0:
14,1,24704,1,2,1:2:0:0:
212,151,24928,1,2,2:2:0:0:
3,275,25152,1,10,2:2:0:0:
220,143,25376,1,2,2:2:0:0:
116,68,25600,5,2,1:2:0:0:
197,236,25823,2,0,L|179:301,1,67.5000025749208,8|0,2:2|0:0,0:0:0:0:
302,179,26047,2,0,L|284:244,1,67.5000025749208,8|0,2:2|0:0,0:0:0:0:
408,365,26271,5,8,2:2:0:0:
466,372,26383,1,8,2:2:0:0:
512,336,26495,2,0,B|526:279|476:233|472:268|419:222|435:163,1,202.500007724762,4|0,1:2|0:0,0:0:0:0:
449,154,26943,1,10,2:2:0:0:
210,202,27167,2,0,P|149:123|17:111,1,229.500004377365,14|0,2:2|0:0,0:0:0:0:
17,116,27615,6,0,L|-8:208,1,67.5000025749208,10|0,2:2|0:0,0:0:0:0:
142,70,27838,2,0,L|117:162,1,67.5000025749208,10|0,2:2|0:0,0:0:0:0:
267,24,28062,2,0,L|242:116,2,67.5000025749208,14|0|0,2:2|1:1|1:1,0:0:0:0:
107,278,28734,5,0,1:1:0:0:
131,275,28845,1,0,3:3:0:0:
155,283,28957,1,8,2:2:0:0:
173,301,29069,1,8,2:2:0:0:
180,325,29182,2,0,P|165:353|130:368,1,45,2|0,1:2|0:0,0:0:0:0:
226,230,29406,1,8,2:2:0:0:
395,304,29629,2,0,P|426:236|476:212,1,107.999996704102,10|0,2:2|1:1,0:0:0:0:
290,116,30077,6,0,P|289:156|309:191,2,80.9999975280763,2|2|8,1:2|2:2|2:1,0:0:0:0:
381,136,31644,1,0,1:1:0:0:
203,80,31868,6,0,P|226:42|263:26,1,80.9999975280763,2|2,1:2|2:2,0:0:0:0:
258,27,32988,1,2,3:2:0:0:
48,19,33212,1,10,2:2:0:0:
121,98,33435,1,2,1:2:0:0:
45,132,33659,6,0,P|72:103|111:91,1,80.9999975280763,0|2,1:1|2:2,0:0:0:0:
93,269,34779,1,2,1:2:0:0:
21,218,35003,1,8,2:1:0:0:
250,296,35450,6,0,P|221:323|209:362,1,80.9999975280763,2|0,1:2|3:3,0:0:0:0:
209,362,36570,1,2,3:2:0:0:
123,186,36794,1,10,2:2:0:0:
208,215,37018,1,0,1:1:0:0:
333,97,37241,6,0,L|341:64,8,33.7500012874604,2|0|0|0|2|0|2|0|0,1:2|0:0|0:0|0:0|2:2|0:0|2:2|0:0|0:0,0:0:0:0:
382,162,37913,6,0,P|426:162|458:186,1,80.9999975280763,2|8,2:2|2:1,0:0:0:0:
425,74,38809,1,0,1:1:0:0:
352,246,39032,6,0,P|373:284|368:324,1,80.9999975280763,2|2,1:2|2:2,0:0:0:0:
370,320,40152,1,2,3:2:0:0:
292,176,40376,1,10,2:2:0:0:
382,162,40600,1,2,1:2:0:0:
206,280,40823,5,0,1:1:0:0:
396,157,41719,5,2,1:2:0:0:
321,36,42167,2,0,P|270:74|262:111,1,72,8|0,2:1|1:1,0:0:0:0:
292,176,42503,6,0,P|214:83|135:74,1,161.999995056153,12|0,2:2|1:1,0:0:0:0:
98,13,42950,1,0,0:0:0:0:
98,13,43062,2,0,P|33:40|11:88,1,107.999996704102,8|0,2:2|1:1,0:0:0:0:
111,270,43510,5,10,2:2:0:0:
140,257,43621,1,0,0:0:0:0:
164,235,43733,1,2,3:2:0:0:
177,206,43845,1,8,2:2:0:0:
178,174,43957,1,10,2:2:0:0:
22,270,44182,6,0,P|128:294|168:372,1,188.999994232178,4|0,1:2|0:0,0:0:0:0:
154,379,44629,2,0,P|144:339|129:318,1,62.9999980773926,2|0,2:2|0:0,0:0:0:0:
49,359,44853,1,10,2:2:0:0:
229,291,45077,5,2,2:2:0:0:
243,314,45189,1,0,0:0:0:0:
268,319,45301,2,0,P|281:253|299:202,1,116.999994644165,0|2,1:1|2:2,0:0:0:0:
305,198,45637,1,0,0:0:0:0:
317,192,45749,1,8,2:2:0:0:
102,185,45973,6,0,P|224:144|211:7,1,288,12|0,2:2|0:0,0:0:0:0:
123,12,46532,1,0,0:0:0:0:
113,20,46644,2,0,P|132:66|154:75,3,62.9999980773926,8|0|0|0,2:2|0:0|0:0|0:0,0:0:0:0:
226,98,47092,1,2,1:2:0:0:
49,115,47316,1,8,2:2:0:0:
49,115,47540,1,10,2:2:0:0:
214,300,47764,6,0,P|265:240|400:221,1,202.500007724762,12|0,2:2|0:0,0:0:0:0:
394,231,48212,2,0,P|360:224|328:228,1,62.9999980773926,2|0,2:2|0:0,0:0:0:0:
239,212,48435,1,10,2:2:0:0:
307,376,48659,5,2,2:2:0:0:
330,362,48771,1,0,0:0:0:0:
335,337,48883,2,0,P|269:324|218:306,1,116.999994644165,0|2,1:1|2:2,0:0:0:0:
214,300,49219,1,0,0:0:0:0:
208,288,49331,1,10,2:2:0:0:
375,136,49555,6,0,P|394:264|518:344,1,261.000007965088,12|2,2:2|2:2,0:0:0:0:
495,250,50115,1,0,0:0:0:0:
495,250,50226,2,0,P|449:260|414:290,3,62.9999980773926,8|0|0|0,2:2|0:0|0:0|0:0,0:0:0:0:
416,358,50674,1,0,1:1:0:0:
257,235,50898,2,0,L|277:157,1,62.9999980773926,14|0,2:2|0:0,0:0:0:0:
338,292,51122,2,0,L|358:214,1,62.9999980773926,14|0,2:2|0:0,0:0:0:0:
511,103,51346,6,0,P|433:22|336:25,1,188.999994232178,4|0,1:2|0:0,0:0:0:0:
353,23,51794,1,2,1:2:0:0:
445,173,52018,2,0,P|456:225|477:294,1,125.999996154785,14|2,2:2|3:2,0:0:0:0:
485,301,52353,1,0,3:3:0:0:
493,307,52465,1,0,1:1:0:0:
353,230,52689,1,10,2:2:0:0:
353,230,52913,1,10,2:2:0:0:
163,362,53137,6,0,P|101:290|-14:286,1,188.999994232178,4|0,1:2|0:0,0:0:0:0:
1,285,53585,1,2,1:2:0:0:
123,102,53809,2,0,P|169:142|181:203,1,125.999996154785,10|2,2:2|2:2,0:0:0:0:
247,99,54256,1,8,2:2:0:0:
89,192,54480,1,8,2:2:0:0:
89,192,54704,2,0,L|27:175,1,62.9999980773926,10|0,2:2|0:0,0:0:0:0:
248,281,54928,6,0,B|247:204|326:165|319:209|394:169|395:99,1,251.999992309571,4|0,1:2|0:0,0:0:0:0:
211,0,55600,2,0,P|247:62|312:90,1,125.999996154785,8|0,2:2|0:0,0:0:0:0:
77,126,56047,2,0,P|139:162|210:153,1,125.999996154785,0|0,1:1|0:0,0:0:0:0:
23,302,56495,2,0,P|95:301|152:259,1,125.999996154785,8|0,2:2|0:0,0:0:0:0:
137,274,56943,1,0,1:1:0:0:
303,374,57167,5,14,2:2:0:0:
263,349,57279,1,8,2:2:0:0:
259,305,57391,2,0,P|309:248|405:271,1,125.999996154785,14|0,2:2|3:3,0:0:0:0:
446,345,57838,6,0,P|379:278|403:138,1,216,8|0,2:2|0:0,0:0:0:0:
380,78,58286,1,10,2:2:0:0:
427,56,58398,1,0,3:3:0:0:
473,82,58510,1,2,3:2:0:0:
278,211,58734,6,0,P|252:177|258:132,1,76.5000014591217,4|0,1:2|0:0,0:0:0:0:
176,91,58958,1,2,2:2:0:0:
315,24,59182,1,10,2:2:0:0:
193,238,59406,1,2,2:2:0:0:
0,99,59629,6,0,P|40:162|112:183,1,153.000002918243,2|0,1:2|0:0,0:0:0:0:
123,180,59965,1,0,0:0:0:0:
132,174,60077,1,10,2:2:0:0:
39,343,60301,5,2,2:2:0:0:
0,311,60413,1,0,0:0:0:0:
10,260,60525,1,0,1:1:0:0:
127,348,60749,1,2,2:2:0:0:
252,144,60973,1,10,2:2:0:0:
101,262,61197,1,2,2:2:0:0:
331,384,61421,5,2,1:2:0:0:
312,232,61644,1,10,2:2:0:0:
286,244,61756,1,2,2:2:0:0:
273,269,61868,2,0,P|321:301|349:297,1,76.5000014591217,10|0,2:2|0:0,0:0:0:0:
473,384,62092,2,0,P|435:378|408:352,1,76.5000014591217,2|0,2:2|0:0,0:0:0:0:
465,165,62316,6,0,B|465:115|415:91|419:119|371:93|371:49,1,153.000002918243,2|0,1:2|0:0,0:0:0:0:
374,46,62652,1,0,0:0:0:0:
381,38,62764,1,10,2:2:0:0:
411,232,62988,1,2,2:2:0:0:
175,69,63212,6,0,P|138:75|119:129,1,76.5000014591217,2|0,1:2|0:0,0:0:0:0:
264,151,63435,2,0,P|276:116|239:72,1,76.5000014591217,2|0,2:2|0:0,0:0:0:0:
149,188,63659,2,0,P|173:216|228:205,1,76.5000014591217,10|0,2:2|0:0,0:0:0:0:
0,302,63883,5,0,0:0:0:0:
10,262,63995,1,0,0:0:0:0:
46,249,64107,2,0,P|117:298|122:345,1,90,6|0,1:2|0:0,0:0:0:0:
172,375,64331,2,0,P|215:371|222:336,1,76.5000014591217
251,124,64555,6,0,P|244:209|205:237,1,90,14|0,2:2|0:0,0:0:0:0:
204,296,64779,2,0,P|229:331|262:320,1,76.5000014591217
494,384,65003,6,0,P|386:323|356:141,1,297.000009063721,6|0,1:2|0:0,0:0:0:0:
409,88,65450,5,8,2:2:0:0:
395,59,65561,1,0,0:0:0:0:
374,37,65673,1,0,3:3:0:0:
346,25,65785,1,0,3:3:0:0:
316,25,65898,2,0,P|269:100|151:101,1,153.000002918243,4|0,1:2|0:0,0:0:0:0:
201,112,66234,1,0,0:0:0:0:
194,105,66346,1,10,2:2:0:0:
306,250,66570,1,2,2:2:0:0:
90,133,66794,5,2,1:2:0:0:
226,21,67018,1,2,2:2:0:0:
110,219,67241,1,10,2:2:0:0:
72,225,67352,1,0,0:0:0:0:
37,212,67464,1,2,2:2:0:0:
12,184,67576,1,0,0:0:0:0:
4,147,67688,1,0,1:1:0:0:
170,279,67913,6,0,P|135:294|114:326,1,76.5000014591217,2|0,2:2|0:0,0:0:0:0:
232,162,68137,2,0,P|248:195|245:233,1,76.5000014591217,10|0,2:2|0:0,0:0:0:0:
248,384,68361,2,0,P|308:306|468:333,1,229.500004377365,2|0,2:2|0:0,0:0:0:0:
443,316,68809,1,10,2:2:0:0:
346,202,69032,1,10,2:2:0:0:
502,18,69256,6,0,P|402:18|303:123,1,229.500004377365,12|0,2:2|0:0,0:0:0:0:
308,118,69704,1,2,2:2:0:0:
508,250,69928,1,10,2:2:0:0:
370,380,70152,5,2,2:2:0:0:
332,363,70264,1,0,0:0:0:0:
320,326,70376,2,0,P|343:282|373:270,1,76.5000014591217,2|0,1:2|0:0,0:0:0:0:
184,161,70600,2,0,P|185:198|208:227,1,76.5000014591217,10|0,2:2|0:0,0:0:0:0:
328,333,70823,2,0,P|351:289|381:277,1,76.5000014591217,10|0,2:2|0:0,0:0:0:0:
446,64,71047,6,0,P|398:169|274:191,1,229.500004377365,12|0,2:2|0:0,0:0:0:0:
284,192,71495,1,14,2:2:0:0:
152,0,71719,6,0,P|54:21|32:70,1,153.000002918243,14|0,2:2|3:3,0:0:0:0:
19,150,72055,1,8,2:2:0:0:
19,150,72167,2,0,P|74:144|97:105,1,76.5000014591217,8|0,2:2|0:0,0:0:0:0:
214,140,72391,2,0,P|181:95|136:94,1,76.5000014591217,8|0,2:2|0:0,0:0:0:0:
26,249,72615,5,8,2:2:0:0:
56,272,72726,1,0,0:0:0:0:
82,300,72838,1,8,2:2:0:0:
102,333,72950,1,8,2:2:0:0:
116,369,73062,1,4,1:2:0:0:
307,144,73286,1,2,2:2:0:0:
128,217,73510,1,10,2:2:0:0:
352,332,73734,1,2,2:2:0:0:
229,383,73958,6,0,P|249:316|266:249,1,139.500001064301,2|0,1:2|0:0,0:0:0:0:
464,373,74406,2,0,P|452:339|446:305,1,69.7500005321503,10|0,2:2|0:0,0:0:0:0:
420,122,74629,5,2,2:2:0:0:
464,125,74741,1,0,0:0:0:0:
485,168,74853,1,2,1:2:0:0:
352,332,75077,1,2,2:2:0:0:
215,88,75301,1,10,2:2:0:0:
409,224,75525,1,2,2:2:0:0:
320,172,75749,5,2,1:2:0:0:
140,313,75973,1,8,2:2:0:0:
140,313,76197,2,0,L|155:252,3,60.7500002317429,8|0|0|0,2:2|0:0|0:0|0:0,0:0:0:0:
79,178,76644,5,2,1:2:0:0:
330,259,76868,1,2,2:2:0:0:
40,93,77092,1,10,2:2:0:0:
291,174,77316,1,2,2:2:0:0:
354,98,77540,2,0,P|294:66|232:92,1,139.500001064301,2|0,1:2|0:0,0:0:0:0:
406,178,77988,2,0,P|447:127|434:80,1,69.7500005321503,10|0,2:2|0:0,0:0:0:0:
238,248,78212,5,2,2:2:0:0:
243,292,78323,1,0,0:0:0:0:
280,317,78435,2,0,P|362:271|481:325,1,209.250001596451,2|0,1:2|0:0,0:0:0:0:
480,356,78883,2,0,P|401:241|411:161,1,209.250001596451,10|0,2:2|0:0,0:0:0:0:
488,121,79331,5,2,1:2:0:0:
488,69,79443,1,8,2:2:0:0:
447,40,79555,2,0,P|405:43|380:66,1,69.7500005321503,8|0,2:2|0:0,0:0:0:0:
309,190,79779,2,0,P|267:187|242:164,1,69.7500005321503,10|0,2:2|0:0,0:0:0:0:
83,3,80003,5,8,2:2:0:0:
45,40,80115,1,8,2:2:0:0:
64,89,80226,1,4,1:2:0:0:
295,0,80450,1,2,2:2:0:0:
175,240,80674,1,10,2:2:0:0:
149,57,80898,1,2,2:2:0:0:
226,138,81122,6,0,P|157:144|103:187,1,139.500001064301,2|0,1:2|0:0,0:0:0:0:
296,285,81570,2,0,P|267:229|271:186,1,69.7500005321503,10|0,2:2|0:0,0:0:0:0:
308,86,81794,5,2,2:2:0:0:
360,84,81906,1,0,0:0:0:0:
391,38,82018,1,2,1:2:0:0:
426,289,82241,1,2,2:2:0:0:
501,13,82465,1,10,2:2:0:0:
359,216,82689,1,2,2:2:0:0:
238,142,82913,5,2,1:2:0:0:
30,298,83137,2,0,L|138:326,1,69.7500005321503,8|0,2:2|0:0,0:0:0:0:
8,200,83361,2,0,L|116:228,1,69.7500005321503,8|0,2:2|0:0,0:0:0:0:
189,384,83585,5,8,2:2:0:0:
240,368,83697,1,8,2:2:0:0:
254,311,83809,2,0,P|175:243|192:133,1,209.250001596451,4|0,1:2|0:0,0:0:0:0:
193,138,84256,1,10,2:2:0:0:
332,361,84480,6,0,B|400:359|437:289|396:295|432:221|504:221,1,236.250002253056,12|0,2:2|0:0,0:0:0:0:
512,229,84928,2,0,L|487:321,1,78.7500007510185,10|0,2:2|0:0,0:0:0:0:
357,161,85152,2,0,L|332:253,1,78.7500007510185,10|0,2:2|0:0,0:0:0:0:
202,93,85376,2,0,L|177:185,1,78.7500007510185,4|0,1:2|0:0,0:0:0:0:
42,309,85600,5,0,3:3:0:0:
76,271,85711,1,0,3:3:0:0:
124,287,85823,1,10,2:2:0:0:
159,249,85935,1,8,2:2:0:0:
206,266,86047,1,10,2:2:0:0:
241,228,86159,1,0,3:3:0:0:
289,243,86271,1,10,2:2:0:0:
324,205,86383,1,8,2:2:0:0:
371,221,86495,6,0,P|398:284|375:319,1,78.7500007510185,10|0,2:2|0:0,0:0:0:0:
306,372,86719,1,10,2:2:0:0:
64,198,86943,6,0,P|36:261|59:296,1,78.7500007510185,10|0,2:2|0:0,0:0:0:0:
130,348,87167,1,2,1:2:0:0:
206,266,87391,5,2,2:2:0:0:
