osu file format v14

[General]
AudioFilename: audio.mp3
AudioLeadIn: 0
PreviewTime: 57950
Countdown: 0
SampleSet: Soft
StackLeniency: 0.5
Mode: 0
LetterboxInBreaks: 0
WidescreenStoryboard: 1

[Editor]
Bookmarks: 67150
DistanceSpacing: 1.1
BeatDivisor: 4
GridSize: 8
TimelineZoom: 1.9

[Metadata]
Title:Wayawayawa-! (TV Size)
TitleUnicode:わやわやわー! (TV Size)
Artist:Asaka
ArtistUnicode:亜咲花
Creator:MianYa
Version:Graphical's Insane
Source:道産子ギャルはなまらめんこい
Tags:japanese anime ed ending j-pop jpop pop Ooishi Masayoshi eba 大石昌良 Dosanko Gyaru wa Namaramenkoi Hokkaido Gals Are Super Adorable! __Ag leominexd leomine Graphical iRedi
BeatmapID:4545548
BeatmapSetID:2156286

[Difficulty]
HPDrainRate:5.5
CircleSize:4
OverallDifficulty:7.8
ApproachRate:8.8
SliderMultiplier:2
SliderTickRate:1

[Events]
//Background and Video events
0,0,"BG.jpg",0,0
Video,0,"video.mp4"
//Break Periods
//Storyboard Layer 0 (Background)
//Storyboard Layer 1 (Fail)
//Storyboard Layer 2 (Pass)
//Storyboard Layer 3 (Foreground)
//Storyboard Layer 4 (Overlay)
//Storyboard Sound Samples

[TimingPoints]
1421,447.761194029851,4,2,1,35,1,0
1421,-166.666666666667,4,2,1,35,0,0
6794,-90.9090909090909,4,2,1,35,0,0
7689,-178.571428571429,4,2,1,35,0,0
8585,-200,4,2,1,55,0,0
11943,-133.333333333333,4,2,1,55,0,0
13734,-100,4,2,1,70,0,0
14629,-200,4,2,1,70,0,0
14853,-50,4,2,1,70,0,0
15077,-66.6666666666667,4,2,2,70,0,0
15749,-71.4285714285714,4,2,1,80,0,0
16197,-71.4285714285714,4,2,2,80,0,0
18659,-76.9230769230769,4,2,2,80,0,0
19331,-71.4285714285714,4,2,2,80,0,0
22913,-71.4285714285714,4,2,1,80,0,0
23361,-71.4285714285714,4,2,2,80,0,0
26271,-71.4285714285714,4,2,1,80,0,0
26943,-71.4285714285714,4,2,2,80,0,0
27167,-71.4285714285714,4,2,1,80,0,0
27615,-71.4285714285714,4,2,2,80,0,0
28062,-200,4,2,1,80,0,0
28734,-100,4,2,1,80,0,0
29405,-71.4285714285714,4,2,2,80,0,0
29629,-200,4,2,2,80,0,0
30077,-100,4,2,2,50,0,0
31421,-100,4,2,1,50,0,0
33212,-100,4,2,2,50,0,0
35003,-100,4,2,1,50,0,0
36794,-100,4,2,2,50,0,0
38585,-100,4,2,1,50,0,0
40376,-100,4,2,2,50,0,0
42167,-100,4,2,1,50,0,0
42503,-76.9230769230769,4,2,1,75,0,0
44182,-71.4285714285714,4,2,1,65,0,0
44853,-71.4285714285714,4,2,2,65,0,0
45973,-71.4285714285714,4,2,1,65,0,0
46644,-71.4285714285714,4,2,2,65,0,0
47764,-71.4285714285714,4,2,1,65,0,0
48435,-71.4285714285714,4,2,2,65,0,0
49555,-71.4285714285714,4,2,1,65,0,0
50226,-71.4285714285714,4,2,2,65,0,0
50898,-71.4285714285714,4,2,1,65,0,0
51346,-250,4,2,1,70,0,0
51794,-71.4285714285714,4,2,1,70,0,0
52689,-71.4285714285714,4,2,2,70,0,0
53137,-250,4,2,1,70,0,0
53585,-71.4285714285714,4,2,1,70,0,0
53809,-71.4285714285714,4,2,2,70,0,0
54256,-71.4285714285714,4,2,1,70,0,0
54480,-71.4285714285714,4,2,2,70,0,0
54704,-71.4285714285714,4,2,1,70,0,0
54928,-100,4,2,1,70,0,0
55600,-100,4,2,2,70,0,0
56943,-100,4,2,2,78,0,0
57167,-71.4285714285714,4,2,1,78,0,0
57838,-55.5555555555556,4,2,1,78,0,0
58286,-71.4285714285714,4,2,1,78,0,0
58342,-71.4285714285714,4,2,1,5,0,0
58398,-71.4285714285714,4,2,1,78,0,0
58454,-71.4285714285714,4,2,1,5,0,0
58510,-71.4285714285714,4,2,1,78,0,0
58566,-71.4285714285714,4,2,1,5,0,0
58734,-62.5,4,2,1,85,0,0
61644,-62.5,4,2,2,85,0,0
61868,-62.5,4,2,1,85,0,0
64107,-47.6190476190476,4,2,1,85,0,0
64331,-100,4,2,1,85,0,0
64555,-47.6190476190476,4,2,1,85,0,0
64779,-100,4,2,1,85,0,0
64891,-100,4,2,1,5,0,0
65003,-47.6190476190476,4,2,1,85,0,0
65226,-100,4,2,2,85,0,0
65450,-100,4,2,1,85,0,0
65898,-62.5,4,2,1,85,0,0
68809,-62.5,4,2,2,85,0,0
69032,-62.5,4,2,1,85,0,0
70823,-62.5,4,2,2,85,0,0
71047,-62.5,4,2,1,85,0,0
73062,-71.4285714285714,4,2,1,80,0,0
73510,-71.4285714285714,4,2,2,80,0,0
75973,-66.6666666666667,4,2,2,80,0,0
76644,-71.4285714285714,4,2,2,80,0,0
79443,-55.5555555555556,4,2,1,80,0,0
79555,-55.5555555555556,4,2,2,80,0,0
80003,-62.5,4,2,1,80,0,0
80674,-62.5,4,2,2,80,0,0
82018,-71.4285714285714,4,2,2,80,0,0
83137,-66.6666666666667,4,2,2,80,0,0
83585,-66.6666666666667,4,2,1,80,0,0
83809,-55.5555555555556,4,2,1,80,0,0
84256,-55.5555555555556,4,2,2,80,0,0
84480,-55.5555555555556,4,2,1,80,0,0
85152,-55.5555555555556,4,2,2,80,0,0
85376,-71.4285714285714,4,2,1,80,0,0
86047,-55.5555555555556,4,2,2,80,0,0
86159,-55.5555555555556,4,2,1,80,0,0
86719,-55.5555555555556,4,2,2,80,0,0
86943,-62.5,4,2,1,80,0,0
87391,-55.5555555555556,4,2,1,50,0,0

[Colours]
Combo1 : 26,240,149
Combo2 : 255,244,38
Combo3 : 17,249,255
Combo4 : 255,21,243
SliderBorder : 17,249,255

[HitObjects]
67,317,1421,6,0,B|114:331|146:290|134:271|170:225|221:242,1,179.999994506836,2|2,2:2|2:2,0:0:0:0:
298,323,2316,2,0,B|303:347|332:360|332:360|201:308,1,179.999994506836,2|2,2:2|2:2,0:0:0:0:
419,339,3212,6,0,P|484:278|455:192,1,179.999994506836,2|2,2:2|2:2,0:0:0:0:
405,146,4107,2,0,B|356:156|356:156|344:172|344:172|226:198,1,179.999994506836,2|2,2:2|2:2,0:0:0:0:
79,102,5003,6,0,B|118:70|115:24|115:24|125:70|178:88,1,179.999994506836,2|2,2:2|2:2,0:0:0:0:
134,162,5898,2,0,B|123:193|94:199|94:199|126:213|163:186,1,119.999996337891,2|2,2:2|2:2,0:0:0:0:
308,29,6794,6,0,P|291:82|277:145,1,110.000003356934,2|0,2:2|0:0,0:0:0:0:
401,149,7241,2,0,P|383:204|370:260,1,110.000003356934,2|0,2:2|0:0,0:0:0:0:
256,345,7689,2,0,P|269:288|287:232,1,112.000001367188,2|2,2:2|2:2,0:0:0:0:
286,238,8361,1,0,1:1:0:0:
196,260,8585,6,0,P|146:286|113:281,1,87.5,4|0,1:2|0:0,0:0:0:0:
61,237,9032,2,0,L|68:216,1,12.5,10|0,2:2|0:0,0:0:0:0:
414,87,9928,2,0,L|406:65,1,12.5,10|0,2:2|0:0,0:0:0:0:
252,320,10823,2,0,L|244:298,1,12.5,10|0,2:2|0:0,0:0:0:0:
173,112,11495,5,2,1:2:0:0:
173,112,11719,2,0,L|179:91,1,12.5,10|0,2:2|0:0,0:0:0:0:
248,65,11943,6,0,B|260:54|282:58|282:58|259:13|217:5|181:23,1,150.000005722046,4|2,1:2|1:2,0:0:0:0:
93,186,12615,2,0,L|99:203,1,18.7500007152558,10|0,2:2|0:0,0:0:0:0:
264,317,13062,6,0,L|254:339,1,18.7500007152558,10|0,2:2|0:0,0:0:0:0:
192,376,13286,1,2,1:2:0:0:
144,292,13510,2,0,L|151:314,1,18.7500007152558,10|0,2:2|0:0,0:0:0:0:
216,252,13734,6,0,P|303:228|387:350,1,250,4|0,1:2|0:0,0:0:0:0:
399,356,14406,1,2,1:2:0:0:
490,277,14629,6,0,L|485:264,2,12.5
480,243,14853,1,0,1:1:0:0:
512,350,15077,5,8,2:2:0:0:
433,139,15301,1,8,1:2:0:0:
175,300,15749,5,4,1:2:0:0:
175,300,15973,2,0,P|214:286|255:275,1,69.9999978637696,2|0,2:2|0:0,0:0:0:0:
300,222,16197,1,10,2:2:0:0:
305,226,16421,2,0,P|344:240|384:251,1,69.9999978637696,2|0,2:2|0:0,0:0:0:0:
472,335,16644,2,0,B|475:317|493:307|493:307|443:286|399:318|395:362,1,139.999995727539,2|0,1:2|0:0,0:0:0:0:
191,227,17092,5,10,2:2:0:0:
407,96,17316,1,2,2:2:0:0:
214,0,17540,5,2,1:2:0:0:
214,0,17764,2,0,P|228:39|239:79,1,69.9999978637696,2|0,2:2|0:0,0:0:0:0:
302,124,17988,1,10,2:2:0:0:
302,124,18212,2,0,P|287:163|276:203,1,69.9999978637696,2|0,2:2|0:0,0:0:0:0:
162,271,18435,2,0,B|125:293|119:343|167:369|167:369|186:354|210:351,1,139.999995727539,2|8,1:2|2:2,0:0:0:0:
93,155,18883,1,8,2:2:0:0:
138,172,18995,1,0,0:0:0:0:
182,161,19107,1,0,0:0:0:0:
213,135,19219,1,0,0:0:0:0:
234,102,19331,5,2,1:2:0:0:
234,102,19555,2,0,P|194:87|154:76,1,69.9999978637696,2|0,2:2|0:0,0:0:0:0:
115,23,19779,1,10,2:2:0:0:
115,23,20003,2,0,P|75:37|35:48,1,69.9999978637696,2|0,2:2|0:0,0:0:0:0:
188,168,20226,2,0,B|260:147|234:120|308:99,1,139.999995727539,2|0,1:2|0:0,0:0:0:0:
488,21,20674,6,0,P|473:60|462:100,1,69.9999978637696,8|0,2:2|0:0,0:0:0:0:
391,165,20898,1,0,0:0:0:0:
391,165,21010,1,0,0:0:0:0:
391,165,21122,6,0,P|398:220|500:240,1,139.999995727539,2|0,1:2|0:0,0:0:0:0:
231,328,21570,2,0,P|233:248|308:224,1,139.999995727539,10|0,2:2|0:0,0:0:0:0:
116,73,22018,2,0,P|117:118|159:152,1,69.9999978637696,2|0,1:2|0:0,0:0:0:0:
200,171,22241,5,8,2:2:0:0:
0,338,22465,1,10,2:2:0:0:
16,315,22577,1,0,0:0:0:0:
42,298,22689,1,0,0:0:0:0:
73,292,22801,1,0,0:0:0:0:
114,298,22913,5,4,1:2:0:0:
114,298,23137,2,0,P|125:338|139:377,1,69.9999978637696,2|0,2:2|0:0,0:0:0:0:
210,342,23361,1,10,2:2:0:0:
210,342,23585,2,0,P|198:301|184:262,1,69.9999978637696,2|0,2:2|0:0,0:0:0:0:
328,156,23809,2,0,B|398:181|360:214|441:239,1,139.999995727539,2|0,1:2|0:0,0:0:0:0:
414,64,24256,5,10,2:2:0:0:
224,203,24480,1,2,2:2:0:0:
53,66,24704,5,2,1:2:0:0:
53,66,24928,2,0,P|93:54|132:40,1,69.9999978637696,2|0,2:2|0:0,0:0:0:0:
147,124,25152,1,10,2:2:0:0:
147,124,25376,2,0,P|106:135|67:149,1,69.9999978637696,2|0,2:2|0:0,0:0:0:0:
29,278,25600,2,0,P|54:333|138:344,1,139.999995727539,2|8,1:2|2:2,0:0:0:0:
378,291,26047,2,0,P|351:268|295:263,1,69.9999978637696,8|0,2:2|0:0,0:0:0:0:
209,237,26271,1,8,2:2:0:0:
214,259,26383,1,8,2:2:0:0:
219,278,26495,5,4,1:2:0:0:
129,198,26719,1,2,2:2:0:0:
285,338,26943,1,10,2:2:0:0:
401,133,27167,2,0,B|408:112|436:105|436:105|333:133,1,139.999995727539,14|0,2:2|1:1,0:0:0:0:
190,221,27615,5,10,2:2:0:0:
30,24,27838,1,10,2:2:0:0:
210,247,28062,6,0,L|260:262,1,50,14|0,2:2|1:1,0:0:0:0:
188,150,28734,5,0,1:1:0:0:
166,156,28846,1,0,3:3:0:0:
148,163,28958,1,8,2:2:0:0:
128,169,29070,1,8,2:2:0:0:
108,176,29182,6,0,L|58:191,1,50,2|0,1:2|0:0,0:0:0:0:
7,247,29406,1,8,2:2:0:0:
107,99,29629,6,0,P|101:73|77:51,1,50,10|0,2:2|1:1,0:0:0:0:
22,12,30077,5,2,1:2:0:0:
224,291,31421,2,0,L|231:317,1,25,8|0,2:1|0:0,0:0:0:0:
274,380,31644,1,0,1:1:0:0:
474,219,31868,5,2,1:2:0:0:
359,289,32988,1,2,3:2:0:0:
240,114,33212,5,10,2:2:0:0:
298,167,33435,1,2,1:2:0:0:
85,304,33659,5,0,1:1:0:0:
185,213,34779,1,2,1:2:0:0:
245,259,35003,2,0,L|271:266,1,25,8|0,2:1|0:0,0:0:0:0:
87,120,35450,5,2,1:2:0:0:
0,204,36122,5,0,3:3:0:0:
74,287,36570,5,2,3:2:0:0:
28,352,36794,5,10,2:2:0:0:
176,215,37018,1,0,1:1:0:0:
0,63,37241,5,2,1:2:0:0:
277,248,38585,2,0,L|303:241,1,25,8|0,2:1|0:0,0:0:0:0:
361,193,38809,1,0,1:1:0:0:
512,348,39032,5,2,1:2:0:0:
408,286,40152,1,2,3:2:0:0:
512,119,40376,5,10,2:2:0:0:
463,183,40600,1,2,1:2:0:0:
326,32,40823,5,0,1:1:0:0:
326,32,41719,5,2,1:2:0:0:
267,89,42167,2,0,L|165:116,1,100,8|0,2:1|1:1,0:0:0:0:
105,66,42503,5,12,2:2:0:0:
105,66,42615,1,0,0:0:0:0:
105,66,42726,1,0,0:0:0:0:
105,66,42838,2,0,P|109:34|136:4,1,64.9999970245363,0|0,1:1|0:0,0:0:0:0:
237,179,43062,5,8,2:2:0:0:
159,206,43286,1,0,1:1:0:0:
308,84,43510,5,10,2:2:0:0:
417,267,43846,5,8,2:2:0:0:
410,252,43958,1,10,2:2:0:0:
354,310,44182,6,0,B|273:333|312:359|228:385,1,139.999995727539,4|0,1:2|0:0,0:0:0:0:
90,252,44629,1,2,2:2:0:0:
90,252,44741,1,0,0:0:0:0:
90,252,44853,2,0,P|97:214|109:179,1,69.9999978637696,10|0,2:2|0:0,0:0:0:0:
84,103,45077,6,0,P|9:167|21:200,1,139.999995727539,2|0,2:2|1:1,0:0:0:0:
200,282,45525,1,2,2:2:0:0:
200,282,45637,1,0,0:0:0:0:
200,282,45749,2,0,P|230:252|233:219,1,69.9999978637696,8|0,2:2|0:0,0:0:0:0:
143,348,45973,6,0,P|108:336|72:329,1,69.9999978637696,12|0,2:2|0:0,0:0:0:0:
57,245,46197,1,0,1:1:0:0:
248,197,46421,1,0,0:0:0:0:
275,197,46532,1,0,0:0:0:0:
291,219,46644,1,8,2:2:0:0:
430,346,46868,5,0,0:0:0:0:
430,346,46980,1,0,0:0:0:0:
430,346,47092,1,2,1:2:0:0:
353,382,47316,1,8,2:2:0:0:
487,253,47540,1,10,2:2:0:0:
286,159,47764,6,0,P|267:81|239:1,1,139.999995727539,12|0,2:2|1:1,0:0:0:0:
378,191,48212,1,2,2:2:0:0:
378,191,48323,1,0,0:0:0:0:
378,191,48435,2,0,P|371:153|359:118,1,69.9999978637696,10|0,2:2|0:0,0:0:0:0:
389,46,48659,6,0,B|470:69|431:95|512:120,1,139.999995727539,2|0,2:2|1:1,0:0:0:0:
293,261,49107,1,2,2:2:0:0:
293,261,49219,1,0,0:0:0:0:
293,261,49331,2,0,P|255:268|220:280,1,69.9999978637696,10|0,2:2|0:0,0:0:0:0:
146,241,49555,6,0,B|135:221|118:208|118:208|109:142|173:121,1,139.999995727539,12|0,2:2|1:1,0:0:0:0:
120,322,50003,2,0,P|15:310|-4:257,1,139.999995727539,2|8,2:2|2:2,0:0:0:0:
212,193,50450,5,0,0:0:0:0:
212,193,50562,1,0,0:0:0:0:
212,193,50674,1,0,1:1:0:0:
286,291,50898,5,14,2:2:0:0:
95,184,51122,1,14,2:2:0:0:
272,63,51346,2,0,L|337:80,1,60,4|0,1:2|0:0,0:0:0:0:
391,129,51794,5,2,1:2:0:0:
119,256,52018,1,14,2:2:0:0:
256,192,52241,1,2,3:2:0:0:
201,129,52465,5,0,1:1:0:0:
201,129,52689,1,10,2:2:0:0:
377,259,52913,1,10,2:2:0:0:
220,384,53137,2,0,L|236:323,1,60,4|0,1:2|0:0,0:0:0:0:
315,307,53585,5,2,1:2:0:0:
188,65,53809,1,10,2:2:0:0:
256,192,54032,1,2,2:2:0:0:
335,123,54256,5,8,2:2:0:0:
335,123,54480,1,8,2:2:0:0:
178,269,54704,1,10,2:2:0:0:
256,192,54928,6,0,P|329:220|334:295,1,150,4|0,1:2|0:0,0:0:0:0:
287,343,55376,1,0,0:0:0:0:
73,246,55600,5,8,2:2:0:0:
105,314,55823,1,0,0:0:0:0:
256,192,56047,5,0,1:1:0:0:
224,260,56271,1,0,0:0:0:0:
61,84,56495,5,8,2:2:0:0:
93,152,56719,1,0,0:0:0:0:
223,6,56943,6,0,L|203:73,1,50,0|0,1:1|0:0,0:0:0:0:
259,114,57167,6,0,P|279:106|296:48,1,69.9999978637696,14|8,2:2|2:2,0:0:0:0:
404,15,57391,2,0,P|487:78|464:180,1,209.999993591309,14|0,2:2|0:0,0:0:0:0:
469,260,57838,2,0,B|425:249|425:249|419:243|419:243|371:232,1,89.9999972534181,8|0,2:2|0:0,0:0:0:0:
259,114,58062,5,2,1:2:0:0:
77,306,58286,6,0,L|131:291,1,34.9999989318848,10|0,2:2|0:0,0:0:0:0:
69,317,58398,2,0,L|123:302,1,34.9999989318848,0|0,3:3|0:0,0:0:0:0:
60,329,58510,2,0,L|114:314,1,34.9999989318848,2|0,3:2|0:0,0:0:0:0:
227,341,58734,6,0,B|245:343|266:358|266:358|313:336|319:284|293:249,1,160,4|2,1:2|2:2,0:0:0:0:
199,69,59182,2,0,L|180:146,1,80,10|0,2:2|0:0,0:0:0:0:
163,226,59406,1,2,2:2:0:0:
163,226,59629,2,0,B|207:252|240:212|234:206|231:203|265:161|308:189,1,160,2|0,1:2|0:0,0:0:0:0:
512,354,60077,2,0,L|417:331,1,80,10|0,2:2|0:0,0:0:0:0:
375,269,60301,1,2,2:2:0:0:
375,269,60413,1,0,0:0:0:0:
375,269,60525,1,0,1:1:0:0:
258,355,60749,5,2,2:2:0:0:
481,240,60973,2,0,P|511:156|447:94,1,160,10|2,2:2|2:2,0:0:0:0:
257,224,61421,2,0,P|246:180|280:133,1,80,2|0,1:2|0:0,0:0:0:0:
320,278,61644,1,10,2:2:0:0:
323,303,61756,1,2,2:2:0:0:
311,324,61868,2,0,P|265:307|211:296,1,80,10|0,2:2|0:0,0:0:0:0:
97,138,62092,5,2,2:2:0:0:
97,138,62204,1,0,0:0:0:0:
97,138,62316,2,0,B|93:163|69:174|69:174|183:143,1,160,2|0,1:2|0:0,0:0:0:0:
420,23,62764,2,0,L|328:45,1,80,10|0,2:2|0:0,0:0:0:0:
270,14,62988,1,2,2:2:0:0:
270,14,63212,2,0,P|248:83|312:179,1,160,2|2,1:2|2:2,0:0:0:0:
185,361,63659,2,0,P|149:352|114:298,1,80,10|0,2:2|0:0,0:0:0:0:
53,242,63883,5,0,0:0:0:0:
53,242,63995,1,0,0:0:0:0:
53,242,64107,2,0,B|117:215|79:205|152:176,1,104.999996795654,6|0,1:2|0:0,0:0:0:0:
207,226,64331,2,0,P|197:254|191:288,1,50
411,211,64555,6,0,P|412:165|360:129,1,104.999996795654,14|0,2:2|0:0,0:0:0:0:
309,188,64779,2,0,P|319:216|325:250,1,50
237,126,65003,6,0,P|223:61|203:0,1,104.999996795654,6|0,1:2|0:0,0:0:0:0:
136,0,65226,1,8,2:2:0:0:
307,65,65450,1,8,2:2:0:0:
330,74,65562,1,0,0:0:0:0:
357,72,65674,1,0,3:3:0:0:
380,63,65786,1,0,3:3:0:0:
394,43,65898,6,0,P|463:103|447:179,1,160,4|0,1:2|0:0,0:0:0:0:
282,348,66346,2,0,P|254:325|210:317,1,80,10|0,2:2|0:0,0:0:0:0:
159,261,66570,1,2,2:2:0:0:
159,261,66794,2,0,B|177:185|177:185|204:159|204:159|222:84,1,160,2|2,1:2|2:2,0:0:0:0:
99,319,67241,2,0,P|71:342|27:350,1,80,10|0,2:2|0:0,0:0:0:0:
34,274,67465,1,2,2:2:0:0:
34,274,67577,1,0,0:0:0:0:
34,274,67689,1,0,1:1:0:0:
277,179,67913,5,2,2:2:0:0:
92,37,68137,1,10,2:2:0:0:
277,179,68361,2,0,B|381:221|321:239|440:284,1,160,2|0,2:2|1:1,0:0:0:0:
206,253,68809,6,0,P|162:265|100:289,1,80,10|0,2:2|0:0,0:0:0:0:
376,123,69032,2,0,P|420:111|482:87,1,80,10|0,2:2|0:0,0:0:0:0:
206,253,69256,2,0,P|151:211|175:100,1,160,12|0,2:2|1:1,0:0:0:0:
344,256,69704,5,2,2:2:0:0:
153,374,69928,1,10,2:2:0:0:
220,331,70152,1,2,2:2:0:0:
430,214,70376,5,2,1:2:0:0:
272,115,70600,1,10,2:2:0:0:
430,214,70823,1,10,2:2:0:0:
393,30,71047,6,0,L|342:213,1,160,12|0,2:2|1:1,0:0:0:0:
469,353,71495,6,0,P|420:334|369:319,1,80,14|0,2:2|0:0,0:0:0:0:
174,250,71719,6,0,P|222:268|273:283,1,80,14|0,2:2|0:0,0:0:0:0:
493,119,72055,1,8,2:2:0:0:
493,119,72167,2,0,P|444:137|393:152,1,80,8|0,2:2|0:0,0:0:0:0:
344,203,72391,1,8,2:2:0:0:
194,10,72615,2,0,P|242:28|293:43,1,80,8|0,2:2|0:0,0:0:0:0:
354,85,72838,1,8,2:2:0:0:
367,61,72950,1,8,2:2:0:0:
381,44,73062,5,4,1:2:0:0:
381,44,73286,2,0,P|414:13|462:27,1,69.9999978637696,2|0,2:2|0:0,0:0:0:0:
481,100,73510,1,10,2:2:0:0:
481,100,73734,2,0,P|448:131|400:117,1,69.9999978637696,2|0,2:2|0:0,0:0:0:0:
325,217,73958,2,0,P|381:229|471:264,1,139.999995727539,2|0,1:2|0:0,0:0:0:0:
425,131,74406,5,10,2:2:0:0:
249,300,74629,1,2,2:2:0:0:
91,146,74853,5,2,1:2:0:0:
91,146,75077,2,0,P|107:101|119:55,1,69.9999978637696,2|0,2:2|0:0,0:0:0:0:
194,108,75301,1,10,2:2:0:0:
194,108,75525,2,0,P|177:152|165:198,1,69.9999978637696,2|0,2:2|0:0,0:0:0:0:
127,319,75749,2,0,B|122:300|110:289|110:289|125:256|164:238|200:263,1,139.999995727539,2|8,1:2|2:2,0:0:0:0:
378,350,76197,1,8,2:2:0:0:
411,329,76309,1,0,0:0:0:0:
437,298,76421,1,0,0:0:0:0:
448,254,76532,1,0,0:0:0:0:
431,209,76644,5,2,1:2:0:0:
431,209,76868,2,0,P|385:225|340:238,1,69.9999978637696,2|0,2:2|0:0,0:0:0:0:
301,289,77092,1,10,2:2:0:0:
301,289,77316,2,0,P|255:272|210:259,1,69.9999978637696,2|0,2:2|0:0,0:0:0:0:
104,169,77540,2,0,B|177:148|151:121|226:100,1,139.999995727539,2|0,1:2|0:0,0:0:0:0:
381,39,77988,6,0,P|364:84|351:129,1,69.9999978637696,10|0,2:2|0:0,0:0:0:0:
296,157,78212,1,2,2:2:0:0:
296,157,78323,1,0,0:0:0:0:
296,157,78435,6,0,P|364:160|403:218,1,139.999995727539,2|0,1:2|0:0,0:0:0:0:
311,369,78883,2,0,P|242:365|203:307,1,139.999995727539,10|0,2:2|0:0,0:0:0:0:
388,384,79331,5,2,1:2:0:0:
416,342,79443,1,8,2:2:0:0:
392,306,79555,1,8,2:2:0:0:
214,186,79779,1,10,2:2:0:0:
214,186,80003,5,8,2:2:0:0:
186,144,80115,1,8,2:2:0:0:
210,108,80226,1,4,1:2:0:0:
210,108,80450,6,0,P|255:95|299:78,1,80,2|0,2:2|0:0,0:0:0:0:
443,124,80674,1,10,2:2:0:0:
443,124,80898,2,0,P|397:136|353:153,1,80,2|0,2:2|0:0,0:0:0:0:
250,266,81122,2,0,B|328:293|286:330|375:359,1,160,2|0,1:2|0:0,0:0:0:0:
172,294,81570,5,10,2:2:0:0:
366,147,81794,1,2,2:2:0:0:
120,45,82018,5,2,1:2:0:0:
120,45,82241,2,0,P|136:90|149:135,1,69.9999978637696,2|0,2:2|0:0,0:0:0:0:
213,153,82465,1,10,2:2:0:0:
213,153,82689,2,0,P|225:198|242:242,1,69.9999978637696,2|0,2:2|0:0,0:0:0:0:
156,348,82913,2,0,P|87:342|53:274,1,139.999995727539,2|8,1:2|2:2,0:0:0:0:
238,364,83361,2,0,P|271:338|314:335,1,75.0000028610231,8|0,2:2|0:0,0:0:0:0:
386,329,83585,1,8,2:2:0:0:
381,351,83697,1,8,2:2:0:0:
376,370,83809,5,4,1:2:0:0:
256,258,84032,1,2,2:2:0:0:
438,161,84256,1,10,2:2:0:0:
237,45,84480,2,0,B|228:22|197:14|197:14|340:50,1,179.999994506836,12|0,2:2|1:1,0:0:0:0:
363,220,84928,5,10,2:2:0:0:
512,8,85152,1,10,2:2:0:0:
349,245,85376,6,0,P|310:254|254:272,1,69.9999978637696,4|0,1:2|0:0,0:0:0:0:
217,313,85600,5,0,3:3:0:0:
217,313,85712,1,0,3:3:0:0:
185,288,85823,1,10,2:2:0:0:
174,244,85935,1,8,2:2:0:0:
198,202,86047,1,10,2:2:0:0:
237,165,86159,1,0,3:3:0:0:
236,113,86271,1,10,2:2:0:0:
202,78,86383,1,8,2:2:0:0:
160,60,86495,6,0,L|113:47,1,44.999998626709,10|0,2:2|0:0,0:0:0:0:
304,151,86719,1,10,2:2:0:0:
77,252,86943,6,0,L|186:217,1,80,10|0,2:2|0:0,0:0:0:0:
31,315,87167,1,2,1:2:0:0:
94,363,87391,5,2,2:2:0:0:
