osu file format v14

[General]
AudioFilename: audio.mp3
AudioLeadIn: 0
PreviewTime: 57950
Countdown: 0
SampleSet: Soft
StackLeniency: 0.4
Mode: 0
LetterboxInBreaks: 0
WidescreenStoryboard: 1

[Editor]
DistanceSpacing: 1.1
BeatDivisor: 4
GridSize: 4
TimelineZoom: 1.9

[Metadata]
Title:Wayawayawa-! (TV Size)
TitleUnicode:わやわやわー! (TV Size)
Artist:Asaka
ArtistUnicode:亜咲花
Creator:MianYa
Version:Ag's Hard
Source:道産子ギャルはなまらめんこい
Tags:japanese anime ed ending j-pop jpop pop Ooishi Masayoshi eba 大石昌良 Dosanko Gyaru wa Namaramenkoi Hokkaido Gals Are Super Adorable! __Ag leominexd leomine Graphical iRedi
BeatmapID:4545547
BeatmapSetID:2156286

[Difficulty]
HPDrainRate:4
CircleSize:4
OverallDifficulty:6
ApproachRate:7.5
SliderMultiplier:1.5
SliderTickRate:1

[Events]
//Background and Video events
0,0,"BG.jpg",0,0
Video,0,"video.mp4"
//Break Periods
//Storyboard Layer 0 (Background)
//Storyboard Layer 1 (Fail)
//Storyboard Layer 2 (Pass)
//Storyboard Layer 3 (Foreground)
//Storyboard Layer 4 (Overlay)
//Storyboard Sound Samples

[TimingPoints]
1421,447.761194029851,4,2,1,35,1,0
1421,-125,4,2,1,35,0,0
8585,-100,4,2,1,55,0,0
13734,-100,4,2,1,70,0,0
15077,-100,4,2,2,70,0,0
15749,-83.3333333333333,4,2,1,80,0,0
16197,-83.3333333333333,4,2,2,80,0,0
22913,-83.3333333333333,4,2,1,80,0,0
23361,-83.3333333333333,4,2,2,80,0,0
26271,-83.3333333333333,4,2,1,80,0,0
26943,-83.3333333333333,4,2,2,80,0,0
27167,-83.3333333333333,4,2,1,80,0,0
27615,-83.3333333333333,4,2,2,80,0,0
28062,-83.3333333333333,4,2,1,80,0,0
29406,-83.3333333333333,4,2,2,80,0,0
30077,-111.111111111111,4,2,2,50,0,0
31421,-111.111111111111,4,2,1,50,0,0
33212,-111.111111111111,4,2,2,50,0,0
35003,-111.111111111111,4,2,1,50,0,0
36794,-111.111111111111,4,2,2,50,0,0
38585,-111.111111111111,4,2,1,50,0,0
40376,-111.111111111111,4,2,2,50,0,0
42167,-111.111111111111,4,2,1,50,0,0
42391,-100,4,2,1,50,0,0
42503,-100,4,2,1,75,0,0
44182,-100,4,2,1,65,0,0
44853,-100,4,2,2,65,0,0
45973,-100,4,2,1,65,0,0
46644,-100,4,2,2,65,0,0
47764,-100,4,2,1,65,0,0
48435,-100,4,2,2,65,0,0
49555,-100,4,2,1,65,0,0
50226,-100,4,2,2,65,0,0
50898,-100,4,2,1,65,0,0
51346,-100,4,2,1,70,0,0
52689,-100,4,2,2,70,0,0
53137,-100,4,2,1,70,0,0
53809,-100,4,2,2,70,0,0
54256,-100,4,2,1,70,0,0
54480,-100,4,2,2,70,0,0
54704,-100,4,2,1,70,0,0
55600,-100,4,2,2,70,0,0
56943,-100,4,2,2,78,0,0
57167,-100,4,2,1,78,0,0
58734,-83.3333333333333,4,2,1,85,0,0
61644,-83.3333333333333,4,2,2,85,0,0
61868,-83.3333333333333,4,2,1,85,0,0
65226,-83.3333333333333,4,2,2,85,0,0
65450,-83.3333333333333,4,2,1,85,0,0
68809,-83.3333333333333,4,2,2,85,0,0
69032,-83.3333333333333,4,2,1,85,0,0
70823,-83.3333333333333,4,2,2,85,0,0
71047,-83.3333333333333,4,2,1,85,0,0
73062,-83.3333333333333,4,2,1,80,0,0
73510,-83.3333333333333,4,2,2,80,0,0
79443,-83.3333333333333,4,2,1,80,0,0
79555,-83.3333333333333,4,2,2,80,0,0
80003,-83.3333333333333,4,2,1,80,0,0
80674,-83.3333333333333,4,2,2,80,0,0
83585,-83.3333333333333,4,2,1,80,0,0
84256,-83.3333333333333,4,2,2,80,0,0
84480,-83.3333333333333,4,2,1,80,0,0
85152,-83.3333333333333,4,2,2,80,0,0
85376,-83.3333333333333,4,2,1,80,0,0
86047,-83.3333333333333,4,2,2,80,0,0
86159,-83.3333333333333,4,2,1,80,0,0
86719,-83.3333333333333,4,2,2,80,0,0
86943,-83.3333333333333,4,2,1,80,0,0
87390,-166.666666666667,4,2,1,50,0,0

[Colours]
Combo1 : 26,240,149
Combo2 : 255,244,38
Combo3 : 17,249,255
Combo4 : 255,21,243
SliderBorder : 17,249,255

[HitObjects]
150,316,1421,6,0,P|105:306|93:278,1,60,2|2,2:2|2:2,0:0:0:0:
134,221,1868,2,0,P|179:231|191:259,1,60,2|2,2:2|2:2,0:0:0:0:
232,310,2316,2,0,P|255:279|341:306,1,120,2|2,2:2|2:2,0:0:0:0:
380,354,2988,1,2,2:2:0:0:
397,187,3435,6,0,P|432:181|450:157,2,60,2|2|2,2:2|2:2|2:2,0:0:0:0:
320,151,4107,1,2,2:2:0:0:
251,199,4331,1,2,2:2:0:0:
246,211,4443,1,2,2:2:0:0:
242,223,4555,2,0,P|193:218|165:237,1,60,2|2,2:2|2:2,0:0:0:0:
114,268,5003,6,0,B|99:232|99:232|109:193|109:193|96:144,1,120,2|2,2:2|2:2,0:0:0:0:
74,72,5674,1,2,2:2:0:0:
158,73,5898,2,0,P|181:53|214:53,1,60,2|2,2:2|2:2,0:0:0:0:
240,130,6346,2,0,P|217:150|184:150,1,60,2|2,2:2|2:2,0:0:0:0:
98,153,6794,6,0,L|33:177,1,60,2|0,2:2|0:0,0:0:0:0:
75,250,7241,2,0,L|140:226,1,60,2|0,2:2|0:0,0:0:0:0:
215,226,7689,2,0,B|226:265|226:265|190:304|215:358,1,120,2|2,2:2|2:2,0:0:0:0:
290,323,8361,1,0,1:1:0:0:
325,240,8585,6,0,L|477:222,1,150,4|10,1:2|2:2,0:0:0:0:
502,136,9256,1,2,2:2:0:0:
430,81,9480,2,0,L|404:169,1,75,2|2,2:2|2:2,0:0:0:0:
318,154,9928,2,0,L|344:66,1,75,10|2,2:2|2:2,0:0:0:0:
339,82,10600,5,2,2:2:0:0:
250,68,10823,2,0,P|215:43|167:49,1,75,10|2,2:2|2:2,0:0:0:0:
184,42,11495,1,2,1:2:0:0:
94,29,11719,1,10,2:2:0:0:
115,116,11943,2,0,B|146:175|82:181|125:272,1,150,4|2,1:2|1:2,0:0:0:0:
196,217,12615,6,0,P|240:216|272:246,1,75,10|2,2:2|2:2,0:0:0:0:
305,313,13062,1,10,2:2:0:0:
393,296,13286,1,2,1:2:0:0:
353,215,13510,1,10,2:2:0:0:
305,313,13734,6,0,L|140:353,1,150,4|2,1:2|2:2,0:0:0:0:
79,331,14406,1,2,1:2:0:0:
79,331,14518,1,0,0:0:0:0:
79,331,14629,2,0,P|79:355|85:379,2,37.5,0|0|0,0:0|0:0|1:1,0:0:0:0:
127,254,15077,1,8,2:2:0:0:
35,214,15301,1,8,1:2:0:0:
35,214,15749,5,4,1:2:0:0:
0,119,15973,1,2,2:2:0:0:
95,83,16197,1,10,2:2:0:0:
133,174,16421,1,2,2:2:0:0:
224,137,16644,2,0,B|230:204|230:204|214:236|214:236|232:339,1,179.999994506836,2|10,1:2|2:2,0:0:0:0:
318,270,17316,1,2,2:2:0:0:
378,368,17540,5,2,1:2:0:0:
415,276,17764,1,2,2:2:0:0:
318,270,17988,2,0,L|327:175,1,89.999997253418,10|2,2:2|2:2,0:0:0:0:
339,82,18435,2,0,P|399:80|421:49,2,89.999997253418,2|8|8,1:2|2:2|2:2,0:0:0:0:
246,45,19107,1,0,0:0:0:0:
164,128,19331,5,2,1:2:0:0:
149,30,19555,1,2,2:2:0:0:
246,45,19779,2,0,B|239:75|239:75|252:100|252:100|248:137,1,89.999997253418,10|2,2:2|2:2,0:0:0:0:
202,218,20226,2,0,P|229:171|316:228,1,179.999994506836,2|8,1:2|2:2,0:0:0:0:
263,325,20898,1,0,0:0:0:0:
263,325,21010,1,0,0:0:0:0:
263,325,21122,6,0,B|218:295|218:295|166:302|166:302|90:252,1,179.999994506836,2|10,1:2|2:2,0:0:0:0:
7,238,21794,1,0,0:0:0:0:
94,161,22018,1,2,1:2:0:0:
104,261,22241,1,8,2:2:0:0:
7,238,22465,1,10,2:2:0:0:
81,150,22689,1,0,0:0:0:0:
81,150,22801,1,0,0:0:0:0:
81,150,22913,6,0,P|59:92|70:53,1,89.9999972534181,4|2,1:2|2:2,0:0:0:0:
158,87,23361,1,10,2:2:0:0:
233,23,23585,1,2,2:2:0:0:
249,120,23809,6,0,P|295:149|391:70,1,179.999994506836,2|10,1:2|2:2,0:0:0:0:
452,12,24480,1,2,2:2:0:0:
481,125,24704,5,2,1:2:0:0:
389,88,24928,1,2,2:2:0:0:
413,184,25152,2,0,L|435:289,1,89.9999972534181,10|2,2:2|2:2,0:0:0:0:
364,345,25600,2,0,P|411:373|459:364,2,89.9999972534181,2|8|8,1:2|2:2|2:2,0:0:0:0:
320,237,26271,1,8,2:2:0:0:
305,234,26383,1,8,2:2:0:0:
290,239,26495,6,0,P|243:271|224:330,1,89.9999972534181,4|2,1:2|2:2,0:0:0:0:
138,341,26943,1,10,2:2:0:0:
92,252,27167,2,0,P|50:258|6:213,1,89.9999972534181,14|0,2:2|1:1,0:0:0:0:
84,137,27615,1,10,2:2:0:0:
92,252,27838,1,10,2:2:0:0:
183,184,28062,5,14,2:2:0:0:
374,94,28734,1,0,1:1:0:0:
374,94,28846,1,0,3:3:0:0:
374,94,28958,2,0,L|396:46,2,44.999998626709,8|8|2,2:2|2:2|1:2,0:0:0:0:
386,192,29406,1,8,2:2:0:0:
462,128,29629,2,0,L|499:225,1,89.9999972534181,10|0,2:2|1:1,0:0:0:0:
435,290,30077,5,2,1:2:0:0:
214,258,30749,2,0,P|180:277|141:202,1,134.999995880127,2|2,2:2|2:2,0:0:0:0:
179,144,31421,1,8,2:1:0:0:
247,187,31644,5,0,1:1:0:0:
324,162,31868,2,0,B|328:201|328:201|301:248|301:248|311:313,1,134.999995880127,2|0,1:2|0:0,0:0:0:0:
324,368,32540,1,2,2:2:0:0:
165,335,32988,2,0,L|183:260,1,67.4999979400635,2|10,3:2|2:2,0:0:0:0:
115,220,33435,5,2,1:2:0:0:
84,295,33659,2,0,P|41:288|45:201,1,134.999995880127,0|2,1:1|2:2,0:0:0:0:
115,220,34331,1,2,2:2:0:0:
188,75,34779,2,0,L|212:158,1,67.4999979400635,2|8,1:2|2:1,0:0:0:0:
265,291,35450,5,2,1:2:0:0:
448,130,36122,2,0,P|449:79|371:98,1,134.999995880127,0|2,3:3|3:2,0:0:0:0:
368,158,36794,1,10,2:2:0:0:
352,237,37018,5,0,1:1:0:0:
290,184,37241,1,2,1:2:0:0:
64,95,37913,2,0,L|217:69,1,134.999995880127,2|2,2:2|2:2,0:0:0:0:
242,139,38585,1,8,2:1:0:0:
278,66,38809,5,0,1:1:0:0:
197,72,39032,1,2,1:2:0:0:
358,253,39704,2,0,B|333:358|333:358|303:331,1,134.999995880127,2|2,2:2|3:2,0:0:0:0:
260,277,40376,6,0,L|210:273,3,33.7499989700318,10|2|2|2,2:2|2:2|1:2|2:2,0:0:0:0:
204,273,40823,2,0,L|119:271,1,67.4999979400635,0|2,1:1|2:2,0:0:0:0:
271,127,41719,1,2,1:2:0:0:
106,156,42167,1,8,2:1:0:0:
147,235,42391,5,0,1:1:0:0:
147,235,42503,2,0,P|188:251|234:185,1,112.5,12|0,2:2|1:1,0:0:0:0:
271,127,43062,1,8,2:2:0:0:
359,114,43286,1,0,1:1:0:0:
427,187,43510,1,10,2:2:0:0:
427,187,43622,1,8,0:0:0:0:
427,187,43734,2,0,L|450:138,2,37.5,2|8|10,3:2|2:2|2:2,0:0:0:0:
437,279,44182,6,0,P|378:259|317:332,1,150,4|2,1:2|2:2,0:0:0:0:
243,358,44853,1,10,2:2:0:0:
198,279,45077,2,0,P|223:268|254:271,2,37.5,2|0|0,2:2|0:0|1:1,0:0:0:0:
156,359,45525,2,0,P|127:340|111:287,1,75,2|8,2:2|2:2,0:0:0:0:
43,222,45973,6,0,L|72:139,1,75,12|0,2:2|1:1,0:0:0:0:
102,67,46421,1,0,0:0:0:0:
160,134,46644,2,0,P|191:144|237:132,1,75,8|0,2:2|0:0,0:0:0:0:
309,88,47092,1,2,1:2:0:0:
340,172,47316,2,0,P|376:169|415:186,1,75,8|10,2:2|2:2,0:0:0:0:
421,288,47764,6,0,P|334:308|293:263,1,150,12|2,2:2|2:2,0:0:0:0:
209,244,48435,1,10,2:2:0:0:
184,332,48659,1,2,2:2:0:0:
170,338,48771,1,0,0:0:0:0:
155,336,48883,1,0,1:1:0:0:
95,268,49107,2,0,P|83:306|51:328,1,75,2|10,2:2|2:2,0:0:0:0:
22,225,49555,6,0,P|66:190|156:206,1,150,12|2,2:2|2:2,0:0:0:0:
216,269,50226,1,8,2:2:0:0:
303,247,50450,2,0,L|294:306,2,37.5,0|0|0,0:0|0:0|1:1,0:0:0:0:
383,207,50898,1,14,2:2:0:0:
338,129,51122,1,14,2:2:0:0:
446,93,51346,6,0,B|430:156|500:164|448:266,1,150,4|2,1:2|1:2,0:0:0:0:
362,287,52018,2,0,P|326:263|403:227,1,150,14|0,2:2|1:1,0:0:0:0:
460,237,52689,1,10,2:2:0:0:
444,325,52913,1,10,2:2:0:0:
362,287,53137,6,0,B|319:260|263:333|206:266,1,150,4|2,1:2|1:2,0:0:0:0:
208,164,53809,2,0,P|257:182|254:223,1,75,10|2,2:2|2:2,0:0:0:0:
218,278,54256,1,8,2:2:0:0:
140,232,54480,1,8,2:2:0:0:
93,309,54704,1,10,2:2:0:0:
45,203,54928,6,0,B|71:167|71:167|19:112|57:37,1,150,4|0,1:2|0:0,0:0:0:0:
131,93,55600,2,0,P|172:91|200:64,1,75,8|0,2:2|0:0,0:0:0:0:
282,41,56047,2,0,B|286:56|286:56|281:97|281:97|293:126,1,75,0|0,1:1|0:0,0:0:0:0:
374,89,56495,2,0,P|426:75|456:89,2,75,8|0|0,2:2|0:0|1:1,0:0:0:0:
356,193,57167,5,14,2:2:0:0:
287,113,57391,2,0,L|209:111,1,75,14|0,2:2|3:3,0:0:0:0:
136,161,57838,2,0,P|119:118|126:83,2,75,8|2|10,2:2|1:2|2:2,0:0:0:0:
217,198,58510,1,2,3:2:0:0:
333,143,58734,5,4,1:2:0:0:
310,239,58958,1,2,2:2:0:0:
217,198,59182,2,0,P|188:240|137:247,1,89.9999972534181,10|2,2:2|2:2,0:0:0:0:
55,227,59629,2,0,P|35:139|106:79,1,179.999994506836,2|10,1:2|2:2,0:0:0:0:
199,102,60301,1,2,2:2:0:0:
199,102,60413,1,0,0:0:0:0:
199,102,60525,1,0,1:1:0:0:
255,9,60749,5,2,2:2:0:0:
283,104,60973,2,0,L|307:203,1,89.9999972534181,10|2,2:2|2:2,0:0:0:0:
403,185,61421,1,2,1:2:0:0:
347,266,61644,1,10,2:2:0:0:
336,274,61756,1,2,2:2:0:0:
325,281,61868,1,10,2:2:0:0:
367,370,62092,1,2,2:2:0:0:
424,275,62316,6,0,B|429:175|501:236|512:107,1,179.999994506836,2|10,1:2|2:2,0:0:0:0:
464,37,62988,1,2,2:2:0:0:
422,126,63212,1,2,1:2:0:0:
353,55,63435,1,2,2:2:0:0:
300,140,63659,2,0,P|250:122|203:138,1,89.9999972534181,10|0,2:2|0:0,0:0:0:0:
128,224,64107,6,0,P|104:198|106:130,1,89.9999972534181,6|0,1:2|0:0,0:0:0:0:
252,212,64555,2,0,P|248:270|222:295,1,89.9999972534181,14|0,2:2|0:0,0:0:0:0:
141,358,65003,1,6,1:2:0:0:
227,291,65226,1,8,2:2:0:0:
268,382,65450,2,0,L|367:375,1,89.9999972534181,8|0,2:2|3:3,0:0:0:0:
455,308,65898,6,0,P|409:315|418:213,1,179.999994506836,4|10,1:2|2:2,0:0:0:0:
452,127,66570,1,2,2:2:0:0:
340,43,66794,1,2,1:2:0:0:
438,31,67018,1,2,2:2:0:0:
452,127,67241,1,10,2:2:0:0:
353,141,67465,1,2,2:2:0:0:
353,141,67577,1,0,0:0:0:0:
353,141,67689,1,0,1:1:0:0:
254,149,67913,6,0,L|149:161,2,89.9999972534181,2|10|2,2:2|2:2|2:2,0:0:0:0:
353,141,68585,1,0,1:1:0:0:
388,267,68809,1,10,2:2:0:0:
443,185,69032,1,10,2:2:0:0:
353,141,69256,2,0,L|299:223,1,89.9999972534181,12|0,2:2|1:1,0:0:0:0:
238,291,69704,5,2,2:2:0:0:
182,209,69928,2,0,P|133:188|89:206,1,89.9999972534181,10|2,2:2|2:2,0:0:0:0:
0,278,70376,1,2,1:2:0:0:
113,318,70600,1,10,2:2:0:0:
99,197,70823,1,10,2:2:0:0:
89,83,71047,6,0,P|148:106|218:26,1,179.999994506836,12|14,2:2|2:2,0:0:0:0:
298,87,71719,2,0,P|346:89|375:129,1,89.9999972534181,14|0,2:2|3:3,0:0:0:0:
379,150,72055,1,8,2:2:0:0:
379,150,72167,1,8,2:2:0:0:
429,235,72391,1,8,2:2:0:0:
486,154,72615,1,8,2:2:0:0:
379,150,72838,2,0,L|348:197,1,44.999998626709,8|8,2:2|2:2,0:0:0:0:
338,234,73062,6,0,P|301:196|257:198,1,89.9999972534181,4|2,1:2|2:2,0:0:0:0:
182,248,73510,1,10,2:2:0:0:
126,165,73734,1,2,2:2:0:0:
78,251,73958,2,0,P|25:266|29:171,1,179.999994506836,2|10,1:2|2:2,0:0:0:0:
126,165,74629,1,2,2:2:0:0:
155,48,74853,5,2,1:2:0:0:
207,132,75077,1,2,2:2:0:0:
271,57,75301,1,10,2:2:0:0:
317,144,75525,1,2,2:2:0:0:
393,81,75749,2,0,L|431:-2,2,89.9999972534181,2|8|8,1:2|2:2|2:2,0:0:0:0:
425,174,76421,1,0,0:0:0:0:
313,229,76644,5,2,1:2:0:0:
406,262,76868,1,2,2:2:0:0:
375,356,77092,2,0,P|327:375|282:363,1,89.9999972534181,10|2,2:2|2:2,0:0:0:0:
236,284,77540,2,0,P|266:347|178:355,1,179.999994506836,2|10,1:2|2:2,0:0:0:0:
104,299,78212,1,2,2:2:0:0:
136,186,78435,6,0,L|108:70,1,89.9999972534181,2|0,1:2|0:0,0:0:0:0:
212,77,78883,2,0,L|240:193,1,89.9999972534181,10|0,2:2|0:0,0:0:0:0:
326,197,79331,1,2,1:2:0:0:
343,201,79443,1,8,2:2:0:0:
359,195,79555,1,8,2:2:0:0:
435,131,79779,1,10,2:2:0:0:
477,220,80003,2,0,L|468:279,1,44.999998626709,8|8,2:2|2:2,0:0:0:0:
459,313,80226,6,0,P|412:294|369:311,1,89.9999972534181,4|2,1:2|2:2,0:0:0:0:
296,364,80674,1,10,2:2:0:0:
240,281,80898,1,2,2:2:0:0:
184,198,81122,2,0,B|153:253|153:253|159:302|159:302|112:368,1,179.999994506836,2|10,1:2|2:2,0:0:0:0:
39,299,81794,1,2,2:2:0:0:
2,177,82018,5,2,1:2:0:0:
101,179,82241,1,2,2:2:0:0:
122,82,82465,2,0,P|172:96|192:135,1,89.9999972534181,10|2,2:2|2:2,0:0:0:0:
254,202,82913,2,0,P|216:226|167:218,2,89.9999972534181,2|8|8,1:2|2:2|2:2,0:0:0:0:
313,98,83585,1,8,2:2:0:0:
313,98,83697,1,8,2:2:0:0:
313,98,83809,6,0,P|352:130|361:178,1,89.9999972534181,4|2,1:2|2:2,0:0:0:0:
444,221,84256,1,10,2:2:0:0:
375,292,84480,2,0,P|300:266|261:362,1,179.999994506836,12|10,2:2|2:2,0:0:0:0:
161,375,85152,1,10,2:2:0:0:
87,308,85376,1,4,1:2:0:0:
185,236,85600,6,0,L|195:187,3,44.999998626709,0|0|10|8,3:3|3:3|2:2|2:2,0:0:0:0:
193,150,86047,2,0,L|183:101,3,44.999998626709,10|0|10|8,2:2|3:3|2:2|2:2,0:0:0:0:
176,56,86495,2,0,P|235:59|272:24,1,89.9999972534181,10|10,2:2|2:2,0:0:0:0:
353,12,86943,1,10,2:2:0:0:
416,87,87167,1,2,1:2:0:0:
332,140,87391,6,0,B|297:192|380:247|327:303|327:303|347:284|323:235,1,224.999993133545,2|0,2:2|0:0,0:0:0:0:
