osu file format v14

[General]
AudioFilename: audio.mp3
AudioLeadIn: 0
PreviewTime: 13803
Countdown: 0
SampleSet: Soft
StackLeniency: 0.7
Mode: 0
LetterboxInBreaks: 0
WidescreenStoryboard: 1

[Editor]
DistanceSpacing: 0.6
BeatDivisor: 12
GridSize: 32
TimelineZoom: 2.899999

[Metadata]
Title:The Sunshower (TV Size)
TitleUnicode:The Sunshower (TV Size)
Artist:Asaka
ArtistUnicode:亜咲花
Creator:hypercyte
Version:Iceluin's Comfy Hard
Source:Heya CampΔ
Tags:へやキャン△ heyakyanΔ ゆるキャン△ yurucamp yuru camp yurukyan laid-back camp tent japanese anime hypercute iceluin its comfy time
BeatmapID:2279148
BeatmapSetID:1090219

[Difficulty]
HPDrainRate:5
CircleSize:4
OverallDifficulty:6
ApproachRate:7
SliderMultiplier:1.7
SliderTickRate:1

[Events]
//Background and Video events
0,0,"so sorry chiaki i had to cut you out.jpg",0,0
//Break Periods
//Storyboard Layer 0 (Background)
//Storyboard Layer 1 (Fail)
//Storyboard Layer 2 (Pass)
//Storyboard Layer 3 (Foreground)
//Storyboard Layer 4 (Overlay)
//Storyboard Sound Samples

[TimingPoints]
-2448,697.674418604651,4,2,4,40,1,0
1738,727.272727272727,4,2,4,44,1,0
1738,-181.818181818182,4,2,4,44,0,0
2465,705.882352941176,4,2,4,54,1,0
2465,-66.6666666666667,4,2,4,54,0,0
25112,-66.6666666666667,4,2,4,24,0,0
30347,-71.4285714285714,4,2,4,5,0,0

[Colours]
Combo1 : 236,225,151
Combo2 : 137,173,226
Combo3 : 247,185,217

[HitObjects]
97,116,226,5,0,0:0:0:0:
97,116,342,2,0,L|157:105,1,56.6666666666667,2|0,0:0|0:0,0:0:0:0:
209,35,691,2,0,L|204:7,2,28.3333333333333,0|0|0,0:0|0:0|0:0,0:0:0:0:
284,85,1040,2,0,P|304:121|302:163,1,85,2|0,0:0|0:0,0:0:0:0:
228,259,1738,6,0,P|251:257|274:264,1,46.7500014266968,2|0,0:0|0:0,0:0:0:0:
346,361,2465,6,0,B|329:329|339:296|358:312|371:269|352:239,1,127.500004863739,14|0,0:0|0:0,0:0:0:0:
301,163,2994,1,0,0:0:0:0:
367,102,3170,2,0,P|429:89|485:117,1,127.500004863739,8|0,0:1|0:0,0:0:0:0:
470,254,3700,1,8,0:0:0:0:
470,254,3876,2,0,P|408:267|352:239,1,127.500004863739,10|0,0:0|0:0,0:0:0:0:
301,163,4406,1,2,0:0:0:0:
192,274,4582,1,8,0:1:0:0:
192,274,4935,6,0,B|180:241|199:211|199:211|180:178|192:146,1,127.500004863739,14|0,0:0|0:0,0:0:0:0:
251,90,5464,1,0,0:0:0:0:
196,30,5641,2,0,P|165:24|134:30,1,63.7500024318696,0|0,0:0|0:0,0:0:0:0:
69,144,5994,2,0,B|100:126|133:137|116:155|159:168|190:150,1,127.500004863739,8|0,0:1|0:0,0:0:0:0:
251,90,6523,1,8,0:0:0:0:
300,162,6700,2,0,P|325:220|308:280,1,127.500004863739,10|0,0:0|0:0,0:0:0:0:
234,334,7229,1,10,0:0:0:0:
109,252,7406,1,8,0:1:0:0:
109,252,7759,6,0,L|234:232,1,127.500004863739,14|0,0:0|0:0,0:0:0:0:
308,279,8288,1,0,0:0:0:0:
362,203,8464,2,0,L|352:140,1,63.7500024318696,2|0,0:0|0:0,0:0:0:0:
224,39,8817,1,8,0:1:0:0:
224,39,9170,6,0,P|169:70|108:59,1,127.500004863739,14|0,0:0|0:0,0:0:0:0:
30,22,9700,1,0,0:0:0:0:
0,101,9876,2,0,L|9:163,1,63.7500024318696,2|0,0:0|0:0,0:0:0:0:
100,160,10229,2,0,L|90:222,1,63.7500024318696,8|0,0:1|0:0,0:0:0:0:
0,335,10582,6,0,B|43:327|43:327|76:337|76:337|124:329,1,127.500004863739,14|0,0:0|0:0,0:0:0:0:
206,368,11112,1,0,0:0:0:0:
274,307,11288,2,0,P|279:275|273:244,1,63.7500024318696,2|0,0:0|0:0,0:0:0:0:
170,168,11641,6,0,B|202:185|235:175|219:156|262:143|290:160,1,127.500004863739,10|2,0:1|0:0,0:0:0:0:
369,201,12170,1,8,0:0:0:0:
445,153,12347,2,0,P|450:121|445:90,1,63.7500024318696,10|8,0:0|0:1,0:0:0:0:
376,30,12700,1,2,0:0:0:0:
300,82,12876,1,8,0:0:0:0:
152,12,13053,5,8,0:1:0:0:
152,12,13406,1,8,0:1:0:0:
77,66,13582,1,8,0:1:0:0:
103,155,13759,2,0,B|136:182|136:182|226:158,1,127.500004863739,10|2,0:0|0:0,0:0:0:0:
293,207,14288,1,0,0:0:0:0:
420,114,14464,1,8,0:1:0:0:
420,114,14817,6,0,L|429:176,1,63.7500024318696,0|8,0:0|0:0,0:0:0:0:
504,274,15170,2,0,P|443:259|388:288,1,127.500004863739,10|0,0:0|0:0,0:0:0:0:
319,343,15700,2,0,P|264:372|203:357,1,127.500004863739,2|0,0:0|0:0,0:0:0:0:
118,246,16229,6,0,P|172:216|233:231,1,127.500004863739,14|0,0:0|0:0,0:0:0:0:
314,257,16759,1,0,0:0:0:0:
367,186,16935,2,0,L|357:123,1,63.7500024318696,0|0,0:0|0:0,0:0:0:0:
455,48,17288,6,0,B|424:66|391:55|408:37|365:24|334:42,1,127.500004863739,8|2,0:1|0:0,0:0:0:0:
252,8,17817,1,8,0:0:0:0:
208,84,17994,2,0,L|228:209,1,127.500004863739,10|0,0:0|0:0,0:0:0:0:
182,287,18523,1,10,0:0:0:0:
28,199,18700,1,8,0:1:0:0:
28,199,19053,6,0,P|82:169|143:184,1,127.500004863739,14|0,0:0|0:0,0:0:0:0:
228,209,19582,1,0,0:0:0:0:
307,166,19759,2,0,L|296:102,1,63.7500024318696,2|0,0:0|0:0,0:0:0:0:
228,209,20112,2,0,L|238:271,1,63.7500024318696,8|0,0:1|0:0,0:0:0:0:
332,362,20464,6,0,B|284:354|284:354|251:364|251:364|208:356,1,127.500004863739,14|0,0:0|0:0,0:0:0:0:
129,381,20994,1,0,0:0:0:0:
60,326,21170,2,0,P|52:295|58:263,1,63.7500024318696,2|0,0:0|0:0,0:0:0:0:
124,122,21523,1,8,0:1:0:0:
124,122,21876,6,0,B|121:142|143:150|143:150|239:133,1,127.500004863739,10|0,0:0|0:0,0:0:0:0:
297,79,22406,1,0,0:0:0:0:
367,131,22582,2,0,L|376:193,1,63.7500024318696,2|0,0:0|0:0,0:0:0:0:
425,272,22935,2,0,L|362:282,1,63.7500024318696,14|0,0:1|0:0,0:0:0:0:
283,328,23288,2,0,L|273:265,1,63.7500024318696,2|8,0:0|0:0,0:0:0:0:
376,194,23641,6,0,B|345:212|302:199|319:181|286:170|255:188,1,127.500004863739,10|10,0:0|0:0,0:0:0:0:
177,226,24170,1,8,0:0:0:0:
72,96,24347,1,8,0:1:0:0:
72,96,24700,1,8,0:0:0:0:
140,39,24876,2,0,L|202:49,1,63.7500024318696,8|14,0:0|0:0,0:0:0:0:
256,192,25229,12,0,30347,0:0:0:0:
