osu file format v14

[General]
AudioFilename: audio.mp3
AudioLeadIn: 0
PreviewTime: 1738
Countdown: 0
SampleSet: Soft
StackLeniency: 0.7
Mode: 3
LetterboxInBreaks: 0
SpecialStyle: 0
WidescreenStoryboard: 0

[Editor]
DistanceSpacing: 1.1
BeatDivisor: 4
GridSize: 16
TimelineZoom: 0.6999999

[Metadata]
Title:The Sunshower (TV Size)
TitleUnicode:The Sunshower (TV Size)
Artist:Asaka
ArtistUnicode:亜咲花
Creator:Yui Funami
Version:Normal
Source:へやキャン△
Tags:Antipole DoctorTetraVoid Symmatrix- heyakyan HEYACAMP Heya CampΔ ゆるキャン△ yurukyan YURUCAMP Yuru Camp Laid-Back Camp japanese English anime pop jpop j-pop USSW-0229 MAGES. Inc. 佐々木恵梨 Sasaki Eri 中村ヒロ Nakamura Hero Nakamura Hiroshi DAIKANYAMA MAGES. STUDIO 井口隼人 Iguchi Hayato ML-ysg
BeatmapID:3771958
BeatmapSetID:1837038

[Difficulty]
HPDrainRate:7
CircleSize:4
OverallDifficulty:7
ApproachRate:5
SliderMultiplier:1.4
SliderTickRate:1

[Events]
//Background and Video events
0,0,"thumb-1920-899474.jpg",0,0
//Break Periods
//Storyboard Layer 0 (Background)
//Storyboard Layer 1 (Fail)
//Storyboard Layer 2 (Pass)
//Storyboard Layer 3 (Foreground)
//Storyboard Layer 4 (Overlay)
//Storyboard Sound Samples

[TimingPoints]
342,697.674418604651,4,2,1,50,1,0
342,-101.010101010101,4,2,1,50,0,0
1738,727.272727272727,4,2,1,50,1,0
1738,-97.0873786407767,4,2,1,50,0,0
2465,705.882352941176,4,2,1,50,1,0

[HitObjects]
448,192,342,128,0,690:0:0:0:0:
320,192,690,1,0,0:0:0:0:
192,192,865,1,0,0:0:0:0:
64,192,1039,128,0,1388:0:0:0:0:
320,192,1388,1,0,0:0:0:0:
448,192,1738,128,0,2101:0:0:0:0:
320,192,2101,128,0,2465:0:0:0:0:
192,192,2465,128,4,2817:0:0:0:0:
64,192,2465,1,2,0:0:0:0:
448,192,2817,128,0,3170:0:0:0:50:Ride.wav
64,192,3170,1,0,0:0:0:50:Ride.wav
320,192,3170,1,8,0:0:0:0:
192,192,3523,1,0,0:0:0:50:Ride.wav
448,192,3700,1,2,0:0:0:0:
64,192,3876,128,2,4406:0:0:0:0:
320,192,4406,1,0,0:0:0:0:
448,192,4582,1,0,0:0:0:50:Ride.wav
192,192,4582,1,8,0:0:0:0:
320,192,4935,128,4,5994:0:0:0:0:
64,192,4935,1,2,0:0:0:0:
192,192,5288,1,0,0:0:0:50:Ride.wav
448,192,5641,128,0,5994:0:0:0:50:Ride.wav
64,192,5994,1,8,0:0:0:0:
192,192,5994,1,0,0:0:0:50:Ride.wav
320,192,6347,1,0,0:0:0:50:Ride.wav
192,192,6523,1,2,0:0:0:0:
64,192,6700,128,2,7053:0:0:0:0:
448,192,7053,1,0,0:0:0:50:Ride.wav
320,192,7229,1,2,0:0:0:0:
192,192,7406,1,10,0:0:0:0:
64,192,7406,1,0,0:0:0:50:Ride.wav
320,192,7759,1,2,0:0:0:0:
448,192,7759,128,4,8464:0:0:0:0:
64,192,8112,1,0,0:0:0:50:Ride.wav
192,192,8464,1,0,0:0:0:50:Ride.wav
320,192,8641,1,0,0:0:0:50:Ride.wav
448,192,8817,1,8,0:0:0:0:
64,192,8817,1,0,0:0:0:50:Ride.wav
320,192,9170,128,4,9876:0:0:0:0:
192,192,9170,1,2,0:0:0:0:
448,192,9523,1,0,0:0:0:50:Ride.wav
64,192,9876,1,0,0:0:0:50:Ride.wav
192,192,10229,1,8,0:0:0:0:
320,192,10229,1,0,0:0:0:50:Ride.wav
448,192,10582,128,2,11288:0:0:0:0:
64,192,10582,1,4,0:0:0:0:
192,192,10935,1,0,0:0:0:50:Ride.wav
320,192,11288,1,0,0:0:0:50:Ride.wav
192,192,11641,1,0,0:0:0:50:Ride.wav
64,192,11641,1,8,0:0:0:0:
448,192,11994,1,0,0:0:0:50:Ride.wav
192,192,12170,1,2,0:0:0:0:
320,192,12347,1,2,0:0:0:0:
64,192,12523,1,0,0:0:0:0:
448,192,12523,1,8,0:0:0:0:
320,192,12876,1,2,0:0:0:0:
192,192,13053,1,0,0:0:0:0:
448,192,13053,1,8,0:0:0:0:
64,192,13406,1,8,0:0:0:0:
192,192,13582,1,8,0:0:0:0:
448,192,13759,1,2,0:0:0:0:
320,192,13759,128,4,14112:0:0:0:0:
64,192,14112,128,0,14464:0:0:0:50:Ride.wav
448,192,14464,1,8,0:0:0:0:
192,192,14464,1,0,0:0:0:50:Ride.wav
64,192,14817,1,0,0:0:0:50:Ride.wav
192,192,14994,1,2,0:0:0:0:
320,192,15170,128,2,15700:0:0:0:0:
64,192,15700,1,0,0:0:0:0:
448,192,15876,1,8,0:0:0:0:
192,192,15876,1,0,0:0:0:50:Ride.wav
64,192,16229,128,2,17288:0:0:0:0:
320,192,16229,1,4,0:0:0:0:
192,192,16935,128,0,17288:0:0:0:0:
320,192,17288,1,0,0:0:0:50:Ride.wav
448,192,17288,1,8,0:0:0:0:
192,192,17641,1,0,0:0:0:50:Ride.wav
320,192,17817,1,2,0:0:0:0:
448,192,17994,128,2,18347:0:0:0:0:
320,192,18347,1,0,0:0:0:50:Ride.wav
192,192,18523,1,2,0:0:0:0:
64,192,18700,1,10,0:0:0:0:
448,192,18700,1,0,0:0:0:50:Ride.wav
320,192,19053,1,2,0:0:0:0:
192,192,19053,128,4,19759:0:0:0:0:
448,192,19406,1,0,0:0:0:50:Ride.wav
64,192,19759,1,0,0:0:0:50:Ride.wav
192,192,20112,1,0,0:0:0:50:Ride.wav
448,192,20112,1,8,0:0:0:0:
320,192,20464,128,4,21170:0:0:0:0:
64,192,20464,1,2,0:0:0:0:
448,192,20817,1,0,0:0:0:50:Ride.wav
192,192,21170,128,0,21523:0:0:0:50:Ride.wav
64,192,21523,128,8,21876:0:0:0:0:
448,192,21523,1,0,0:0:0:50:Ride.wav
320,192,21876,128,0,22229:0:0:0:0:
448,192,21876,1,2,0:0:0:0:
192,192,22229,1,0,0:0:0:50:Ride.wav
64,192,22406,1,8,0:0:0:0:
448,192,22582,128,0,23288:0:0:0:50:Ride.wav
320,192,22935,128,8,23288:0:0:0:0:
64,192,23288,128,0,23641:0:0:0:50:Ride.wav
192,192,23641,1,2,0:0:0:0:
320,192,23817,1,8,0:0:0:0:
448,192,23994,1,2,0:0:0:0:
192,192,24170,1,2,0:0:0:0:
320,192,24347,1,0,0:0:0:50:Ride.wav
64,192,24347,1,8,0:0:0:0:
448,192,24700,1,2,0:0:0:0:
320,192,24876,1,2,0:0:0:0:
64,192,25053,128,4,30700:0:0:0:0:
192,192,25053,128,2,30700:0:0:0:0:
