osu file format v14

[General]
AudioFilename: audio.mp3
AudioLeadIn: 0
PreviewTime: 409
Countdown: 0
SampleSet: Soft
StackLeniency: 0.7
Mode: 0
LetterboxInBreaks: 0
WidescreenStoryboard: 1

[Editor]
DistanceSpacing: 1.3
BeatDivisor: 4
GridSize: 32
TimelineZoom: 1

[Metadata]
Title:The Sunshower (TV Size)
TitleUnicode:The Sunshower (TV Size)
Artist:Asaka
ArtistUnicode:亜咲花
Creator:Xahlt
Version:Hard
Source:Heya CampΔ
Tags:ゆるキャン△ heyakyanΔ へやキャン△ yurukyan Japanese Anime Pop Jpop J-pop YuruCamp Yuru Camp Laid Back Laid-Back theme song original soundtrack Akiyuki Tateyama 立山秋航 Kuon-
BeatmapID:3365863
BeatmapSetID:1648968

[Difficulty]
HPDrainRate:4
CircleSize:3.8
OverallDifficulty:6
ApproachRate:8
SliderMultiplier:2.6
SliderTickRate:1

[Events]
//Background and Video events
0,0,"bg.jpg",0,0
//Break Periods
//Storyboard Layer 0 (Background)
//Storyboard Layer 1 (Fail)
//Storyboard Layer 2 (Pass)
//Storyboard Layer 3 (Foreground)
//Storyboard Layer 4 (Overlay)
//Storyboard Sound Samples

[TimingPoints]
498,705.882352941176,4,2,1,50,1,0
590,705.882352941176,4,2,1,50,1,0
590,-100,4,2,1,50,0,0
1531,-100,4,2,1,5,0,0
1650,697.67441860465,4,2,1,50,1,0
2030,727.272727272727,4,2,1,5,1,0
2030,-125,4,2,1,5,0,0
2736,705.882352941176,4,2,1,75,1,0
2736,-100,4,2,1,75,0,0
25500,-100,4,2,1,5,0,0

[Colours]
Combo1 : 115,138,219
Combo2 : 253,108,158

[HitObjects]
4,39,590,6,0,P|61:26|122:62,1,130,2|2,0:0|0:0,0:0:0:0:
180,125,1060,1,2,0:0:0:0:
180,125,1178,1,2,0:0:0:0:
180,124,1295,2,0,P|175:168|167:210,1,86.6666666666667,2|0,0:0|0:0,0:0:0:0:
243,248,1650,2,0,P|250:186|261:119,1,142,2|0,0:0|0:0,0:0:0:0:
472,281,2736,6,0,P|407:290|388:293,1,65,6|0,3:2|0:0,0:0:0:0:
360,360,3088,2,0,P|295:372|211:315,1,130,2|8,0:0|0:0,0:0:0:0:
100,257,3794,1,2,0:0:0:0:
100,257,3971,1,0,3:2:0:0:
159,172,4147,6,0,P|220:178|293:188,1,130,2|0,3:2|0:0,0:0:0:0:
356,238,4677,1,2,0:0:0:0:
435,171,4853,2,0,P|442:142|417:81,1,65,8|0,0:0|0:0,0:0:0:0:
464,12,5206,6,0,P|402:18|243:36,1,195,6|0,3:2|0:0,0:0:0:0:
188,9,5912,1,2,0:0:0:0:
164,5,6265,2,0,B|118:54|118:54|135:74|158:110,1,130,8|2,0:0|0:0,0:0:0:0:
230,142,6794,1,0,3:2:0:0:
182,243,6971,6,0,P|117:237|30:224,1,130,2|0,3:2|0:0,0:0:0:0:
0,295,7500,1,2,3:2:0:0:
79,356,7677,2,0,P|111:359|143:363,1,65,8|0,0:0|0:0,0:0:0:0:
261,384,8030,6,0,P|311:314|438:329,1,195,6|2,3:2|0:0,0:0:0:0:
482,358,8735,1,2,0:0:0:0:
494,362,9088,2,0,P|499:323|506:281,1,65,10|0,0:0|0:0,0:0:0:0:
464,167,9441,6,0,B|366:136|366:136|337:167|296:209,1,195,6|8,3:2|0:0,0:0:0:0:
269,280,10147,2,0,P|236:280|207:267,1,65,2|0,0:0|0:0,0:0:0:0:
130,302,10500,2,0,P|113:274|110:242,1,65,10|0,0:0|0:0,0:0:0:0:
29,130,10853,6,0,P|121:111|227:84,1,195,6|8,3:2|0:0,0:0:0:0:
280,28,11559,1,2,0:0:0:0:
291,18,11912,2,0,P|323:22|381:30,1,65,10|0,0:0|0:0,0:0:0:0:
438,11,12265,2,0,P|434:43|426:100,1,65,2|0,0:0|3:2,0:0:0:0:
362,126,12618,5,2,3:2:0:0:
431,205,12794,2,0,P|464:208|501:209,1,65,8|2,0:0|0:0,0:0:0:0:
375,289,13147,1,0,3:2:0:0:
375,289,13324,2,0,P|323:261|242:289,1,130,10|10,0:0|0:0,0:0:0:0:
173,327,13853,1,8,0:0:0:0:
104,227,14030,6,0,P|108:194|116:148,1,65,6|0,3:2|0:0,0:0:0:0:
188,122,14383,2,0,P|179:33|140:6,1,130,2|8,0:0|0:0,0:0:0:0:
14,117,15088,1,2,0:0:0:0:
14,117,15265,1,0,3:2:0:0:
80,195,15441,6,0,P|91:258|102:323,1,130,2|0,3:2|0:0,0:0:0:0:
169,375,15971,1,2,0:0:0:0:
238,293,16147,2,0,P|269:297|314:308,1,65,8|0,0:0|0:0,0:0:0:0:
402,382,16500,6,0,B|463:304|463:304|433:264|393:201,1,195,6|0,3:2|0:0,0:0:0:0:
349,164,17206,1,2,0:0:0:0:
334,154,17559,2,0,P|343:89|355:25,1,130,8|2,0:0|0:0,0:0:0:0:
434,0,18088,1,0,3:2:0:0:
492,92,18265,6,0,P|482:156|470:220,1,130,2|0,3:2|0:0,0:0:0:0:
510,294,18794,1,2,3:2:0:0:
433,365,18971,2,0,P|403:355|351:344,1,65,10|0,0:0|0:0,0:0:0:0:
277,268,19324,6,0,P|216:330|93:302,1,195,6|8,3:2|0:0,0:0:0:0:
44,272,20030,1,2,0:0:0:0:
29,262,20383,2,0,P|33:228|35:190,1,65,8|0,0:0|0:0,0:0:0:0:
11,75,20735,6,0,B|97:126|97:126|136:95|179:71,1,195,6|8,3:2|0:0,0:0:0:0:
234,11,21441,2,0,P|263:23|285:47,1,65,2|0,0:0|0:0,0:0:0:0:
385,23,21794,2,0,P|389:54|378:85,1,65,10|0,0:0|0:0,0:0:0:0:
421,201,22147,6,0,P|334:187|220:185,1,195,6|8,3:2|0:0,0:0:0:0:
156,231,22853,1,2,0:0:0:0:
146,241,23206,2,0,P|154:271|165:311,1,65,14|0,0:0|0:0,0:0:0:0:
153,384,23559,2,0,P|183:375|223:365,1,65,2|0,0:0|3:2,0:0:0:0:
269,301,23912,5,2,3:2:0:0:
371,322,24088,2,0,P|379:352|390:392,2,65,8|2|0,0:0|3:2|3:2,0:0:0:0:
438,239,24618,2,0,P|429:208|419:169,1,65,8|0,0:0|0:0,0:0:0:0:
465,105,24971,1,2,3:2:0:0:
465,105,25147,1,2,3:2:0:0:
375,29,25324,5,6,3:2:0:0:
256,192,25412,12,0,30971,0:0:0:0:
