osu file format v14

[General]
AudioFilename: audio.mp3
AudioLeadIn: 0
PreviewTime: 498
Countdown: 0
SampleSet: Normal
StackLeniency: 0.7
Mode: 1
LetterboxInBreaks: 0
WidescreenStoryboard: 1

[Editor]
Bookmarks: 14030
DistanceSpacing: 1
BeatDivisor: 4
GridSize: 8
TimelineZoom: 1.1

[Metadata]
Title:The Sunshower (TV Size)
TitleUnicode:The Sunshower (TV Size)
Artist:Asaka
ArtistUnicode:亜咲花
Creator:Toofu
Version:Collab Muzukashii
Source:Heya CampΔ
Tags:ゆるキャン△ heyakyanΔ へやキャン△ yurukyan Japanese Anime Pop Jpop J-pop YuruCamp Yuru Camp Laid Back Laid-Back theme song original soundtrack ost Akiyuki Tateyama 立山秋航 doug d0ug doug_yt d0ug_yt
BeatmapID:3446902
BeatmapSetID:1686482

[Difficulty]
HPDrainRate:9
CircleSize:5
OverallDifficulty:3.5
ApproachRate:5
SliderMultiplier:1.4
SliderTickRate:1

[Events]
//Background and Video events
0,0,"bg.jpg",0,40
//Break Periods
//Storyboard Layer 0 (Background)
//Storyboard Layer 1 (Fail)
//Storyboard Layer 2 (Pass)
//Storyboard Layer 3 (Foreground)
//Storyboard Layer 4 (Overlay)
//Storyboard Sound Samples

[TimingPoints]
498,705.882352941176,4,1,0,60,1,8
498,-100,4,1,0,60,0,8
634,705.882352941176,4,1,0,60,1,8
634,-100,4,1,0,60,0,0
943,705.882352941176,4,1,0,60,1,8
943,-100,4,1,0,60,0,0
1672,697.67441860465,4,1,0,60,1,8
1672,-101.176470588235,4,1,0,60,0,8
2030,727.272727272727,4,1,0,60,1,8
2030,-97.0588235294118,4,1,0,60,0,8
2736,705.882352941176,4,1,0,60,1,0
2736,-100,4,1,0,60,0,0
26030,-100,4,1,0,50,0,0
26735,-100,4,1,0,45,0,0
27441,-100,4,1,0,40,0,0
28147,-100,4,1,0,30,0,0
28853,-100,4,1,0,25,0,0
29559,-100,4,1,0,20,0,0
30265,-100,4,1,0,15,0,0
30971,-100,4,1,0,10,0,0

[HitObjects]
256,160,634,5,8,0:0:0:0:
256,160,1295,1,8,0:0:0:0:
256,160,1672,1,0,0:0:0:0:
256,192,2736,1,12,0:0:0:0:
318,160,3088,1,0,0:0:0:0:
256,192,3441,1,8,0:0:0:0:
256,192,3794,1,0,0:0:0:0:
256,192,3971,1,0,0:0:0:0:
256,192,4147,1,8,0:0:0:0:
256,192,4677,1,8,0:0:0:0:
256,192,4853,1,0,0:0:0:0:
256,192,5206,1,12,0:0:0:0:
256,192,5912,1,0,0:0:0:0:
256,192,6265,1,0,0:0:0:0:
256,192,6618,1,8,0:0:0:0:
256,192,6794,1,0,0:0:0:0:
256,192,6971,1,8,0:0:0:0:
256,192,7324,1,8,0:0:0:0:
256,192,7500,1,0,0:0:0:0:
256,192,7677,1,0,0:0:0:0:
256,192,8030,1,12,0:0:0:0:
256,192,8559,1,0,0:0:0:0:
256,192,8736,1,8,0:0:0:0:
256,192,9089,1,0,0:0:0:0:
256,192,9441,1,12,0:0:0:0:
256,192,9971,1,8,0:0:0:0:
256,192,10147,1,0,0:0:0:0:
256,192,10500,1,8,0:0:0:0:
256,192,10853,1,4,0:0:0:0:
256,192,11559,1,0,0:0:0:0:
256,192,11912,1,8,0:0:0:0:
256,192,12265,1,8,0:0:0:0:
256,192,12441,1,0,0:0:0:0:
256,192,12618,1,8,0:0:0:0:
256,192,12971,5,0,0:0:0:0:
256,192,13324,1,8,0:0:0:0:
256,192,13677,1,0,0:0:0:0:
256,192,13853,1,0,0:0:0:0:
256,192,14030,1,12,0:0:0:0:
256,192,14383,1,0,0:0:0:0:
256,192,14735,1,8,0:0:0:0:
256,192,15088,1,0,0:0:0:0:
256,192,15265,1,0,0:0:0:0:
256,192,15441,1,8,0:0:0:0:
256,192,15971,1,8,0:0:0:0:
256,192,16147,1,0,0:0:0:0:
256,192,16500,1,12,0:0:0:0:
256,192,17206,1,0,0:0:0:0:
256,192,17559,1,8,0:0:0:0:
256,192,17912,1,8,0:0:0:0:
256,192,18088,1,0,0:0:0:0:
256,192,18265,1,8,0:0:0:0:
256,192,18618,1,0,0:0:0:0:
256,192,18794,1,0,0:0:0:0:
256,192,18971,1,8,0:0:0:0:
256,192,19324,1,12,0:0:0:0:
256,192,19853,1,8,0:0:0:0:
256,192,20030,1,0,0:0:0:0:
256,192,20383,1,0,0:0:0:0:
256,192,20735,1,12,0:0:0:0:
256,192,21265,1,0,0:0:0:0:
256,192,21441,1,8,0:0:0:0:
256,192,21794,1,8,0:0:0:0:
256,192,22147,1,4,0:0:0:0:
256,192,22853,1,0,0:0:0:0:
256,192,23206,1,8,0:0:0:0:
256,192,23559,1,0,0:0:0:0:
256,192,23735,1,0,0:0:0:0:
256,192,23912,1,8,0:0:0:0:
256,192,24265,1,0,0:0:0:0:
256,192,24618,1,8,0:0:0:0:
256,192,24971,1,8,0:0:0:0:
256,192,25147,1,8,0:0:0:0:
256,192,25324,1,4,0:0:0:0:
256,192,25677,12,0,30971,0:0:0:0:
