osu file format v14

[General]
AudioFilename: audio.mp3
AudioLeadIn: 0
PreviewTime: 498
Countdown: 0
SampleSet: Normal
StackLeniency: 0.7
Mode: 1
LetterboxInBreaks: 0
WidescreenStoryboard: 0

[Editor]
Bookmarks: 14030
DistanceSpacing: 1
BeatDivisor: 4
GridSize: 32
TimelineZoom: 0.5999999

[Metadata]
Title:The Sunshower (TV Size)
TitleUnicode:The Sunshower (TV Size)
Artist:Asaka
ArtistUnicode:亜咲花
Creator:Toofu
Version:Collab Futsuu
Source:Heya CampΔ
Tags:ゆるキャン△ heyakyanΔ へやキャン△ yurukyan Japanese Anime Pop Jpop J-pop YuruCamp Yuru Camp Laid Back Laid-Back theme song original soundtrack ost Akiyuki Tateyama 立山秋航 doug d0ug doug_yt d0ug_yt
BeatmapID:3446903
BeatmapSetID:1686482

[Difficulty]
HPDrainRate:9.5
CircleSize:5
OverallDifficulty:3
ApproachRate:5
SliderMultiplier:1.4
SliderTickRate:1

[Events]
//Background and Video events
0,0,"bg.jpg",0,40
//Break Periods
//Storyboard Layer 0 (Background)
//Storyboard Layer 1 (Fail)
//Storyboard Layer 2 (Pass)
//Storyboard Layer 3 (Foreground)
//Storyboard Layer 4 (Overlay)
//Storyboard Sound Samples

[TimingPoints]
498,705.882352941176,4,1,0,60,1,8
498,-100,4,1,0,60,0,8
634,705.882352941176,4,1,0,60,1,8
634,-100,4,1,0,60,0,0
943,705.882352941176,4,1,0,60,1,8
943,-100,4,1,0,60,0,0
1672,697.67441860465,4,1,0,60,1,8
1672,-101.176470588235,4,1,0,60,0,8
2030,727.272727272727,4,1,0,60,1,8
2030,-97.0588235294118,4,1,0,60,0,8
2736,705.882352941176,4,1,0,60,1,0
2736,-100,4,1,0,60,0,0
26030,-100,4,1,0,50,0,0
26735,-100,4,1,0,45,0,0
27441,-100,4,1,0,40,0,0
28147,-100,4,1,0,30,0,0
28853,-100,4,1,0,25,0,0
29559,-100,4,1,0,20,0,0
30265,-100,4,1,0,15,0,0
30971,-100,4,1,0,10,0,0

[HitObjects]
256,160,634,5,8,0:0:0:0:
256,160,1672,1,0,0:0:0:0:
256,160,2736,1,12,0:0:0:0:
256,160,3441,1,8,0:0:0:0:
275,92,3794,1,0,0:0:0:0:
300,65,3971,1,0,0:0:0:0:
256,160,4147,1,8,0:0:0:0:
284,36,4853,1,0,0:0:0:0:
256,160,5206,1,12,0:0:0:0:
305,71,5912,1,0,0:0:0:0:
240,15,6618,1,8,0:0:0:0:
322,47,6794,1,8,0:0:0:0:
256,160,6971,1,8,0:0:0:0:
315,43,7500,1,0,0:0:0:0:
266,20,7677,1,0,0:0:0:0:
256,160,8030,1,12,0:0:0:0:
256,160,9088,1,0,0:0:0:0:
256,160,9441,1,12,0:0:0:0:
256,160,10147,1,0,0:0:0:0:
256,160,10500,1,8,0:0:0:0:
256,160,10853,1,4,0:0:0:0:
342,65,11559,1,0,0:0:0:0:
256,160,11912,1,8,0:0:0:0:
288,47,12265,1,8,0:0:0:0:
273,30,12441,1,8,0:0:0:0:
256,160,12618,1,8,0:0:0:0:
256,160,13324,1,8,0:0:0:0:
256,192,14030,1,12,0:0:0:0:
256,192,14735,1,8,0:0:0:0:
248,122,15088,1,0,0:0:0:0:
292,121,15265,1,0,0:0:0:0:
256,192,15441,1,0,0:0:0:0:
213,58,16147,1,0,0:0:0:0:
256,192,16500,1,12,0:0:0:0:
288,56,17206,1,0,0:0:0:0:
256,192,17912,1,8,0:0:0:0:
288,56,18088,1,8,0:0:0:0:
256,192,18265,1,8,0:0:0:0:
265,52,18794,1,0,0:0:0:0:
315,43,18971,1,8,0:0:0:0:
256,192,19324,1,12,0:0:0:0:
256,192,20383,1,0,0:0:0:0:
256,192,20735,1,12,0:0:0:0:
256,192,21441,1,8,0:0:0:0:
256,192,21794,1,8,0:0:0:0:
256,192,22147,1,4,0:0:0:0:
254,51,22853,1,0,0:0:0:0:
256,192,23206,1,8,0:0:0:0:
320,6,23559,1,0,0:0:0:0:
261,49,23735,1,0,0:0:0:0:
265,49,23912,1,0,0:0:0:0:
256,192,24618,1,8,0:0:0:0:
288,160,25324,5,4,0:0:0:0:
256,192,25677,12,0,30971,0:0:0:0:
