osu file format v14

[General]
AudioFilename: Shiny Days.mp3
AudioLeadIn: 0
PreviewTime: -1
Countdown: 1
SampleSet: Soft
StackLeniency: 0.7
Mode: 0
LetterboxInBreaks: 0
WidescreenStoryboard: 1

[Editor]
DistanceSpacing: 1.2
BeatDivisor: 4
GridSize: 16
TimelineZoom: 1.9

[Metadata]
Title:Shiny Days
TitleUnicode:Shiny Days
Artist:Asaka
ArtistUnicode:Asaka
Creator:Pinecone Kun
Version:Normal
Source:
Tags:
BeatmapID:1564870
BeatmapSetID:740414

[Difficulty]
HPDrainRate:4
CircleSize:3.3
OverallDifficulty:5.5
ApproachRate:6.5
SliderMultiplier:1.8
SliderTickRate:1

[Events]
//Background and Video events
0,0,"Yuru Camp.jpg",0,0
//Break Periods
//Storyboard Layer 0 (Background)
//Storyboard Layer 1 (Fail)
//Storyboard Layer 2 (Pass)
//Storyboard Layer 3 (Foreground)
//Storyboard Sound Samples

[TimingPoints]
560,545.454545454546,4,2,0,50,1,0
18014,-133.333333333333,4,2,0,50,0,0
34582,-100,4,2,0,50,0,0
49241,-100,4,2,0,70,0,0
87969,-100,4,2,0,15,0,0

[HitObjects]
176,128,560,6,0,P|160:192|128:224,2,90
212,41,1378,2,0,L|241:106,1,45
231,175,1787,1,0,0:0:0:0:
231,175,1924,2,0,P|214:216|188:244,2,45
336,128,2741,6,0,P|352:192|384:224,2,90
291,37,3560,2,0,L|273:88,1,45
291,173,3969,1,0,0:0:0:0:
291,173,4105,2,0,P|311:220|322:225,2,45
188,190,4923,6,0,L|128:297,2,90
164,59,5741,2,0,P|146:91|139:108,1,45
67,142,6150,1,0,0:0:0:0:
67,142,6287,2,0,P|43:114|31:94,2,45
112,224,7105,5,0,0:0:0:0:
256,80,7650,1,0,0:0:0:0:
256,224,8060,1,0,0:0:0:0:
160,80,9287,6,0,P|256:48|352:80,1,180
304,112,9969,1,0,0:0:0:0:
224,176,10241,2,0,P|176:240|288:272,1,225
448,192,11469,6,0,P|416:144|304:80,1,180
272,112,12150,1,0,0:0:0:0:
176,128,12423,2,0,P|144:176|240:304,1,225
416,256,13650,6,0,P|432:192|352:112,1,180
320,96,14332,1,0,0:0:0:0:
224,80,14605,2,0,P|144:112|208:224,1,225
160,112,15832,5,0,0:0:0:0:
192,208,16105,2,0,P|240:256|256:256,2,45
230,131,16650,1,0,0:0:0:0:
313,72,16923,2,0,P|374:72|407:120,1,90
418,168,17469,2,0,P|403:232|382:258,1,90
280,281,18014,1,0,0:0:0:0:
170,234,18287,6,0,P|117:232|77:212,2,67.5000025749208
219,217,19105,2,0,P|267:201|267:201,1,33.7500012874604
320,192,19514,2,0,P|384:224|400:272,1,101.250003862381
112,96,21014,5,0,0:0:0:0:
160,144,21287,2,0,P|224:192|272:208,1,101.250003862381
352,208,22105,1,0,0:0:0:0:
288,96,22650,5,0,0:0:0:0:
256,144,22923,1,0,0:0:0:0:
224,192,23196,1,0,0:0:0:0:
352,192,23741,5,0,0:0:0:0:
304,224,24014,1,0,0:0:0:0:
256,256,24287,1,0,0:0:0:0:
112,224,24832,5,0,0:0:0:0:
144,160,25105,1,0,0:0:0:0:
208,144,25378,1,0,0:0:0:0:
288,144,25650,2,0,L|336:176,1,45
400,224,26060,2,0,P|368:272|304:304,1,101.250003862381
176,144,27014,6,0,B|134:122|112:80,2,67.5000025749208
256,192,27832,2,0,L|304:224,1,33.7500012874604
400,224,28241,2,0,P|432:192|416:128,1,101.250003862381
64,288,29741,5,0,0:0:0:0:
128,208,30014,2,0,P|151:191|180:181,1,33.7500012874604
208,160,30423,2,0,P|268:136|320:125,1,101.250003862381
416,64,31378,5,0,0:0:0:0:
400,128,31650,1,0,0:0:0:0:
384,192,31923,1,0,0:0:0:0:
272,144,32469,5,0,0:0:0:0:
224,192,32741,1,0,0:0:0:0:
176,240,33014,1,0,0:0:0:0:
144,144,33560,5,0,0:0:0:0:
208,96,33832,2,0,P|256:80|304:80,1,67.5000025749208
352,80,34378,2,0,L|352:128,1,33.7500012874604
448,80,34787,2,0,P|451:141|416:208,1,135
384,240,35332,5,0,0:0:0:0:
384,240,35469,2,0,L|300:286,1,90
195,223,36014,1,0,0:0:0:0:
251,91,36287,2,0,P|291:52|341:63,1,90
404,123,36832,5,0,0:0:0:0:
404,123,36969,2,0,B|354:194|419:231|369:292,1,135
314,167,37650,1,0,0:0:0:0:
214,91,37923,2,0,P|197:141|220:197,1,90
285,258,38469,5,0,0:0:0:0:
285,258,38605,2,0,B|207:225|148:313|67:242,1,225
112,80,39832,5,0,0:0:0:0:
144,160,40105,2,0,P|192:192|256:192,1,90
304,192,40650,1,0,0:0:0:0:
384,160,40923,2,0,B|447:217|448:288,1,135
320,288,41741,5,0,0:0:0:0:
256,256,42014,2,0,P|214:147|326:243,1,360
160,112,43650,5,0,0:0:0:0:
320,112,43923,1,0,0:0:0:0:
160,176,44196,2,0,L|160:272,1,90
240,304,44741,5,0,0:0:0:0:
320,176,45014,2,0,L|320:272,1,90
240,192,45560,2,0,L|240:96,2,90
256,192,46241,12,0,49650,0:0:0:0:
144,192,50741,5,0,0:0:0:0:
264,58,51287,1,0,0:0:0:0:
385,141,51696,2,0,P|390:196|341:265,1,135
168,275,52378,6,0,L|109:311,2,45
205,254,52787,1,0,0:0:0:0:
247,231,52923,1,0,0:0:0:0:
312,77,53469,1,0,0:0:0:0:
416,215,53878,2,0,P|358:267|274:279,1,135
114,114,54832,5,0,0:0:0:0:
114,114,54969,1,0,0:0:0:0:
114,114,55105,2,0,L|218:141,1,90
352,179,55650,2,0,L|253:231,1,90
136,278,56196,1,0,0:0:0:0:
287,309,56469,1,0,0:0:0:0:
287,309,56605,2,0,P|344:227|346:184,1,135
454,146,57287,5,0,0:0:0:0:
254,37,57832,1,0,0:0:0:0:
130,119,58241,2,0,P|120:169|230:290,1,225
74,64,59469,6,0,L|237:138,1,180
304,254,60423,2,0,B|236:212|172:204,1,135
109,288,61105,1,0,0:0:0:0:
262,297,61378,5,0,0:0:0:0:
262,297,61514,1,0,0:0:0:0:
262,297,61650,2,0,P|321:234|320:135,1,180
218,70,62605,2,0,P|168:104|152:192,1,135
442,75,63560,5,0,0:0:0:0:
442,75,63696,1,0,0:0:0:0:
442,75,63832,2,0,L|362:131,1,90
183,144,64378,2,0,L|287:221,1,90
385,294,64923,1,0,0:0:0:0:
385,294,65060,1,0,0:0:0:0:
245,279,65332,2,0,P|172:240|136:194,1,135
157,39,66014,6,0,P|259:91|327:111,1,180
371,125,66969,2,0,B|395:218|346:258|345:258|425:301,1,180
140,89,68196,5,0,0:0:0:0:
140,89,68469,2,0,L|213:144,1,90
329,174,69014,1,0,0:0:0:0:
329,174,69150,1,0,0:0:0:0:
329,174,69287,2,0,P|270:233|203:249,1,135
159,248,69832,1,0,0:0:0:0:
68,170,70105,1,0,0:0:0:0:
180,89,70378,5,0,0:0:0:0:
329,88,70650,2,0,P|386:78|430:50,2,90
267,115,71469,2,0,P|244:171|254:181,1,45
296,240,71878,2,0,P|248:269|121:247,1,180
108,113,72832,5,0,0:0:0:0:
263,77,73105,1,0,0:0:0:0:
409,130,73378,1,0,0:0:0:0:
409,130,73650,2,0,L|400:204,1,45
378,271,74060,2,0,P|275:232|200:260,1,180
121,153,75014,6,0,P|81:115|62:66,2,90
217,216,75832,2,0,P|290:254|336:264,1,90
390,263,76378,2,0,L|405:200,1,45
258,191,76787,1,0,0:0:0:0:
256,192,76957,12,0,78560,0:0:0:0:
286,79,79105,6,0,P|341:125|367:234,1,180
326,258,79787,1,0,0:0:0:0:
205,154,80060,2,0,P|144:200|137:348,1,225
360,289,81287,6,0,P|251:275|181:278,1,180
133,245,81969,1,0,0:0:0:0:
169,131,82241,2,0,P|236:105|316:217,1,225
310,96,83469,6,0,B|343:183|300:206|351:272,1,180
292,283,84150,1,0,0:0:0:0:
223,184,84423,2,0,P|195:248|54:223,1,225
221,146,85650,5,0,0:0:0:0:
312,124,85923,2,0,P|326:91|357:69,2,45
305,201,86469,1,0,0:0:0:0:
151,252,86741,1,0,0:0:0:0:
70,91,87287,1,0,0:0:0:0:
249,38,87832,1,0,0:0:0:0:
256,192,87969,12,0,90040,0:0:0:0:
