osu file format v14

[General]
AudioFilename: Shiny Days.mp3
AudioLeadIn: 0
PreviewTime: -1
Countdown: 1
SampleSet: Soft
StackLeniency: 0.7
Mode: 0
LetterboxInBreaks: 0
WidescreenStoryboard: 0

[Editor]
DistanceSpacing: 1.4
BeatDivisor: 8
GridSize: 16
TimelineZoom: 1.9

[Metadata]
Title:Shiny Days
TitleUnicode:Shiny Days
Artist:Asaka
ArtistUnicode:Asaka
Creator:Pinecone Kun
Version:Insane
Source:Laid Back Camp
Tags:Yuru Camp, Laid Back Camp,ゆるキャン△, TV SIze,
BeatmapID:1562095
BeatmapSetID:740414

[Difficulty]
HPDrainRate:7
CircleSize:4
OverallDifficulty:8
ApproachRate:9.1
SliderMultiplier:2.8
SliderTickRate:1

[Events]
//Background and Video events
0,0,"Yuru Camp.jpg",0,0
//Break Periods
//Storyboard Layer 0 (Background)
//Storyboard Layer 1 (Fail)
//Storyboard Layer 2 (Pass)
//Storyboard Layer 3 (Foreground)
//Storyboard Sound Samples

[TimingPoints]
560,545.454545454546,4,2,0,50,1,0
18014,-200,4,2,0,50,0,0
25582,-100,4,2,0,50,0,0
26060,-100,4,2,0,50,0,0
26537,-200,4,2,0,50,0,0
34582,-100,4,2,0,50,0,0
35264,-133.333333333333,4,2,0,50,0,0
43991,-80,4,2,0,50,0,0
46378,-100,4,2,0,20,0,0
47060,-100,4,2,0,30,0,0
47605,-100,4,2,0,40,0,0
48150,-100,4,2,0,50,0,0
48696,-100,4,2,0,60,0,0
49241,-133.333333333333,4,2,0,70,0,0
51219,-80,4,2,0,70,0,0
52855,-133.333333333333,4,2,0,70,0,0
52991,-80,4,2,0,70,0,0
53400,-80,4,2,0,70,0,0
57219,-133.333333333333,4,2,0,70,0,0
57628,-80,4,2,0,70,0,0
59400,-133.333333333333,4,2,0,70,0,0
59946,-80,4,2,0,70,0,0
61582,-133.333333333333,4,2,0,70,0,0
62128,-80,4,2,0,70,0,0
65946,-133.333333333333,4,2,0,70,0,0
66491,-80,4,2,0,70,0,0
69219,-100,4,2,0,70,0,0
87969,-100,4,2,0,15,0,0

[HitObjects]
192,176,560,6,0,P|128:224|48:208,2,140
264,101,1378,1,0,0:0:0:0:
264,101,1514,1,0,0:0:0:0:
360,177,1787,2,0,L|411:237,1,70
181,177,2060,2,0,L|137:233,1,70
320,176,2741,6,0,P|384:224|464:208,2,140
256,116,3560,2,0,P|275:72|283:37,1,70
372,128,3969,1,0,0:0:0:0:
372,128,4105,1,0,0:0:0:0:
178,191,4241,1,0,0:0:0:0:
178,191,4378,1,0,0:0:0:0:
256,192,4923,6,0,P|224:272|176:320,2,140
252,64,5741,1,0,0:0:0:0:
252,64,5878,1,0,0:0:0:0:
356,181,6150,1,0,0:0:0:0:
356,181,6287,1,0,0:0:0:0:
166,177,6423,1,0,0:0:0:0:
166,177,6560,1,0,0:0:0:0:
160,192,7105,5,0,0:0:0:0:
256,64,7650,1,0,0:0:0:0:
352,192,8060,1,0,0:0:0:0:
218,286,8332,6,0,P|168:319|129:326,2,70
396,229,8741,1,0,0:0:0:0:
251,141,8877,1,0,0:0:0:0:
425,108,9014,2,0,P|417:58|386:54,1,70
224,96,9287,6,0,P|144:112|144:224,1,210
208,256,9832,1,0,0:0:0:0:
288,176,9969,1,0,0:0:0:0:
368,256,10105,1,0,0:0:0:0:
352,144,10241,2,0,P|304:64|240:32,1,140
176,96,10650,6,0,P|128:144|128:176,1,70
192,160,10923,2,0,P|160:208|144:208,1,70
96,224,11196,2,0,P|128:272|144:272,1,70
224,208,11469,6,0,P|272:144|400:144,1,210
448,224,12014,1,0,0:0:0:0:
352,256,12150,1,0,0:0:0:0:
288,176,12286,1,0,0:0:0:0:
192,128,12423,2,0,P|128:112|80:160,1,140
176,208,12832,6,0,L|240:240,1,70
256,128,13105,2,0,L|304:192,1,70
368,96,13377,2,0,L|368:176,1,70
384,272,13650,6,0,P|320:304|224:224,1,210
304,160,14196,1,0,0:0:0:0:
192,160,14332,1,0,0:0:0:0:
256,80,14469,1,0,0:0:0:0:
368,80,14605,2,0,P|448:128|464:192,1,140
320,224,15014,6,0,P|368:192|400:192,1,70
352,144,15287,2,0,P|304:160|288:192,1,70
256,128,15560,2,0,P|304:96|320:96,1,70
352,64,16105,5,0,0:0:0:0:
352,64,16241,1,0,0:0:0:0:
352,64,16378,1,0,0:0:0:0:
400,160,16650,1,0,0:0:0:0:
384,288,16923,6,0,L|304:304,1,70
256,224,17196,2,0,L|336:240,1,70
416,176,17469,2,0,P|368:176|336:160,1,70
256,128,17741,2,0,P|320:112|352:112,1,70
416,96,18014,1,0,0:0:0:0:
192,128,18287,6,0,P|144:144|112:144,2,70
320,96,19105,1,0,0:0:0:0:
320,96,19241,1,0,0:0:0:0:
416,160,19514,2,0,P|400:224|368:256,1,105
96,160,20196,6,0,L|128:176,1,35
224,96,20469,2,0,L|224:144,1,35
208,208,20741,1,0,0:0:0:0:
320,160,21014,5,0,0:0:0:0:
224,224,21287,2,0,P|176:256|128:256,2,105
128,64,22378,5,0,0:0:0:0:
128,64,22514,1,0,0:0:0:0:
128,64,22650,1,0,0:0:0:0:
192,160,22923,1,0,0:0:0:0:
272,240,23196,1,0,0:0:0:0:
80,304,23469,5,0,0:0:0:0:
80,304,23605,1,0,0:0:0:0:
80,304,23741,1,0,0:0:0:0:
176,240,24014,1,0,0:0:0:0:
240,160,24286,1,0,0:0:0:0:
199,141,24832,6,0,P|181:118|166:108,1,35
313,140,25105,2,0,P|322:126|335:114,1,35
258,186,25378,2,0,L|256:137,1,35
254,33,25650,1,0,0:0:0:0:
256,227,25786,1,0,0:0:0:0:
272,256,26060,6,0,P|291:285|236:253,1,210
320,96,27014,6,0,P|352:144|352:160,2,70
208,80,27832,1,0,0:0:0:0:
208,80,27969,1,0,0:0:0:0:
304,112,28241,2,0,P|336:160|336:208,1,105
112,80,28923,6,0,P|128:96|128:112,1,35
144,48,29196,2,0,P|160:64|176:64,1,35
176,112,29469,1,0,0:0:0:0:
240,144,29741,5,0,0:0:0:0:
352,128,30014,2,0,L|368:160,1,35
336,256,30423,2,0,P|288:288|240:272,1,105
432,48,31105,5,0,0:0:0:0:
432,48,31241,1,0,0:0:0:0:
432,48,31378,1,0,0:0:0:0:
368,128,31650,1,0,0:0:0:0:
288,192,31923,1,0,0:0:0:0:
448,320,32196,5,0,0:0:0:0:
448,320,32332,1,0,0:0:0:0:
448,320,32469,1,0,0:0:0:0:
352,272,32741,1,0,0:0:0:0:
272,208,33014,1,0,0:0:0:0:
208,261,33560,6,0,P|195:290|185:298,1,35
304,261,33832,2,0,P|317:290|327:298,1,35
256,160,34105,2,0,L|256:206,1,35
256,352,34378,1,0,0:0:0:0:
256,128,34514,1,0,0:0:0:0:
274,105,34787,6,0,P|293:76|238:108,1,210
192,192,35332,5,0,0:0:0:0:
192,192,35469,2,0,P|240:240|288:256,2,105.000004005432
192,32,36287,5,0,0:0:0:0:
320,128,36560,1,0,0:0:0:0:
368,288,36832,1,0,0:0:0:0:
368,288,36969,2,0,P|304:304|208:272,1,157.500006008148
96,176,37650,5,0,0:0:0:0:
224,96,37923,1,0,0:0:0:0:
368,176,38196,1,0,0:0:0:0:
208,208,38469,1,0,0:0:0:0:
144,176,38605,2,0,P|96:176|48:272,1,157.500006008148
201,83,39287,5,0,0:0:0:0:
201,83,39423,1,0,0:0:0:0:
356,156,39560,1,0,0:0:0:0:
356,156,39696,1,0,0:0:0:0:
240,64,39833,5,0,0:0:0:0:
352,160,40105,1,0,0:0:0:0:
272,304,40378,1,0,0:0:0:0:
144,224,40650,1,0,0:0:0:0:
224,80,40923,2,0,P|288:112|336:192,1,157.500006008148
192,176,41741,5,0,0:0:0:0:
64,144,42014,2,0,P|160:80|448:144,1,420.000016021729
128,64,43650,5,0,0:0:0:0:
288,80,43923,1,0,0:0:0:0:
144,80,44196,6,0,L|112:256,1,175
256,32,44741,1,0,0:0:0:0:
368,272,45014,2,0,L|384:80,1,175
224,320,45560,5,0,0:0:0:0:
256,64,45832,1,0,0:0:0:0:
288,320,46105,1,0,0:0:0:0:
112,112,46650,5,0,0:0:0:0:
128,128,46787,1,0,0:0:0:0:
144,144,46923,1,0,0:0:0:0:
256,80,47196,5,0,0:0:0:0:
256,128,47332,1,0,0:0:0:0:
256,176,47468,1,0,0:0:0:0:
416,96,47741,5,0,0:0:0:0:
368,144,47878,1,0,0:0:0:0:
320,192,48014,1,0,0:0:0:0:
160,192,48287,5,0,0:0:0:0:
208,144,48423,1,0,0:0:0:0:
224,208,48560,1,0,0:0:0:0:
432,192,48832,5,0,0:0:0:0:
368,112,48969,1,0,0:0:0:0:
320,192,49105,1,0,0:0:0:0:
128,272,49378,5,0,0:0:0:0:
192,160,49514,1,0,0:0:0:0:
256,272,49650,1,0,0:0:0:0:
21,237,50196,5,0,0:0:0:0:
36,190,50287,1,0,0:0:0:0:
65,159,50366,1,0,0:0:0:0:
113,132,50469,1,0,0:0:0:0:
161,138,50560,1,0,0:0:0:0:
202,163,50650,1,0,0:0:0:0:
240,192,50741,6,0,L|352:64,1,157.500006008148
368,80,51287,2,0,L|320:256,1,175
336,256,51696,2,0,L|448:112,1,175
144,112,52378,5,0,0:0:0:0:
320,144,52514,1,0,0:0:0:0:
176,224,52650,1,0,0:0:0:0:
272,80,52787,1,0,0:0:0:0:
320,224,52923,6,0,L|160:272,1,157.500006008148
160,256,53469,2,0,L|304:144,1,175
288,128,53878,2,0,L|112:160,1,175
47,89,54287,1,0,0:0:0:0:
173,37,54423,1,0,0:0:0:0:
294,81,54560,1,0,0:0:0:0:
128,160,54832,5,0,0:0:0:0:
288,96,54969,1,0,0:0:0:0:
288,272,55105,2,0,P|240:288|192:272,1,87.5
176,192,55378,2,0,P|240:208|272:192,1,87.5
336,160,55650,6,0,P|384:208|384:240,1,87.5
336,304,55923,2,0,P|272:336|240:320,1,87.5
192,272,56196,2,0,P|144:224|144:192,1,87.5
208,144,56469,1,0,0:0:0:0:
288,112,56605,2,0,B|336:192|384:192|384:256,1,175
208,208,57014,5,0,0:0:0:0:
112,126,57150,1,0,0:0:0:0:
240,128,57287,2,0,P|288:160|400:176,1,157.500006008148
416,112,57832,6,0,P|320:64|240:64,1,175
192,192,58241,2,0,P|256:240|448:240,1,262.5
368,176,58787,1,0,0:0:0:0:
272,144,58923,1,0,0:0:0:0:
80,192,59196,1,0,0:0:0:0:
112,48,59469,6,0,B|176:64|192:128|256:80,1,157.500006008148
320,96,60014,2,0,P|368:160|288:240,1,175
256,160,60423,2,0,B|176:144|128:208|64:80,1,218.75
224,112,61105,5,0,0:0:0:0:
320,272,61241,1,0,0:0:0:0:
432,112,61378,1,0,0:0:0:0:
481,271,61514,1,0,0:0:0:0:
384,112,61650,2,0,B|320:80|288:128|288:128|224:96,1,157.500006008148
224,128,62196,6,0,B|272:176|320:176|400:128,1,175
432,208,62605,2,0,B|384:272|304:256|304:256|272:304,1,175
235,98,63014,1,0,0:0:0:0:
177,305,63150,1,0,0:0:0:0:
93,197,63287,1,0,0:0:0:0:
112,80,63423,1,0,0:0:0:0:
112,80,63560,5,0,0:0:0:0:
256,192,63696,1,0,0:0:0:0:
416,304,63832,2,0,P|448:272|448:224,1,87.5
352,240,64105,2,0,P|320:272|288:256,1,87.5
336,176,64378,6,0,P|400:176|416:208,1,87.5
480,128,64650,2,0,P|432:96|384:80,1,87.5
368,176,64923,2,0,P|320:176|272:144,1,87.5
144,32,65332,6,0,B|113:106|34:97|39:262,1,262.5
224,128,66014,2,0,B|256:176|320:144|320:144|304:208,1,157.500006008148
176,192,66560,2,0,B|224:240|256:240|288:336,1,175
336,320,66969,2,0,B|368:240|304:176|304:176|336:128,1,175
224,176,67378,5,0,0:0:0:0:
176,96,67514,1,0,0:0:0:0:
128,176,67650,1,0,0:0:0:0:
304,96,67923,1,0,0:0:0:0:
112,112,68196,1,0,0:0:0:0:
224,64,68469,6,0,P|224:112|192:160,1,87.5
320,80,68741,2,0,P|320:144|304:176,1,87.5
384,240,69014,2,0,P|416:192|416:160,1,87.5
320,176,69287,2,0,P|336:128|288:48,1,140
256,144,69696,2,0,P|208:208|240:288,1,140
288,256,70105,5,0,0:0:0:0:
352,208,70241,1,0,0:0:0:0:
400,144,70378,1,0,0:0:0:0:
208,64,70650,2,0,P|272:96|272:112,1,70
240,192,70923,2,0,P|192:176|176:160,1,70
160,272,71196,2,0,P|208:288|240:288,1,70
416,256,71469,5,0,0:0:0:0:
416,256,71605,1,0,0:0:0:0:
368,112,71878,2,0,P|288:64|176:80,1,210
128,176,72423,1,0,0:0:0:0:
224,160,72560,1,0,0:0:0:0:
432,128,72832,2,0,B|432:176|416:208|416:208,1,70
320,192,73105,2,0,P|336:144|336:112,1,70
240,112,73378,2,0,P|240:160|224:192,1,70
160,96,73650,5,0,0:0:0:0:
160,96,73787,1,0,0:0:0:0:
336,208,74060,2,0,P|272:256|144:224,1,210
176,128,74605,1,0,0:0:0:0:
256,64,74741,1,0,0:0:0:0:
416,208,75014,6,0,P|400:288|352:336,2,140
256,80,75832,1,0,0:0:0:0:
96,208,76105,6,0,P|112:288|160:336,2,140
256,80,76923,1,0,0:0:0:0:
256,80,77469,1,0,0:0:0:0:
256,80,77878,1,0,0:0:0:0:
400,144,78287,5,0,0:0:0:0:
336,64,78423,1,0,0:0:0:0:
304,160,78560,1,0,0:0:0:0:
368,240,78696,1,0,0:0:0:0:
272,256,78832,1,0,0:0:0:0:
224,48,79105,6,0,P|144:64|144:176,1,210
160,288,79650,1,0,0:0:0:0:
256,224,79787,1,0,0:0:0:0:
352,288,79923,1,0,0:0:0:0:
416,192,80059,2,0,P|368:112|384:64,1,140
272,48,80469,2,0,P|224:64|208:80,1,70
192,144,80741,2,0,P|240:144|272:112,1,70
304,192,81014,2,0,P|256:224|224:224,1,70
128,240,81287,6,0,P|176:304|304:304,1,210
384,240,81832,1,0,0:0:0:0:
368,128,81969,1,0,0:0:0:0:
288,208,82105,1,0,0:0:0:0:
208,128,82241,2,0,P|160:208|192:256,1,140
288,256,82650,2,0,P|352:240|368:224,1,70
304,192,82923,2,0,P|352:176|368:144,1,70
304,128,83196,2,0,P|352:96|368:64,1,70
272,64,83469,6,0,P|208:64|128:176,1,210
240,176,84014,1,0,0:0:0:0:
240,288,84150,1,0,0:0:0:0:
144,224,84287,1,0,0:0:0:0:
128,112,84423,2,0,P|160:64|240:48,1,140
336,112,84832,2,0,P|304:160|272:176,1,70
240,128,85105,2,0,P|224:192|240:208,1,70
336,208,85378,2,0,P|288:240|256:240,1,70
176,288,85650,1,0,0:0:0:0:
128,160,85923,5,0,0:0:0:0:
192,64,86060,1,0,0:0:0:0:
240,160,86196,1,0,0:0:0:0:
384,240,86469,1,0,0:0:0:0:
80,288,86741,6,0,P|128:272|144:256,1,70
288,192,87014,1,0,0:0:0:0:
144,128,87150,1,0,0:0:0:0:
276,46,87287,1,0,0:0:0:0:
425,111,87423,1,0,0:0:0:0:
496,259,87560,1,0,0:0:0:0:
130,216,87832,5,0,0:0:0:0:
256,192,87900,12,0,90014,0:0:0:0:
