osu file format v14

[General]
AudioFilename: Shiny Days.mp3
AudioLeadIn: 0
PreviewTime: -1
Countdown: 1
SampleSet: Soft
StackLeniency: 0.7
Mode: 0
LetterboxInBreaks: 0
WidescreenStoryboard: 1

[Editor]
DistanceSpacing: 0.9
BeatDivisor: 4
GridSize: 16
TimelineZoom: 1.9

[Metadata]
Title:Shiny Days
TitleUnicode:Shiny Days
Artist:Asaka
ArtistUnicode:Asaka
Creator:Pinecone Kun
Version:Easy
Source:
Tags:
BeatmapID:1562525
BeatmapSetID:740414

[Difficulty]
HPDrainRate:3
CircleSize:2.5
OverallDifficulty:3
ApproachRate:4
SliderMultiplier:1.4
SliderTickRate:1

[Events]
//Background and Video events
0,0,"Yuru Camp.jpg",0,0
//Break Periods
2,46305,49421
//Storyboard Layer 0 (Background)
//Storyboard Layer 1 (Fail)
//Storyboard Layer 2 (Pass)
//Storyboard Layer 3 (Foreground)
//Storyboard Sound Samples

[TimingPoints]
560,545.454545454546,4,2,0,50,1,0
49241,-100,4,2,0,70,0,0
87969,-100,4,2,0,15,0,0

[HitObjects]
128,64,560,6,0,P|112:128|112:144,2,69.9999999999999
192,176,1650,1,0,0:0:0:0:
304,192,2196,1,0,0:0:0:0:
400,160,2741,6,0,P|416:128|416:80,2,69.9999999999999
320,208,3832,1,0,0:0:0:0:
208,224,4378,1,0,0:0:0:0:
96,256,4923,6,0,P|64:288|48:320,2,69.9999999999999
192,192,6014,1,0,0:0:0:0:
320,144,6560,1,0,0:0:0:0:
384,224,7105,6,0,P|336:272|256:288,1,140
192,224,8060,1,0,0:0:0:0:
80,192,9287,6,0,P|144:144|240:112,1,175
304,96,10241,1,0,0:0:0:0:
352,240,10923,1,0,0:0:0:0:
224,256,11469,6,0,P|160:224|112:112,1,175
128,80,12423,1,0,0:0:0:0:
288,80,13105,1,0,0:0:0:0:
368,176,13650,6,0,B|304:224|240:240|192:224|192:224,1,175
144,208,14605,1,0,0:0:0:0:
256,96,15287,1,0,0:0:0:0:
288,288,16105,6,0,P|224:288|192:272,2,70
336,240,16923,1,0,0:0:0:0:
400,128,17469,1,0,0:0:0:0:
272,96,18014,5,0,0:0:0:0:
144,128,18560,2,0,P|112:160|96:208,2,70
256,80,19650,1,0,0:0:0:0:
368,128,20196,1,0,0:0:0:0:
272,208,20741,5,0,0:0:0:0:
160,256,21287,2,0,P|112:240|80:192,2,105
144,128,22650,2,0,L|96:64,2,70
272,128,23741,2,0,L|320:64,2,70
256,256,24832,6,0,P|272:288|320:320,1,70
368,320,25378,1,0,0:0:0:0:
416,272,25650,2,0,P|432:224|432:160,2,105
352,160,27014,6,0,P|304:144|256:160,1,70
224,160,27560,1,0,0:0:0:0:
176,192,27832,2,0,P|144:240|144:288,2,105
400,96,29741,5,0,0:0:0:0:
400,160,30014,2,0,P|368:208|320:240,2,105
320,96,31378,2,0,P|352:48|384:32,2,70
160,96,32469,2,0,P|128:48|96:32,2,70
64,160,33560,5,0,0:0:0:0:
112,96,33832,2,0,P|160:64|192:64,1,70
256,64,34378,2,0,P|320:80|384:112,2,105
224,128,35469,6,0,P|240:192|256:208,2,70
288,96,36287,2,0,P|320:112|352:144,1,70
320,208,36832,2,0,P|272:240|240:240,1,70
208,176,37378,6,0,P|160:160|144:144,1,70
192,80,37923,2,0,P|224:48|256:32,1,70
320,48,38469,2,0,P|340:94|319:192,1,140
268,227,39287,1,0,0:0:0:0:
193,243,39560,1,0,0:0:0:0:
112,240,39832,5,0,0:0:0:0:
144,176,40105,1,0,0:0:0:0:
192,128,40378,2,0,P|240:96|272:96,1,70
320,96,40923,2,0,P|374:114|422:146,2,105
240,96,42014,6,0,P|192:96|96:224,1,210
96,112,43650,2,0,L|96:32,2,70
160,144,44469,2,0,P|192:176|208:208,2,70
64,160,45287,2,0,P|48:192|48:240,2,70
112,96,46105,1,0,0:0:0:0:
128,128,50741,6,0,P|208:112|288:112,1,140
352,160,51696,1,0,0:0:0:0:
224,112,52378,5,0,0:0:0:0:
112,176,52923,1,0,0:0:0:0:
208,256,53469,1,0,0:0:0:0:
256,144,54014,2,0,P|288:128|400:144,1,140
384,256,55105,6,0,P|336:288|304:288,2,70
400,128,56196,2,0,P|368:80|288:64,1,140
160,80,57287,1,0,0:0:0:0:
128,208,57832,2,0,P|176:240|240:208,1,105
384,96,59469,5,0,0:0:0:0:
368,224,60014,2,0,P|320:256|256:256,1,105
128,208,61105,6,0,P|96:160|96:144,1,70
128,96,61650,1,0,0:0:0:0:
256,112,62196,2,0,P|320:144|352:176,1,105
304,288,63832,6,0,P|240:304|160:288,1,140
96,192,64923,1,0,0:0:0:0:
176,96,65469,1,0,0:0:0:0:
256,192,66014,1,0,0:0:0:0:
384,160,66560,6,0,P|400:208|384:288,1,105
176,224,68469,5,0,0:0:0:0:
208,160,68741,2,0,P|256:112|336:112,1,140
448,192,69832,1,0,0:0:0:0:
240,304,70650,6,0,P|197:318|161:319,2,70
272,224,71469,1,0,0:0:0:0:
384,128,72014,1,0,0:0:0:0:
176,112,72832,6,0,P|144:96|128:64,2,70
240,80,73650,1,0,0:0:0:0:
400,64,74196,1,0,0:0:0:0:
384,224,74741,2,0,P|352:272|272:320,1,140
128,272,75832,6,0,P|96:240|96:144,1,140
240,96,76923,1,0,0:0:0:0:
192,64,79105,6,0,P|288:80|352:144,1,175
352,192,80060,1,0,0:0:0:0:
192,224,80741,1,0,0:0:0:0:
256,112,81287,6,0,P|304:112|400:192,1,175
400,256,82241,1,0,0:0:0:0:
240,272,82923,1,0,0:0:0:0:
192,160,83469,6,0,P|272:128|368:144,1,175
400,192,84423,1,0,0:0:0:0:
240,208,85105,1,0,0:0:0:0:
400,96,85923,6,0,P|416:128|416:176,2,70
352,48,86741,1,0,0:0:0:0:
224,80,87287,1,0,0:0:0:0:
256,192,87832,1,0,0:0:0:0:
256,192,87969,12,0,90014,0:0:0:0:
