osu file format v14

[General]
AudioFilename: audio.mp3
AudioLeadIn: 0
PreviewTime: 54853
Countdown: 0
SampleSet: Soft
StackLeniency: 0.7
Mode: 0
LetterboxInBreaks: 0
WidescreenStoryboard: 0

[Editor]
Bookmarks: 6328,8172,9279,13213,17148,47517,76820,80099,86410,86492
DistanceSpacing: 1.8
BeatDivisor: 6
GridSize: 4
TimelineZoom: 3.799998

[Metadata]
Title:Seize The Day (TV Size)
TitleUnicode:Seize The Day (TV Size)
Artist:Asaka
ArtistUnicode:亜咲花
Creator:kunka
Version:Expert
Source:ゆるキャン△ SEASON2
Tags:op opening anime japanese pop jpop j-pop j_pop Yuru Camp YuruCamp YuruKyan laid-back SEASON2 sanairrt -Nanaka- kunkakunkakunkakunka
BeatmapID:2787963
BeatmapSetID:1346255

[Difficulty]
HPDrainRate:5.8
CircleSize:4.2
OverallDifficulty:8.2
ApproachRate:9
SliderMultiplier:1.9
SliderTickRate:1

[Events]
//Background and Video events
0,0,"BG.jpg",0,0
Video,0,"Seize The Day.mp4"
//Break Periods
//Storyboard Layer 0 (Background)
//Storyboard Layer 1 (Fail)
//Storyboard Layer 2 (Pass)
//Storyboard Layer 3 (Foreground)
//Storyboard Layer 4 (Overlay)
//Storyboard Sound Samples

[TimingPoints]
509,491.803278688525,4,2,1,50,1,0
509,-83.3333333333333,4,2,1,50,0,0
6164,-66.6666666666667,4,2,1,60,0,0
6533,-58.8235294117647,4,2,1,70,0,0
7025,-55.5555555555556,4,2,1,75,0,0
7517,-52.6315789473684,4,2,1,80,0,0
7886,-50,4,2,1,85,0,0
8131,-50,4,2,1,40,0,0
8377,-66.6666666666667,4,2,1,60,0,0
14279,-55.5555555555556,4,2,1,70,0,0
15386,-60.6060606060606,4,2,1,65,0,0
16246,-66.6666666666667,4,2,1,60,0,0
22640,-60.6060606060606,4,2,1,65,0,0
24115,-76.9230769230769,4,2,1,50,0,0
30017,-66.6666666666667,4,2,1,60,0,0
31984,-76.9230769230769,4,2,1,50,0,0
37886,-66.6666666666667,4,2,1,60,0,0
39853,-71.4285714285714,4,2,1,55,0,0
47476,-71.4285714285714,4,2,1,5,0,0
47517,-71.4285714285714,4,2,1,55,0,0
47722,-142.857142857143,4,2,1,50,0,0
48213,-71.4285714285714,4,2,1,55,0,0
51656,-66.6666666666667,4,2,1,60,0,0
53623,-62.5,4,2,1,65,0,0
54853,-100,4,2,1,65,0,0
55099,-142.857142857143,4,2,1,55,0,0
55590,-58.8235294117647,4,2,1,70,0,1
71328,-64.5161290322581,4,2,1,60,0,1
75263,-100,4,2,1,60,0,0
75754,-64.5161290322581,4,2,1,70,0,1
78213,-83.3333333333333,4,2,1,60,0,0
79197,-66.6666666666667,4,2,1,60,0,0
82640,-66.6666666666667,4,2,1,60,0,0
83131,-100,4,2,1,40,0,0
86328,-100,4,2,1,50,0,0

[Colours]
Combo1 : 221,77,21
Combo2 : 13,157,88
Combo3 : 4,134,166
Combo4 : 211,22,117
Combo5 : 191,191,0
Combo6 : 158,37,184

[HitObjects]
281,285,509,5,4,0:0:0:0:
256,174,754,1,0,0:0:0:0:
182,321,1000,1,8,0:1:0:0:
157,210,1246,1,0,0:0:0:0:
335,217,1492,2,0,P|340:138|273:84,1,170.999994781494
273,84,1984,1,8,0:1:0:0:
335,217,2230,1,0,0:0:0:0:
52,106,2476,5,0,0:0:0:0:
163,131,2722,1,0,0:0:0:0:
16,205,2968,1,8,0:1:0:0:
127,230,3213,1,0,0:0:0:0:
124,52,3459,2,0,P|197:21|270:68,1,170.999994781494
269,67,3951,1,8,0:1:0:0:
124,52,4197,1,0,0:0:0:0:
340,216,4443,5,4,3:2:0:0:
382,97,4689,1,0,0:0:0:0:
463,257,4935,1,8,3:1:0:0:
506,139,5180,1,0,0:0:0:0:
368,321,5427,2,0,P|293:349|229:294,1,170.999994781494,0|0,3:0|3:0,0:0:0:0:
230,295,5918,1,8,0:1:0:0:
300,137,6041,1,0,0:0:0:0:
329,159,6164,2,0,L|310:254,1,95.0000036239625,0|8,3:0|0:0,0:0:0:0:
292,348,6410,1,8,0:0:0:0:
50,253,6533,6,0,B|18:220|43:179|43:179|90:197|81:241,1,161.500003080368,4|8,3:2|0:0,0:0:0:0:
95,322,6902,1,8,0:0:0:0:
253,98,7025,6,0,B|261:144|211:163|211:163|184:120|217:86,1,170.999994781494,4|8,3:2|0:0,0:0:0:0:
255,8,7394,1,8,0:0:0:0:
391,271,7517,6,0,B|426:234|396:188|396:188|344:208|353:258,1,180.49999518013,4|0,3:2|3:0,0:0:0:0:
339,352,7886,5,12,3:2:0:0:
261,211,8009,1,12,0:0:0:0:
365,101,8131,2,0,P|371:87|381:75,5,31.6666666666667,2|2|2|2|2|2,0:0|0:0|0:0|0:0|0:0|0:0,0:0:0:0:
406,164,8377,6,0,P|326:147|278:181,1,142.500005435944,4|0,3:2|0:0,0:0:0:0:
143,198,8746,2,0,P|138:256|187:224,1,142.500005435944,2|0,3:2|0:0,0:0:0:0:
285,53,9115,1,10,0:0:0:0:
166,19,9279,2,0,L|115:16,1,47.5000018119813,2|0,0:0|0:0,0:0:0:0:
18,205,9484,1,0,3:0:0:0:
40,224,9607,2,0,P|51:256|57:293,1,71.2500027179719,2|0,3:2|0:0,0:0:0:0:
162,194,9853,2,0,P|168:159|179:125,1,71.2500027179719,10|0,0:0|0:0,0:0:0:0:
277,232,10099,2,0,P|288:267|296:304,1,71.2500027179719,2|0,3:2|0:0,0:0:0:0:
508,275,10345,6,0,P|445:242|380:266,1,142.500005435944,2|0,3:2|0:0,0:0:0:0:
288,318,10713,2,0,P|218:306|218:245,1,142.500005435944,2|0,3:2|0:0,0:0:0:0:
193,64,11082,2,0,P|130:31|65:55,1,142.500005435944,8|2,0:0|0:0,0:0:0:0:
39,272,11451,1,0,3:0:0:0:
61,289,11574,2,0,P|97:298|131:301,1,71.2500027179719,0|0,3:0|0:0,0:0:0:0:
253,213,11820,2,0,P|218:204|183:201,1,71.2500027179719,10|0,0:0|0:0,0:0:0:0:
73,89,12066,2,0,P|107:97|142:101,1,71.2500027179719,2|0,3:2|0:0,0:0:0:0:
324,47,12312,6,0,P|390:36|384:93,1,142.500005435944,2|0,3:2|0:0,0:0:0:0:
318,203,12681,2,0,P|319:264|379:247,1,142.500005435944,2|0,3:2|0:0,0:0:0:0:
510,97,13049,1,10,0:0:0:0:
451,199,13213,2,0,L|459:250,1,47.5000018119813,2|0,0:0|0:0,0:0:0:0:
332,376,13418,1,0,3:0:0:0:
309,358,13541,2,0,P|275:349|239:346,1,71.2500027179719,2|0,3:2|0:0,0:0:0:0:
170,227,13787,2,0,P|204:217|239:214,1,71.2500027179719,10|0,0:0|0:0,0:0:0:0:
333,94,14033,2,0,P|298:85|262:82,1,71.2500027179719,2|0,3:2|0:0,0:0:0:0:
56,70,14279,6,0,B|80:58|80:58|37:130|72:196,1,170.999994781494,4|0,3:2|0:0,0:0:0:0:
294,157,14648,2,0,P|259:102|254:167,1,170.999994781494,4|0,3:2|0:0,0:0:0:0:
321,354,15017,2,0,P|229:330|157:354,1,170.999994781494,12|2,0:0|0:0,0:0:0:0:
20,199,15386,1,8,0:0:0:0:
11,175,15509,2,0,P|16:135|30:97,1,78.3750007474423,8|0,0:0|0:0,0:0:0:0:
144,130,15754,2,0,P|135:166|122:204,1,78.3750007474423,10|0,0:0|0:0,0:0:0:0:
43,279,16000,2,0,P|48:316|62:355,1,78.3750007474423,0|0,3:0|0:0,0:0:0:0:
225,230,16246,6,0,P|294:221|354:257,1,142.500005435944,4|0,3:2|0:0,0:0:0:0:
481,302,16615,2,0,L|507:158,1,142.500005435944,2|0,3:2|0:0,0:0:0:0:
388,8,16984,1,10,0:0:0:0:
288,80,17148,2,0,L|295:128,1,47.5000018119813,2|0,0:0|0:0,0:0:0:0:
210,280,17353,1,0,3:0:0:0:
195,305,17476,2,0,P|199:340|208:374,1,71.2500027179719,2|0,3:2|0:0,0:0:0:0:
352,348,17722,2,0,P|348:312|338:278,1,71.2500027179719,10|0,0:0|0:0,0:0:0:0:
163,305,17968,2,0,P|167:343|176:378,1,71.2500027179719,2|0,3:2|0:0,0:0:0:0:
243,192,18213,6,0,P|192:144|123:145,1,142.500005435944,2|0,3:2|0:0,0:0:0:0:
81,267,18582,2,0,P|132:314|202:312,1,142.500005435944,2|0,3:2|0:0,0:0:0:0:
408,335,18951,2,0,P|357:288|287:290,1,142.500005435944,10|0,0:0|0:0,0:0:0:0:
93,294,19320,1,0,3:0:0:0:
81,267,19443,2,0,P|84:231|92:196,1,71.2500027179719,2|0,3:2|0:0,0:0:0:0:
201,92,19689,2,0,P|208:126|211:162,1,71.2500027179719,10|0,0:0|0:0,0:0:0:0:
315,281,19935,2,0,P|317:245|325:210,1,71.2500027179719,2|0,3:2|0:0,0:0:0:0:
463,68,20181,6,0,P|402:31|334:51,1,142.500005435944,2|0,3:2|0:0,0:0:0:0:
211,162,20549,2,0,P|161:188|178:135,1,142.500005435944,2|0,3:2|0:0,0:0:0:0:
330,143,20918,2,0,B|352:220|313:282,1,142.500005435944,8|0,0:0|0:0,0:0:0:0:
120,323,21287,1,0,3:0:0:0:
98,305,21410,2,0,P|62:297|26:294,1,71.2500027179719,2|0,3:2|0:0,0:0:0:0:
155,206,21656,2,0,P|191:198|225:195,1,71.2500027179719,10|0,0:0|0:0,0:0:0:0:
106,95,21902,2,0,P|71:87|35:84,1,71.2500027179719,2|0,3:2|0:0,0:0:0:0:
243,56,22148,6,0,P|305:84|374:64,1,142.500005435944,4|0,3:2|0:0,0:0:0:0:
252,226,22517,1,0,3:0:0:0:
242,254,22640,2,0,P|235:291|253:326,1,78.3750007474423,10|2,0:0|0:0,0:0:0:0:
395,308,22886,2,0,P|402:269|384:234,1,78.3750007474423,8|2,0:3|3:2,0:0:0:0:
299,124,23131,1,0,0:0:0:0:
117,41,23254,1,2,3:2:0:0:
144,25,23377,2,0,P|179:11|220:19,1,78.3750007474423,0|2,3:0|3:2,0:0:0:0:
373,84,23623,1,12,0:0:0:0:
404,63,24115,5,4,3:2:0:0:
473,180,24361,1,2,3:2:0:0:
356,251,24607,2,0,B|295:231|295:271|235:251,1,123.499994346619,10|2,0:0|0:0,0:0:0:0:
96,142,24976,1,8,0:0:0:0:
96,142,25099,2,0,P|92:110|106:81,1,61.7499971733095,2|8,0:0|0:0,0:0:0:0:
228,99,25345,2,0,P|231:130|217:159,1,61.7499971733095,0|2,3:0|0:0,0:0:0:0:
144,255,25590,1,8,0:0:0:0:
353,329,25836,2,0,P|383:330|411:318,1,61.7499971733095,2|2,0:0|3:2,0:0:0:0:
509,221,26082,5,2,3:2:0:0:
440,102,26328,1,2,3:2:0:0:
380,224,26574,1,10,0:0:0:0:
508,180,26820,1,2,0:0:0:0:
338,157,26943,1,8,0:0:0:0:
338,157,27066,2,0,L|273:166,1,61.7499971733095,2|8,0:0|0:0,0:0:0:0:
200,264,27312,2,0,L|135:273,1,61.7499971733095,0|2,3:0|0:0,0:0:0:0:
28,214,27558,2,0,P|2:149|23:98,1,123.499994346619,8|0,0:0|0:0,0:0:0:0:
105,1,27927,1,0,3:0:0:0:
105,1,28049,5,2,3:2:0:0:
236,44,28296,1,2,3:2:0:0:
364,1,28541,1,10,0:0:0:0:
236,44,28787,1,2,0:0:0:0:
355,184,28910,1,8,0:0:0:0:
355,184,29033,2,0,P|356:216|343:245,1,61.7499971733095,2|8,0:0|0:0,0:0:0:0:
222,221,29279,2,0,P|219:188|233:159,1,61.7499971733095,0|2,3:0|0:0,0:0:0:0:
313,68,29525,1,8,0:0:0:0:
120,193,29771,1,2,0:0:0:0:
78,40,29894,1,2,3:2:0:0:
78,40,30017,6,0,P|112:43|153:57,1,71.2500027179719,2|0,3:2|0:0,0:0:0:0:
299,136,30263,2,0,P|265:139|224:153,1,71.2500027179719,0|0,3:0|0:0,0:0:0:0:
191,314,30509,2,0,P|258:345|320:321,1,142.500005435944,10|0,0:0|0:0,0:0:0:0:
487,151,30877,1,8,0:0:0:0:
487,151,31000,2,0,L|482:222,1,71.2500027179719,2|8,0:0|0:0,0:0:0:0:
468,365,31246,1,0,3:0:0:0:
145,182,31492,1,10,0:0:0:0:
171,283,31615,1,8,0:0:0:0:
399,96,31984,5,4,3:2:0:0:
356,225,32230,1,2,3:2:0:0:
262,126,32476,1,10,0:0:0:0:
381,60,32722,1,2,0:0:0:0:
461,214,32845,1,8,0:0:0:0:
461,214,32968,2,0,P|468:240|466:274,1,61.7499971733095,2|8,0:0|0:0,0:0:0:0:
342,282,33213,2,0,P|334:254|336:221,1,61.7499971733095,0|2,3:0|0:0,0:0:0:0:
393,111,33459,1,8,0:0:0:0:
190,18,33705,2,0,P|157:20|125:32,1,61.7499971733095,2|0,0:0|3:0,0:0:0:0:
10,92,33951,5,2,3:2:0:0:
127,160,34197,1,2,3:2:0:0:
22,246,34443,1,10,0:0:0:0:
36,110,34689,1,2,0:0:0:0:
136,251,34812,1,8,0:0:0:0:
136,251,34935,2,0,P|165:260|195:254,1,61.7499971733095,2|8,0:0|0:0,0:0:0:0:
315,222,35181,2,0,P|344:215|374:224,1,61.7499971733095,0|2,3:0|0:0,0:0:0:0:
481,286,35427,1,8,0:0:0:0:
366,27,35672,2,0,L|359:90,1,61.7499971733095,2|0,0:0|3:0,0:0:0:0:
345,220,35918,5,0,3:0:0:0:
459,298,36164,1,2,3:2:0:0:
241,306,36410,1,10,0:0:0:0:
355,384,36656,1,2,0:0:0:0:
326,147,36779,1,10,0:0:0:0:
326,147,36902,2,0,P|354:142|383:154,1,61.7499971733095,2|8,0:0|0:0,0:0:0:0:
442,19,37148,2,0,L|378:29,1,61.7499971733095,2|0,3:2|0:0,0:0:0:0:
257,45,37394,1,10,0:0:0:0:
495,183,37640,2,0,P|504:211|496:242,1,61.7499971733095,2|0,0:0|3:0,0:0:0:0:
425,366,37886,5,2,3:2:0:0:
158,266,38131,1,2,3:2:0:0:
461,134,38377,1,10,0:0:0:0:
437,238,38500,2,0,B|432:275|432:275|446:308,1,71.2500027179719,2|0,0:0|0:0,0:0:0:0:
155,297,38746,2,0,L|226:288,1,71.2500027179719,2|0,3:2|0:0,0:0:0:0:
355,56,38992,2,0,L|284:65,1,71.2500027179719,2|0,3:2|0:0,0:0:0:0:
12,31,39238,1,10,0:0:0:0:
12,31,39361,2,0,P|46:22|80:31,1,71.2500027179719,8|0,0:0|0:0,0:0:0:0:
209,187,39607,2,0,P|205:220|204:260,1,71.2500027179719,2|0,3:2|0:0,0:0:0:0:
365,313,39853,6,0,P|397:256|380:190,1,132.999995941162,4|0,3:2|0:0,0:0:0:0:
328,107,40222,1,2,0:0:0:0:
301,10,40345,2,0,P|332:3|364:13,1,66.4999979705811,8|0,3:2|0:0,0:0:0:0:
328,107,40590,2,0,P|265:121|200:100,1,132.999995941162,2|2,0:0|3:2,0:0:0:0:
105,133,40959,1,8,0:0:0:0:
105,133,41082,2,0,L|94:200,1,66.4999979705811,2|0,0:0|0:0,0:0:0:0:
81,298,41328,1,8,3:2:0:0:
353,319,41574,6,0,P|294:297|229:322,1,132.999995941162,2|0,0:0|3:0,0:0:0:0:
131,335,41943,1,8,0:0:0:0:
131,335,42066,2,0,L|120:269,1,66.4999979705811,2|0,0:0|0:0,0:0:0:0:
45,202,42312,2,0,P|21:141|43:79,1,132.999995941162,10|2,3:2|0:0,0:0:0:0:
124,21,42681,1,8,0:0:0:0:
232,120,42804,2,0,L|220:188,1,66.4999979705811,2|10,3:2|0:0,0:0:0:0:
143,271,43049,2,0,L|154:338,1,66.4999979705811,2|0,0:0|0:0,0:0:0:0:
293,380,43295,2,0,L|306:311,1,66.4999979705811,10|2,3:2|0:0,0:0:0:0:
382,229,43541,2,0,L|372:161,1,66.4999979705811,2|0,0:0|0:0,0:0:0:0:
323,39,43787,6,0,P|375:44|333:81,1,132.999995941162,2|0,3:2|0:0,0:0:0:0:
236,74,44156,1,2,0:0:0:0:
142,40,44279,2,0,L|149:109,1,66.4999979705811,8|0,3:2|0:0,0:0:0:0:
224,174,44525,2,0,P|289:165|346:205,1,132.999995941162,2|2,0:0|3:2,0:0:0:0:
442,186,44894,1,8,0:0:0:0:
442,186,45017,2,0,L|435:255,1,66.4999979705811,2|0,0:0|0:0,0:0:0:0:
424,352,45263,1,8,3:2:0:0:
153,322,45509,6,0,B|93:288|84:339|25:300,1,132.999995941162,2|0,0:0|3:0,0:0:0:0:
1,204,45877,1,8,0:0:0:0:
1,204,46000,2,0,P|3:169|14:134,1,66.4999979705811,2|0,0:0|0:0,0:0:0:0:
75,60,46246,2,0,P|145:59|205:84,1,132.999995941162,10|2,3:2|0:0,0:0:0:0:
255,168,46615,1,8,0:0:0:0:
255,168,46738,2,0,L|247:240,1,66.4999979705811,2|8,3:2|0:0,0:0:0:0:
318,305,46984,2,0,L|384:297,1,66.4999979705811,2|0,0:0|0:0,0:0:0:0:
444,138,47230,2,0,P|384:98|328:113,1,132.999995941162,12|0,3:2|0:0,0:0:0:0:
287,134,47517,2,0,L|268:92,2,44.3333319803874,8|8|8,0:3|0:3|0:3,0:0:0:0:
204,148,47722,6,0,P|196:194|193:247,1,99.7499969558717,2|2,3:2|0:0,0:0:0:0:
206,262,48213,6,0,P|270:258|337:279,1,132.999995941162,4|2,3:2|0:0,0:0:0:0:
472,130,48705,2,0,P|473:163|459:197,1,66.4999979705811,2|8,3:2|0:0,0:0:0:0:
362,175,48951,2,0,P|361:142|375:108,1,66.4999979705811,2|0,0:0|0:0,0:0:0:0:
439,35,49197,1,8,3:2:0:0:
181,108,49443,6,0,P|136:135|190:153,1,132.999995941162,2|0,0:0|3:0,0:0:0:0:
285,135,49812,1,8,0:0:0:0:
285,135,49935,2,0,P|319:133|353:143,1,66.4999979705811,2|0,0:0|0:0,0:0:0:0:
369,240,50181,2,0,P|307:260|253:227,1,132.999995941162,10|2,3:2|0:0,0:0:0:0:
186,156,50549,1,8,0:0:0:0:
70,210,50672,2,0,P|52:240|56:274,1,66.4999979705811,2|8,3:2|0:0,0:0:0:0:
165,296,50918,2,0,P|181:264|178:231,1,66.4999979705811,2|0,0:0|0:0,0:0:0:0:
70,127,51164,2,0,P|54:97|55:65,1,66.4999979705811,10|8,3:2|0:3,0:0:0:0:
165,41,51410,2,0,P|182:68|180:101,1,66.4999979705811,2|0,3:2|3:0,0:0:0:0:
25,248,51656,5,12,0:0:0:0:
58,237,51779,1,2,0:0:0:0:
92,245,51902,1,2,0:0:0:0:
122,262,52025,1,2,0:0:0:0:
141,291,52148,5,10,0:0:0:0:
189,277,52271,1,2,0:0:0:0:
237,288,52394,1,10,0:0:0:0:
274,321,52517,1,2,0:0:0:0:
288,368,52640,5,10,0:0:0:0:
299,304,52763,1,2,0:0:0:0:
343,257,52886,1,10,0:0:0:0:
406,246,53009,1,2,0:0:0:0:
464,269,53131,5,10,0:0:0:0:
385,264,53254,1,2,0:0:0:0:
320,219,53377,1,2,3:2:0:0:
294,144,53500,1,2,3:2:0:0:
314,62,53623,1,2,3:2:0:0:
13,260,53869,6,0,P|51:255|91:268,1,76,12|0,0:0|0:0,0:0:0:0:
254,348,54115,2,0,P|216:353|176:340,1,76,12|0,0:0|0:0,0:0:0:0:
222,196,54361,1,12,0:0:0:0:
107,339,54484,1,12,0:0:0:0:
366,313,54853,6,0,P|385:325|403:342,1,47.5,2|0,0:0|0:0,0:0:0:0:
438,367,55099,2,0,P|460:344|489:326,1,66.4999979705811,0|0,3:0|0:0,0:0:0:0:
364,151,55590,6,0,P|295:115|214:136,1,161.500003080368,4|0,3:2|3:0,0:0:0:0:
19,275,56082,2,0,P|55:259|98:266,1,80.750001540184,10|0,0:0|0:0,0:0:0:0:
196,331,56328,1,2,0:0:0:0:
206,341,56451,1,2,0:0:0:0:
216,351,56574,2,0,P|285:387|366:366,1,161.500003080368,2|0,3:2|0:0,0:0:0:0:
480,333,56943,1,2,3:2:0:0:
432,221,57066,2,0,B|420:183|420:183|434:139,1,80.750001540184,8|0,0:0|0:0,0:0:0:0:
292,22,57312,2,0,B|228:30|228:30|212:14|212:14|136:22,1,161.500003080368,2|2,3:2|0:0,0:0:0:0:
56,112,57681,5,2,0:0:0:0:
37,144,57804,2,0,L|58:230,1,80.750001540184,2|0,3:2|0:0,0:0:0:0:
161,281,58049,2,0,L|179:203,1,80.750001540184,10|0,0:0|0:0,0:0:0:0:
349,172,58295,1,2,0:0:0:0:
356,162,58418,1,2,0:0:0:0:
363,152,58541,2,0,P|367:106|354:73,1,80.750001540184,2|0,3:2|0:0,0:0:0:0:
233,85,58787,2,0,P|228:130|241:163,1,80.750001540184,2|0,3:2|0:0,0:0:0:0:
309,263,59033,2,0,P|322:300|316:340,1,80.750001540184,10|0,0:0|0:0,0:0:0:0:
195,350,59279,2,0,P|181:312|187:272,1,80.750001540184,2|0,0:0|0:0,0:0:0:0:
240,162,59525,5,2,3:2:0:0:
419,68,59771,1,2,3:2:0:0:
429,58,59894,1,2,0:0:0:0:
439,48,60017,2,0,P|404:59|361:55,1,80.750001540184,10|0,0:0|0:0,0:0:0:0:
242,24,60263,2,0,P|204:16|161:30,1,80.750001540184,2|0,0:0|0:0,0:0:0:0:
87,179,60509,2,0,P|95:217|103:260,1,80.750001540184,2|0,3:2|0:0,0:0:0:0:
204,190,60754,2,0,P|212:150|219:111,1,80.750001540184,2|0,0:0|3:0,0:0:0:0:
321,178,61000,2,0,P|329:216|337:259,1,80.750001540184,10|0,0:0|0:0,0:0:0:0:
439,190,61246,2,0,P|447:151|455:108,1,80.750001540184,2|0,3:2|0:0,0:0:0:0:
378,15,61492,5,2,3:2:0:0:
155,175,61738,1,2,3:2:0:0:
145,165,61861,1,2,0:0:0:0:
135,155,61984,2,0,P|125:113|134:77,1,80.750001540184,10|0,0:0|0:0,0:0:0:0:
237,77,62230,2,0,P|246:118|237:154,1,80.750001540184,2|8,0:0|0:0,0:0:0:0:
187,265,62476,5,10,0:0:0:0:
333,382,62599,1,2,0:0:0:0:
360,359,62722,2,0,L|442:375,1,80.750001540184,0|0,3:0|0:0,0:0:0:0:
454,210,62968,2,0,P|416:193|378:198,1,80.750001540184,10|0,0:0|3:0,0:0:0:0:
238,304,63213,2,0,L|228:221,1,80.750001540184,0|0,3:0|0:0,0:0:0:0:
158,74,63459,6,0,P|133:17|197:42,1,161.500003080368,4|0,3:2|3:0,0:0:0:0:
395,174,63951,2,0,B|384:225|386:258,1,80.750001540184,10|0,0:0|0:0,0:0:0:0:
466,329,64197,1,2,0:0:0:0:
456,319,64320,1,2,0:0:0:0:
443,314,64443,2,0,P|385:299|287:319,1,161.500003080368,2|0,3:2|0:0,0:0:0:0:
173,364,64812,1,2,3:2:0:0:
79,287,64935,2,0,B|68:243|87:205,1,80.750001540184,8|0,0:0|0:0,0:0:0:0:
168,21,65181,2,0,B|192:37|192:37|256:11|326:47,1,161.500003080368,2|2,3:2|0:0,0:0:0:0:
444,168,65549,5,2,0:0:0:0:
462,195,65672,2,0,L|455:277,1,80.750001540184,2|0,3:2|0:0,0:0:0:0:
334,258,65918,2,0,L|326:341,1,80.750001540184,10|0,0:0|0:0,0:0:0:0:
205,349,66164,1,2,0:0:0:0:
192,341,66287,1,2,0:0:0:0:
178,337,66410,2,0,P|137:331|97:344,1,80.750001540184,2|0,3:2|0:0,0:0:0:0:
10,259,66656,2,0,P|51:265|91:252,1,80.750001540184,2|0,3:2|0:0,0:0:0:0:
172,165,66902,2,0,P|131:159|91:172,1,80.750001540184,8|0,0:0|0:0,0:0:0:0:
4,87,67148,2,0,P|45:93|85:80,1,80.750001540184,2|0,0:0|0:0,0:0:0:0:
195,36,67394,5,2,3:2:0:0:
430,93,67640,1,2,3:2:0:0:
440,103,67763,1,2,0:0:0:0:
450,113,67886,2,0,L|446:193,1,80.750001540184,10|0,0:0|0:0,0:0:0:0:
334,241,68131,2,0,P|294:229|254:234,1,80.750001540184,2|2,0:0|0:0,0:0:0:0:
245,355,68377,2,0,P|285:367|325:362,1,80.750001540184,2|0,3:2|0:0,0:0:0:0:
335,208,68623,2,0,P|295:196|255:201,1,80.750001540184,2|0,3:2|0:0,0:0:0:0:
145,251,68869,1,10,0:0:0:0:
461,42,69115,1,2,0:0:0:0:
451,34,69238,1,2,3:2:0:0:
441,28,69361,6,0,L|360:42,1,80.750001540184,2|0,3:2|0:0,0:0:0:0:
255,103,69607,2,0,L|176:92,1,80.750001540184,2|2,3:2|0:0,0:0:0:0:
53,75,69853,1,8,0:0:0:0:
115,258,69976,1,8,0:0:0:0:
138,237,70099,2,0,P|178:230|217:249,1,80.750001540184,2|8,3:2|0:3,0:0:0:0:
328,286,70345,6,0,L|335:205,1,80.750001540184,10|0,0:0|0:0,0:0:0:0:
436,41,70590,1,4,3:2:0:0:
26,206,70836,1,10,0:0:0:0:
74,98,70959,2,0,P|152:100|236:112,1,161.500003080368,4|0,3:2|0:0,0:0:0:0:
396,50,71328,6,0,B|368:122|424:122|396:194,1,147.250001123428,4|0,3:2|3:0,0:0:0:0:
272,376,71820,1,8,0:0:0:0:
57,272,72066,1,2,0:0:0:0:
67,262,72189,1,2,0:0:0:0:
77,252,72312,2,0,P|138:228|215:255,1,147.250001123428,2|0,3:2|3:0,0:0:0:0:
395,378,72804,1,8,0:0:0:0:
446,97,73049,1,2,0:0:0:0:
439,87,73172,1,2,0:0:0:0:
429,80,73295,6,0,L|357:90,1,73.6250005617142,2|0,3:2|0:0,0:0:0:0:
256,139,73541,2,0,L|184:129,1,73.6250005617142,2|0,3:2|0:0,0:0:0:0:
170,18,73787,2,0,P|231:1|305:38,1,147.250001123428,10|2,0:0|0:0,0:0:0:0:
367,127,74156,1,8,0:0:0:0:
327,229,74279,2,0,P|323:265|336:298,1,73.6250005617142,2|8,3:2|0:0,0:0:0:0:
447,284,74525,2,0,P|451:248|437:214,1,73.6250005617142,2|2,3:2|0:0,0:0:0:0:
367,127,74771,1,10,0:0:0:0:
227,225,74894,1,8,0:3:0:0:
200,238,75017,2,0,P|163:240|124:224,1,73.6250005617142,2|0,3:2|3:0,0:0:0:0:
30,100,75263,1,10,0:0:0:0:
450,19,75754,6,0,B|460:42|485:50|485:50|394:14|327:81,1,220.875001685143,4|8,3:2|0:0,0:0:0:0:
231,225,76246,1,12,0:0:0:0:
231,225,76369,2,0,P|168:196|204:147,1,147.250001123428,8|0,0:0|3:0,0:0:0:0:
359,187,76738,2,0,L|407:197,2,49.0833337078095,2|2|2,0:0|0:0|0:0,0:0:0:0:
220,47,76984,2,0,P|149:24|80:50,1,147.250001123428,4|0,3:2|0:0,0:0:0:0:
25,223,77353,5,8,0:0:0:0:
50,242,77476,2,0,P|58:278|63:315,1,73.6250005617142,2|0,3:2|3:0,0:0:0:0:
159,258,77722,2,0,P|163:221|171:185,1,73.6250005617142,2|0,3:2|3:0,0:0:0:0:
267,242,77968,2,0,P|275:278|280:315,1,73.6250005617142,2|0,3:2|3:0,0:0:0:0:
62,314,78213,5,4,0:0:0:0:
224,323,78951,2,0,P|250:314|279:314,1,56.9999982604981,0|0,3:0|0:0,0:0:0:0:
445,342,79197,6,0,P|469:278|443:210,1,142.500005435944,4|0,3:2|0:0,0:0:0:0:
338,138,79566,2,0,B|270:172|260:121|201:165,1,142.500005435944,2|0,3:2|0:0,0:0:0:0:
63,317,79935,1,10,0:0:0:0:
0,217,80099,2,0,L|12:170,1,47.5000018119813,2|0,0:0|0:0,0:0:0:0:
145,41,80304,1,0,3:0:0:0:
174,39,80427,2,0,P|205:39|241:53,1,71.2500027179719,2|0,3:2|0:0,0:0:0:0:
214,197,80672,2,0,P|182:197|146:182,1,71.2500027179719,10|0,0:0|0:0,0:0:0:0:
177,6,80918,2,0,P|208:6|244:20,1,71.2500027179719,2|0,3:2|0:0,0:0:0:0:
427,101,81164,6,0,P|354:99|290:129,1,142.500005435944,2|0,3:2|0:0,0:0:0:0:
210,229,81533,2,0,P|280:226|345:255,1,142.500005435944,2|0,3:2|0:0,0:0:0:0:
407,343,81902,2,0,P|370:342|338:357,1,71.2500027179719,8|0,0:0|0:0,0:0:0:0:
216,306,82148,5,2,0:0:0:0:
168,319,82271,1,2,3:2:0:0:
118,318,82394,1,2,3:2:0:0:
73,298,82517,1,2,0:0:0:0:
35,265,82640,5,10,0:0:0:0:
92,215,82763,1,2,0:0:0:0:
156,254,82886,1,2,0:0:0:0:
139,326,83009,1,2,0:0:0:0:
65,334,83131,5,12,0:0:0:0:
160,169,83623,1,2,0:0:0:0:
346,206,84115,2,0,B|453:228|510:121|419:116,1,190,2|0,0:0|0:0,0:0:0:0:
214,122,85099,6,0,P|200:51|253:99,1,190,2|0,0:0|0:0,0:0:0:0:
273,194,85836,1,2,0:0:0:0:
171,354,86328,2,0,P|155:359|139:368,2,31.6666666666667,0|0|0,3:0|3:0|3:0,0:0:0:0:
246,348,86574,1,4,3:2:0:0:
