osu file format v14

[General]
AudioFilename: audio.mp3
AudioLeadIn: 0
PreviewTime: 54730
Countdown: 0
SampleSet: Soft
StackLeniency: 0.7
Mode: 3
LetterboxInBreaks: 0
SpecialStyle: 0
WidescreenStoryboard: 1

[Editor]
DistanceSpacing: 0.7
BeatDivisor: 4
GridSize: 32
TimelineZoom: 1.2

[Metadata]
Title:Seize The Day (TV Size)
TitleUnicode:Seize The Day (TV Size)
Artist:Asaka
ArtistUnicode:亜咲花
Creator:Shima Rin
Version:deta's Intermediate
Source:ゆるキャン△ SEASON2
Tags:Tofu1222 deta5859 FAMoss Yuru Camp Yurucamp OP Opening 志摩リン Shima Rin Shimarin 各務原なでしこ Kagamihara Nadeshiko 大垣千明 Ohgaki Chiaki 犬山あおい Inuyama Aoi 斉藤恵那 Saito Ena 土岐綾乃 Toki Ayano Pop J-Pop JPop Anime Japanese
BeatmapID:2787364
BeatmapSetID:1345161

[Difficulty]
HPDrainRate:7.2
CircleSize:4
OverallDifficulty:7.2
ApproachRate:5
SliderMultiplier:1.4
SliderTickRate:1

[Events]
//Background and Video events
0,0,"BG.jpg",0,0
Video,0,"video.mp4"
//Break Periods
//Storyboard Layer 0 (Background)
//Storyboard Layer 1 (Fail)
//Storyboard Layer 2 (Pass)
//Storyboard Layer 3 (Foreground)
//Storyboard Layer 4 (Overlay)
//Storyboard Sound Samples
Sample,6140,0,"LR_Drum Rpd x2.wav",50
Sample,23107,0,"TOM_2.wav",50

[TimingPoints]
485,491.803278688525,4,2,1,30,1,0
4419,-100,4,2,1,40,0,0
8353,-100,4,2,1,50,0,0
55566,-100,4,2,1,50,0,1
79173,-100,4,2,1,40,0,0
83107,-100,4,2,1,30,0,0

[HitObjects]
64,192,485,5,4,0:0:0:0:
448,192,485,1,0,0:0:0:0:
320,192,730,1,0,0:0:0:0:
64,192,976,1,0,0:0:0:50:Clap.wav
192,192,976,1,0,0:0:0:0:
320,192,1222,1,0,0:0:0:0:
448,192,1468,128,0,1837:0:0:0:0:
192,192,1837,1,0,0:0:0:0:
64,192,1960,1,0,0:0:0:50:Clap.wav
320,192,2206,128,0,2452:0:0:0:0:
448,192,2452,1,0,0:0:0:0:
192,192,2698,1,0,0:0:0:0:
320,192,2944,1,0,0:0:0:50:Clap.wav
448,192,2944,1,0,0:0:0:0:
192,192,3189,1,0,0:0:0:0:
64,192,3435,128,0,3804:0:0:0:0:
320,192,3804,1,0,0:0:0:0:
448,192,3927,1,0,0:0:0:50:Clap.wav
192,192,4173,128,0,4419:0:0:0:0:
64,192,4419,1,4,0:0:0:0:
448,192,4419,1,2,0:0:0:0:
320,192,4665,1,0,0:0:0:0:
64,192,4911,1,2,0:0:0:0:
448,192,4911,1,0,0:0:0:50:Clap.wav
192,192,5157,1,0,0:0:0:0:
320,192,5403,128,2,5771:0:0:0:0:
448,192,5403,1,0,0:0:0:0:
192,192,5771,1,2,0:0:0:0:
64,192,5894,1,0,0:0:0:50:Clap.wav
448,192,6140,1,2,0:0:0:0:
320,192,6222,1,0,0:0:0:50:LR_Drum Rpd x2.wav
192,192,6304,1,0,0:0:0:50:LR_Drum Rpd x2.wav
64,192,6386,1,0,0:0:0:50:LR_Drum Rpd x2.wav
448,192,6509,128,2,6632:0:0:0:0:
320,192,6509,128,0,6632:0:0:0:0:
192,192,6755,1,0,0:0:0:50:LR_Drum Rpd x2.wav
320,192,6878,1,0,0:0:0:50:LR_Drum Rpd x2.wav
64,192,7001,128,2,7124:0:0:0:0:
448,192,7001,128,0,7124:0:0:0:0:
320,192,7247,1,0,0:0:0:50:LR_Drum Rpd x2.wav
192,192,7370,1,0,0:0:0:50:LR_Drum Rpd x2.wav
448,192,7493,128,2,7616:0:0:0:0:
64,192,7493,128,0,7616:0:0:0:50:TOM_1.wav
320,192,7739,1,0,0:0:0:50:TOM_3.wav
192,192,7862,128,2,7985:0:0:0:0:
64,192,7862,128,0,7985:0:0:0:0:
320,192,7985,128,0,8107:0:0:0:0:
448,192,7985,128,2,8107:0:0:0:0:
320,192,8353,1,4,0:0:0:0:
64,192,8353,128,2,8722:0:0:0:0:
448,192,8722,1,2,0:0:0:0:
192,192,8722,128,0,9091:0:0:0:0:
448,192,9091,128,8,10321:0:0:0:0:
320,192,9091,1,0,0:0:0:0:
192,192,9460,1,2,0:0:0:0:
320,192,9583,1,2,0:0:0:0:
64,192,9829,1,8,0:0:0:0:
192,192,9829,1,0,0:0:0:0:
320,192,10075,1,2,0:0:0:0:
64,192,10321,1,2,0:0:0:0:
192,192,10321,1,0,0:0:0:0:
192,192,10689,1,2,0:0:0:0:
320,192,10812,128,0,11304:0:0:0:0:
64,192,11058,1,8,0:0:0:0:
448,192,11058,1,0,0:0:0:0:
192,192,11304,128,0,11796:0:0:0:0:
448,192,11427,1,2,0:0:0:0:
320,192,11550,1,2,0:0:0:0:
64,192,11796,128,8,12288:0:0:0:0:
448,192,11796,1,0,0:0:0:0:
320,192,12042,1,2,0:0:0:0:
192,192,12288,1,2,0:0:0:0:
448,192,12288,128,0,13025:0:0:0:0:
192,192,12657,1,2,0:0:0:0:
64,192,13025,128,8,14255:0:0:0:0:
320,192,13025,1,0,0:0:0:0:
448,192,13394,1,2,0:0:0:0:
320,192,13517,1,2,0:0:0:0:
192,192,13763,1,8,0:0:0:0:
448,192,13763,1,0,0:0:0:0:
320,192,14009,1,2,0:0:0:0:
192,192,14255,1,2,0:0:0:0:
448,192,14255,128,0,14378:0:0:0:0:
64,192,14624,128,2,14747:0:0:0:0:
320,192,14624,1,0,0:0:0:0:
320,192,14993,128,0,15116:0:0:0:0:
192,192,14993,128,8,15116:0:0:0:0:
448,192,15239,128,0,15730:0:0:0:0:
64,192,15362,1,8,0:0:0:0:
192,192,15485,1,8,0:0:0:0:
64,192,15730,1,8,0:0:0:0:
320,192,15730,128,0,16222:0:0:0:0:
192,192,15976,1,2,0:0:0:0:
64,192,16222,128,2,16960:0:0:0:0:
448,192,16222,1,4,0:0:0:0:
320,192,16591,1,2,0:0:0:0:
192,192,16960,1,8,0:0:0:0:
448,192,16960,128,0,17698:0:0:0:0:
64,192,17329,1,2,0:0:0:0:
192,192,17452,1,2,0:0:0:0:
64,192,17698,128,8,18189:0:0:0:0:
320,192,17698,1,0,0:0:0:0:
448,192,17944,1,2,0:0:0:0:
192,192,18189,128,2,18927:0:0:0:0:
320,192,18189,1,0,0:0:0:0:
448,192,18558,1,2,0:0:0:0:
448,192,18927,128,8,19419:0:0:0:0:
64,192,18927,1,0,0:0:0:0:
192,192,19296,1,2,0:0:0:0:
320,192,19419,128,2,19665:0:0:0:0:
64,192,19665,128,8,19911:0:0:0:0:
192,192,19665,1,0,0:0:0:0:
448,192,19911,128,2,20157:0:0:0:0:
64,192,20157,1,2,0:0:0:0:
320,192,20157,128,0,20525:0:0:0:0:
192,192,20525,1,2,0:0:0:0:
448,192,20525,128,0,20894:0:0:0:0:
64,192,20894,1,8,0:0:0:0:
320,192,20894,1,0,0:0:0:0:
448,192,21263,1,2,0:0:0:0:
64,192,21386,1,2,0:0:0:0:
192,192,21632,1,8,0:0:0:0:
320,192,21632,1,0,0:0:0:0:
448,192,21878,1,2,0:0:0:0:
320,192,22001,1,0,0:0:0:0:
64,192,22124,1,2,0:0:0:0:
192,192,22124,1,4,0:0:0:0:
320,192,22493,1,2,0:0:0:0:
64,192,22616,1,8,0:0:0:0:
448,192,22616,1,0,0:0:0:0:
192,192,22862,1,0,0:0:0:50:TOM_1.wav
320,192,22985,1,0,0:0:0:50:TOM_1.wav
64,192,23107,128,2,23353:0:0:0:0:
192,192,23353,1,0,0:0:0:50:TOM_3.wav
320,192,23476,1,0,0:0:0:50:TOM_3.wav
64,192,23599,1,8,0:0:0:0:
448,192,23599,1,0,0:0:0:0:
192,192,24091,1,6,0:0:0:0:
448,192,24091,1,0,0:0:0:0:
192,192,24337,1,2,0:0:0:0:
320,192,24583,1,8,0:0:0:0:
448,192,24583,1,0,0:0:0:0:
192,192,24952,1,8,0:0:0:0:
320,192,25075,1,2,0:0:0:0:
64,192,25198,1,8,0:0:0:0:
448,192,25321,128,2,25566:0:0:0:0:
192,192,25566,1,8,0:0:0:0:
320,192,25566,1,0,0:0:0:0:
64,192,25812,1,0,0:0:0:0:
192,192,25935,1,2,0:0:0:0:
448,192,26058,1,2,0:0:0:0:
448,192,26304,1,2,0:0:0:0:
64,192,26550,1,8,0:0:0:0:
192,192,26550,1,0,0:0:0:0:
192,192,26919,1,8,0:0:0:0:
448,192,27042,1,2,0:0:0:0:
64,192,27165,1,8,0:0:0:0:
320,192,27288,128,2,27534:0:0:0:0:
192,192,27534,1,8,0:0:0:0:
64,192,27534,1,0,0:0:0:0:
448,192,27780,1,0,0:0:0:0:
320,192,27903,1,2,0:0:0:0:
192,192,28025,1,2,0:0:0:0:
192,192,28271,1,2,0:0:0:0:
64,192,28517,1,8,0:0:0:0:
448,192,28517,1,0,0:0:0:0:
448,192,28886,1,8,0:0:0:0:
64,192,29009,1,2,0:0:0:0:
320,192,29132,1,8,0:0:0:0:
192,192,29255,128,2,29501:0:0:0:0:
64,192,29501,1,8,0:0:0:0:
448,192,29501,1,0,0:0:0:0:
192,192,29747,1,0,0:0:0:0:
320,192,29870,1,2,0:0:0:0:
448,192,29993,1,2,0:0:0:0:
448,192,30239,1,2,0:0:0:0:
64,192,30485,1,8,0:0:0:0:
192,192,30485,1,0,0:0:0:0:
320,192,30853,1,8,0:0:0:0:
192,192,30976,1,2,0:0:0:0:
448,192,31099,1,8,0:0:0:0:
64,192,31222,1,2,0:0:0:0:
320,192,31468,1,8,0:0:0:0:
448,192,31468,1,0,0:0:0:0:
192,192,31591,1,8,0:0:0:0:
64,192,31591,1,0,0:0:0:0:
320,192,31960,1,2,0:0:0:0:
320,192,32206,1,2,0:0:0:0:
192,192,32452,1,8,0:0:0:0:
64,192,32452,1,0,0:0:0:0:
320,192,32821,1,8,0:0:0:0:
64,192,32944,1,2,0:0:0:0:
192,192,33066,1,8,0:0:0:0:
448,192,33189,128,2,33435:0:0:0:0:
192,192,33435,1,8,0:0:0:0:
64,192,33435,1,0,0:0:0:0:
320,192,33681,1,0,0:0:0:0:
192,192,33804,1,2,0:0:0:0:
64,192,33927,1,2,0:0:0:0:
64,192,34173,1,2,0:0:0:0:
448,192,34419,1,8,0:0:0:0:
320,192,34419,1,0,0:0:0:0:
192,192,34788,1,8,0:0:0:0:
448,192,34911,1,2,0:0:0:0:
64,192,35034,1,8,0:0:0:0:
320,192,35157,128,2,35403:0:0:0:0:
192,192,35403,1,8,0:0:0:0:
448,192,35403,1,0,0:0:0:0:
64,192,35648,1,0,0:0:0:0:
448,192,35771,1,2,0:0:0:0:
320,192,35894,1,2,0:0:0:0:
320,192,36140,1,2,0:0:0:0:
64,192,36386,1,8,0:0:0:0:
192,192,36386,1,0,0:0:0:0:
192,192,36755,1,8,0:0:0:0:
320,192,36878,1,2,0:0:0:0:
64,192,37001,1,8,0:0:0:0:
448,192,37124,128,2,37370:0:0:0:0:
192,192,37370,1,8,0:0:0:0:
320,192,37370,1,0,0:0:0:0:
64,192,37616,1,0,0:0:0:0:
192,192,37739,1,2,0:0:0:0:
448,192,37862,1,2,0:0:0:0:
64,192,38107,1,2,0:0:0:0:
192,192,38353,1,8,0:0:0:0:
320,192,38353,1,0,0:0:0:0:
448,192,38476,1,0,0:0:0:0:
64,192,38722,128,2,38845:0:0:0:0:
192,192,38722,128,0,38845:0:0:0:0:
320,192,38968,128,2,39091:0:0:0:0:
448,192,38968,128,0,39091:0:0:0:0:
64,192,39214,128,8,39337:0:0:0:0:
192,192,39214,128,0,39337:0:0:0:0:
320,192,39337,1,8,0:0:0:0:
448,192,39583,128,2,39829:0:0:0:0:
64,192,39829,128,4,40075:0:0:0:0:
320,192,39829,1,2,0:0:0:0:
64,192,40321,128,8,40566:0:0:0:0:
448,192,40321,1,0,0:0:0:70:Clap.wav
320,192,40566,1,0,0:0:0:70:LR_Drum Rpd x2.wav
448,192,40812,128,2,41058:0:0:0:0:
64,192,40935,1,8,0:0:0:0:
192,192,41058,1,0,0:0:0:0:
64,192,41304,1,8,0:0:0:0:
448,192,41304,128,0,41550:0:0:0:70:Clap.wav
320,192,41550,1,0,0:0:0:70:LR_Drum Rpd x2.wav
64,192,41796,128,2,42042:0:0:0:0:
448,192,41919,1,8,0:0:0:0:
320,192,42042,1,0,0:0:0:0:
64,192,42288,128,0,42534:0:0:0:70:Clap.wav
448,192,42288,1,0,0:0:0:0:
320,192,42411,1,8,0:0:0:0:
192,192,42534,1,0,0:0:0:70:LR_Drum Rpd x2.wav
320,192,42780,1,2,0:0:0:0:
192,192,42903,1,8,0:0:0:0:
64,192,43025,1,0,0:0:0:0:
320,192,43271,1,8,0:0:0:0:
448,192,43271,1,0,0:0:0:70:Clap.wav
192,192,43394,1,0,0:0:0:0:
64,192,43517,1,0,0:0:0:70:LR_Drum Rpd x2.wav
320,192,43763,1,2,0:0:0:0:
448,192,43763,128,0,44009:0:0:0:0:
64,192,44255,1,8,0:0:0:0:
448,192,44255,128,0,44501:0:0:0:70:Clap.wav
192,192,44501,1,0,0:0:0:70:LR_Drum Rpd x2.wav
64,192,44747,128,2,44993:0:0:0:0:
448,192,44870,1,8,0:0:0:0:
320,192,44993,1,0,0:0:0:0:
64,192,45239,128,8,45485:0:0:0:0:
448,192,45239,1,0,0:0:0:70:Clap.wav
192,192,45485,1,0,0:0:0:70:LR_Drum Rpd x2.wav
448,192,45730,128,2,45976:0:0:0:0:
64,192,45853,1,8,0:0:0:0:
192,192,45976,1,0,0:0:0:0:
64,192,46222,1,0,0:0:0:70:Clap.wav
448,192,46222,128,0,46468:0:0:0:0:
192,192,46345,1,8,0:0:0:0:
320,192,46468,1,0,0:0:0:70:LR_Drum Rpd x2.wav
64,192,46714,128,2,46960:0:0:0:0:
448,192,46960,128,0,47206:0:0:0:0:
64,192,47206,1,8,0:0:0:0:
192,192,47206,128,0,47698:0:0:0:70:Clap.wav
448,192,47452,1,0,0:0:0:70:LR_Drum Rpd x2.wav
320,192,47575,1,0,0:0:0:0:
64,192,47698,1,0,0:0:0:0:
448,192,47698,1,0,0:0:0:0:
192,192,48189,1,12,0:0:0:0:
320,192,48189,1,0,0:0:0:70:Clap.wav
64,192,48435,1,0,0:0:0:70:LR_Drum Rpd x2.wav
448,192,48681,1,2,0:0:0:0:
320,192,48804,1,8,0:0:0:0:
64,192,48927,1,0,0:0:0:0:
192,192,49173,1,8,0:0:0:0:
320,192,49173,1,0,0:0:0:70:Clap.wav
448,192,49419,1,0,0:0:0:70:LR_Drum Rpd x2.wav
192,192,49665,1,2,0:0:0:0:
320,192,49788,1,8,0:0:0:0:
448,192,49911,1,0,0:0:0:0:
64,192,50157,1,0,0:0:0:70:Clap.wav
192,192,50157,1,0,0:0:0:0:
448,192,50403,1,0,0:0:0:70:LR_Drum Rpd x2.wav
64,192,50525,1,8,0:0:0:0:
192,192,50648,1,2,0:0:0:0:
448,192,50771,1,8,0:0:0:0:
320,192,50894,1,0,0:0:0:0:
64,192,51140,1,8,0:0:0:0:
448,192,51140,1,0,0:0:0:70:Clap.wav
192,192,51263,1,0,0:0:0:50:TOM_2.wav
320,192,51386,1,0,0:0:0:50:TOM_3.wav
64,192,51632,1,4,0:0:0:0:
448,192,51632,1,8,0:0:0:0:
320,192,51878,1,8,0:0:0:0:
64,192,52001,1,0,0:0:0:0:
192,192,52124,1,8,0:0:0:0:
448,192,52370,1,8,0:0:0:0:
320,192,52493,1,0,0:0:0:0:
64,192,52616,1,8,0:0:0:0:
192,192,52616,1,0,0:0:0:0:
320,192,52862,1,8,0:0:0:0:
192,192,52985,1,0,0:0:0:0:
64,192,53107,1,8,0:0:0:0:
448,192,53107,1,0,0:0:0:0:
320,192,53353,1,8,0:0:0:0:
192,192,53435,1,8,0:0:0:0:
64,192,53517,1,8,0:0:0:0:
320,192,53599,1,2,0:0:0:0:
448,192,53599,1,0,0:0:0:0:
192,192,53845,128,8,53968:0:0:0:0:
320,192,53845,128,0,53968:0:0:0:0:
64,192,54091,128,8,54214:0:0:0:0:
192,192,54091,128,0,54214:0:0:0:0:
320,192,54337,128,8,54460:0:0:0:0:
448,192,54337,128,0,54460:0:0:0:0:
64,192,54460,128,8,54583:0:0:0:0:
192,192,54460,128,0,54583:0:0:0:0:
448,192,55075,1,2,0:0:0:0:
64,192,55566,1,4,0:0:0:0:
320,192,55566,1,2,0:0:0:0:
64,192,55812,1,2,0:0:0:0:
448,192,56058,1,8,0:0:0:0:
320,192,56181,1,0,0:0:0:70:LR_Drum Rpd x2.wav
192,192,56304,1,0,0:0:0:0:
64,192,56427,1,8,0:0:0:0:
320,192,56550,1,2,0:0:0:0:
448,192,56550,1,0,0:0:0:0:
192,192,56919,1,2,0:0:0:0:
64,192,57042,1,8,0:0:0:0:
448,192,57042,1,0,0:0:0:0:
192,192,57288,128,2,57780:0:0:0:0:
320,192,57288,1,4,0:0:0:0:
448,192,57657,1,8,0:0:0:0:
320,192,57780,1,2,0:0:0:0:
64,192,58025,1,8,0:0:0:0:
192,192,58025,1,0,0:0:0:0:
448,192,58271,1,0,0:0:0:70:LR_Drum Rpd x2.wav
192,192,58517,1,2,0:0:0:0:
320,192,58640,1,8,0:0:0:0:
448,192,58763,1,2,0:0:0:0:
64,192,59009,1,8,0:0:0:0:
192,192,59009,1,0,0:0:0:0:
320,192,59255,1,0,0:0:0:70:LR_Drum Rpd x2.wav
448,192,59501,1,2,0:0:0:0:
448,192,59747,1,2,0:0:0:0:
192,192,59993,1,8,0:0:0:0:
320,192,59993,1,0,0:0:0:0:
64,192,60116,1,0,0:0:0:70:LR_Drum Rpd x2.wav
448,192,60239,1,0,0:0:0:0:
192,192,60485,1,2,0:0:0:0:
448,192,60730,1,0,0:0:0:0:
320,192,60853,1,2,0:0:0:0:
64,192,60976,1,8,0:0:0:0:
192,192,60976,1,0,0:0:0:0:
448,192,61222,1,8,0:0:0:0:
192,192,61468,1,2,0:0:0:0:
192,192,61714,1,2,0:0:0:0:
320,192,61960,1,8,0:0:0:0:
448,192,61960,1,0,0:0:0:0:
64,192,62206,1,0,0:0:0:70:LR_Drum Rpd x2.wav
192,192,62329,1,8,0:0:0:0:
320,192,62452,128,8,62698:0:0:0:0:
448,192,62452,128,0,62698:0:0:0:0:
64,192,62698,1,2,0:0:0:50:TOM_1.wav
64,192,62944,128,8,63189:0:0:0:0:
192,192,62944,128,0,63189:0:0:0:0:
448,192,63066,1,0,0:0:0:50:TOM_2.wav
320,192,63189,1,0,0:0:0:50:TOM_3.wav
448,192,63435,1,6,0:0:0:0:
64,192,63435,1,0,0:0:0:0:
448,192,63681,1,2,0:0:0:0:
64,192,63927,1,8,0:0:0:0:
192,192,63927,1,0,0:0:0:0:
448,192,64050,1,0,0:0:0:70:LR_Drum Rpd x2.wav
320,192,64173,1,0,0:0:0:0:
192,192,64296,1,8,0:0:0:0:
64,192,64419,1,2,0:0:0:0:
192,192,64788,1,2,0:0:0:0:
64,192,64911,1,8,0:0:0:0:
448,192,64911,1,0,0:0:0:0:
192,192,65157,1,4,0:0:0:0:
320,192,65157,128,2,65648:0:0:0:0:
64,192,65525,1,8,0:0:0:0:
192,192,65648,1,2,0:0:0:0:
320,192,65894,1,8,0:0:0:0:
448,192,65894,1,0,0:0:0:0:
64,192,66140,1,0,0:0:0:70:LR_Drum Rpd x2.wav
448,192,66386,1,2,0:0:0:0:
320,192,66509,1,8,0:0:0:0:
192,192,66632,1,2,0:0:0:0:
64,192,66878,1,8,0:0:0:0:
320,192,66878,1,0,0:0:0:0:
448,192,67124,1,0,0:0:0:70:LR_Drum Rpd x2.wav
192,192,67370,1,2,0:0:0:0:
192,192,67616,1,2,0:0:0:0:
320,192,67862,128,8,68107:0:0:0:0:
448,192,67862,128,0,68107:0:0:0:0:
64,192,68107,1,0,0:0:0:0:
192,192,68230,1,8,0:0:0:0:
320,192,68353,1,2,0:0:0:0:
320,192,68599,1,2,0:0:0:0:
64,192,68845,128,8,69091:0:0:0:0:
192,192,68845,128,0,69091:0:0:0:0:
448,192,69091,1,8,0:0:0:0:
320,192,69214,1,2,0:0:0:0:
192,192,69337,1,2,0:0:0:0:
192,192,69583,1,2,0:0:0:0:
64,192,69829,1,8,0:0:0:0:
448,192,69829,1,0,0:0:0:0:
320,192,69952,1,8,0:0:0:0:
192,192,70075,1,0,0:0:0:0:
64,192,70198,1,2,0:0:0:50:TOM_1.wav
448,192,70321,1,0,0:0:0:50:TOM_2.wav
320,192,70566,128,8,70689:0:0:0:0:
192,192,70566,128,0,70689:0:0:0:0:
448,192,70812,1,8,0:0:0:0:
64,192,70935,128,8,71058:0:0:0:0:
192,192,70935,128,4,71058:0:0:0:0:
448,192,71304,1,6,0:0:0:0:
64,192,71304,1,0,0:0:0:0:
448,192,71550,1,2,0:0:0:0:
64,192,71796,1,8,0:0:0:0:
192,192,71796,1,0,0:0:0:0:
448,192,72042,1,0,0:0:0:0:
320,192,72165,1,0,0:0:0:70:LR_Drum Rpd x2.wav
64,192,72288,1,2,0:0:0:0:
64,192,72534,1,2,0:0:0:0:
320,192,72780,1,8,0:0:0:0:
448,192,72780,1,0,0:0:0:0:
64,192,73025,1,2,0:0:0:0:
192,192,73148,1,0,0:0:0:70:LR_Drum Rpd x2.wav
320,192,73271,1,2,0:0:0:0:
320,192,73517,1,2,0:0:0:0:
64,192,73763,1,8,0:0:0:0:
448,192,73763,1,0,0:0:0:0:
320,192,74009,1,0,0:0:0:0:
192,192,74132,1,0,0:0:0:70:LR_Drum Rpd x2.wav
448,192,74255,1,2,0:0:0:0:
64,192,74501,1,2,0:0:0:0:
448,192,74747,1,8,0:0:0:0:
320,192,74870,1,0,0:0:0:50:TOM_1.wav
64,192,74993,1,0,0:0:0:50:TOM_2.wav
192,192,75116,1,0,0:0:0:50:TOM_3.wav
320,192,75239,1,8,0:0:0:0:
448,192,75239,1,0,0:0:0:0:
192,192,75730,1,2,0:0:0:0:
320,192,75730,1,4,0:0:0:0:
64,192,76099,1,0,0:0:0:50:TOM_1.wav
192,192,76222,1,8,0:0:0:0:
320,192,76222,1,0,0:0:0:0:
448,192,76345,1,0,0:0:0:50:TOM_2.wav
192,192,76591,1,0,0:0:0:50:TOM_3.wav
64,192,76714,1,8,0:0:0:0:
192,192,76960,1,8,0:0:0:0:
448,192,76960,1,4,0:0:0:0:
320,192,77329,1,8,0:0:0:0:
192,192,77452,1,0,0:0:0:50:TOM_1.wav
448,192,77575,1,0,0:0:0:50:TOM_1.wav
64,192,77698,1,0,0:0:0:50:TOM_2.wav
320,192,77821,1,0,0:0:0:70:LR_Drum Rpd x2.wav
192,192,77944,1,0,0:0:0:50:TOM_3.wav
448,192,78066,1,0,0:0:0:50:TOM_4.wav
64,192,78189,1,8,0:0:0:0:
320,192,78189,1,0,0:0:0:0:
448,192,78927,128,0,79173:0:0:0:0:
320,192,79173,1,4,0:0:0:0:
64,192,79173,128,2,79542:0:0:0:0:
192,192,79542,128,2,79911:0:0:0:0:
448,192,79542,1,0,0:0:0:0:
448,192,79911,128,8,81140:0:0:0:0:
320,192,79911,1,0,0:0:0:0:
64,192,80280,1,2,0:0:0:0:
192,192,80403,1,2,0:0:0:0:
64,192,80648,1,8,0:0:0:0:
320,192,80648,1,0,0:0:0:0:
192,192,80894,1,2,0:0:0:0:
320,192,81140,1,2,0:0:0:0:
192,192,81386,1,0,0:0:0:0:
64,192,81509,1,2,0:0:0:0:
448,192,81755,1,0,0:0:0:0:
192,192,81878,1,8,0:0:0:0:
320,192,81878,1,0,0:0:0:0:
64,192,82124,128,0,82370:0:0:0:0:
320,192,82370,128,2,82616:0:0:0:0:
64,192,82616,1,8,0:0:0:0:
192,192,82616,128,0,82862:0:0:0:0:
448,192,82862,128,2,83107:0:0:0:0:
64,192,83107,128,2,83353:0:0:0:0:
192,192,83107,128,0,83353:0:0:0:0:
320,192,83599,1,0,0:0:0:0:
192,192,84091,1,0,0:0:0:0:
320,192,85075,1,0,0:0:0:0:
448,192,85812,1,0,0:0:0:0:
64,192,86304,1,0,0:0:0:50:TOM_1.wav
192,192,86386,1,0,0:0:0:50:TOM_2.wav
320,192,86468,1,0,0:0:0:50:TOM_3.wav
448,192,86550,128,0,86796:0:0:0:0:
64,192,86550,1,0,0:0:0:50:TOM_4.wav
