osu file format v14

[General]
AudioFilename: audio.mp3
AudioLeadIn: 0
PreviewTime: 54705
Countdown: 0
SampleSet: Normal
StackLeniency: 0.7
Mode: 1
LetterboxInBreaks: 0
WidescreenStoryboard: 0

[Editor]
DistanceSpacing: 1.2
BeatDivisor: 4
GridSize: 32
TimelineZoom: 1.5

[Metadata]
Title:Seize The Day (TV Size)
TitleUnicode:Seize The Day (TV Size)
Artist:Asaka
ArtistUnicode:亜咲花
Creator:Peaceful
Version:ILOVEMARISA's Muzukashii
Source:ゆるキャン△ SEASON2
Tags:Yurucamp yurukyan Laid-Back Opening J-Pop JPop Anime Japanese Seren58 ILOVEMARISA XK2238 x_a_v_y xavy MetalStream
BeatmapID:2906268
BeatmapSetID:1409231

[Difficulty]
HPDrainRate:6
CircleSize:5
OverallDifficulty:4
ApproachRate:5
SliderMultiplier:1.4
SliderTickRate:1

[Events]
//Background and Video events
0,0,"stretched-1920-1080-902877.png",0,-96
//Break Periods
//Storyboard Layer 0 (Background)
//Storyboard Layer 1 (Fail)
//Storyboard Layer 2 (Pass)
//Storyboard Layer 3 (Foreground)
//Storyboard Layer 4 (Overlay)
//Storyboard Sound Samples

[TimingPoints]
484,491.803278688525,4,1,0,60,1,0
4295,-100,4,1,0,70,0,0
8230,-100,4,1,0,80,0,0
55565,-100,4,1,0,80,0,1
79172,-100,4,1,0,80,0,0

[HitObjects]
256,192,484,5,0,0:0:0:0:
256,192,975,1,0,0:0:0:0:
256,192,1467,1,8,0:0:0:0:
256,192,1836,1,0,0:0:0:0:
256,192,2205,1,0,0:0:0:0:
256,192,2451,1,8,0:0:0:0:
256,192,2943,1,8,0:0:0:0:
256,192,3434,1,0,0:0:0:0:
256,192,3803,1,8,0:0:0:0:
256,192,4172,1,8,0:0:0:0:
256,192,4418,1,0,0:0:0:0:
256,192,4910,1,0,0:0:0:0:
256,192,5402,1,8,0:0:0:0:
256,192,5770,1,0,0:0:0:0:
256,192,6139,1,0,0:0:0:0:
256,192,6508,1,12,0:0:0:0:
256,192,7000,1,12,0:0:0:0:
256,192,7492,1,12,0:0:0:0:
256,192,7861,1,8,0:0:0:0:
256,192,7984,1,8,0:0:0:0:
256,192,8352,1,12,0:0:0:0:
256,192,8721,1,0,0:0:0:0:
256,192,9090,1,8,0:0:0:0:
256,192,9213,1,8,0:0:0:0:
256,192,9582,1,0,0:0:0:0:
256,192,9828,1,8,0:0:0:0:
256,192,10074,1,0,0:0:0:0:
256,192,10320,1,8,0:0:0:0:
256,192,10688,1,8,0:0:0:0:
256,192,11057,1,0,0:0:0:0:
256,192,11303,1,8,0:0:0:0:
256,192,11549,1,0,0:0:0:0:
256,192,11795,1,8,0:0:0:0:
256,192,12287,1,8,0:0:0:0:
256,192,12656,1,0,0:0:0:0:
256,192,13024,1,8,0:0:0:0:
256,192,13147,1,8,0:0:0:0:
256,192,13516,1,0,0:0:0:0:
256,192,13762,1,8,0:0:0:0:
256,192,14008,1,8,0:0:0:0:
256,192,14254,1,0,0:0:0:0:
256,192,14623,1,0,0:0:0:0:
256,192,14992,1,12,0:0:0:0:
256,192,15361,1,0,0:0:0:0:
256,192,15484,1,0,0:0:0:0:
256,192,15729,1,8,0:0:0:0:
256,192,15975,1,0,0:0:0:0:
256,192,16221,1,12,0:0:0:0:
256,192,16590,1,0,0:0:0:0:
256,192,16959,1,8,0:0:0:0:
256,192,17082,1,8,0:0:0:0:
256,192,17451,1,0,0:0:0:0:
256,192,17697,1,8,0:0:0:0:
256,192,17943,1,0,0:0:0:0:
256,192,18188,1,8,0:0:0:0:
256,192,18557,1,8,0:0:0:0:
256,192,18926,1,12,0:0:0:0:
256,192,19418,1,8,0:0:0:0:
256,192,19664,1,0,0:0:0:0:
256,192,19910,1,8,0:0:0:0:
256,192,20156,1,0,0:0:0:0:
256,192,20524,1,8,0:0:0:0:
256,192,20893,1,0,0:0:0:0:
256,192,21016,1,0,0:0:0:0:
256,192,21385,1,0,0:0:0:0:
256,192,21631,1,8,0:0:0:0:
256,192,21877,1,0,0:0:0:0:
256,192,22123,1,8,0:0:0:0:
256,192,22492,1,0,0:0:0:0:
256,192,22615,1,8,0:0:0:0:
256,192,22861,1,0,0:0:0:0:
256,192,22984,1,0,0:0:0:0:
256,192,23229,1,8,0:0:0:0:
256,192,23475,1,0,0:0:0:0:
256,192,23598,1,8,0:0:0:0:
256,192,24090,1,0,0:0:0:0:
256,192,24336,1,0,0:0:0:0:
256,192,24582,1,8,0:0:0:0:
256,192,24828,1,8,0:0:0:0:
256,192,25074,1,0,0:0:0:0:
256,192,25443,1,0,0:0:0:0:
256,192,25565,1,8,0:0:0:0:
256,192,26057,1,0,0:0:0:0:
256,192,26303,1,0,0:0:0:0:
256,192,26549,1,8,0:0:0:0:
256,192,26795,1,8,0:0:0:0:
256,192,27041,1,0,0:0:0:0:
256,192,27410,1,0,0:0:0:0:
256,192,27533,1,8,0:0:0:0:
256,192,28024,1,0,0:0:0:0:
256,192,28270,1,0,0:0:0:0:
256,192,28516,1,8,0:0:0:0:
256,192,28762,1,0,0:0:0:0:
256,192,29008,1,8,0:0:0:0:
256,192,29377,1,0,0:0:0:0:
256,192,29500,1,8,0:0:0:0:
256,192,29746,1,0,0:0:0:0:
256,192,29992,1,8,0:0:0:0:
256,192,30484,1,0,0:0:0:0:
256,192,30975,1,8,0:0:0:0:
256,192,31221,1,0,0:0:0:0:
256,192,31467,1,8,0:0:0:0:
256,192,31959,1,0,0:0:0:0:
256,192,32205,1,0,0:0:0:0:
256,192,32451,1,8,0:0:0:0:
256,192,32697,1,8,0:0:0:0:
256,192,32943,1,0,0:0:0:0:
256,192,33311,1,0,0:0:0:0:
256,192,33434,1,8,0:0:0:0:
256,192,33926,1,0,0:0:0:0:
256,192,34172,1,0,0:0:0:0:
256,192,34418,1,8,0:0:0:0:
256,192,34664,1,8,0:0:0:0:
256,192,34910,1,0,0:0:0:0:
256,192,35279,1,0,0:0:0:0:
256,192,35402,1,8,0:0:0:0:
256,192,35893,1,0,0:0:0:0:
256,192,36139,1,0,0:0:0:0:
256,192,36385,1,8,0:0:0:0:
256,192,36631,1,0,0:0:0:0:
256,192,36754,1,8,0:0:0:0:
256,192,37123,1,0,0:0:0:0:
256,192,37369,1,8,0:0:0:0:
256,192,37615,1,0,0:0:0:0:
256,192,37861,1,0,0:0:0:0:
256,192,38106,1,8,0:0:0:0:
256,192,38352,1,8,0:0:0:0:
256,192,38475,1,8,0:0:0:0:
256,192,38721,1,0,0:0:0:0:
256,192,38967,1,8,0:0:0:0:
256,192,39213,1,8,0:0:0:0:
256,192,39459,1,0,0:0:0:0:
256,192,39582,1,8,0:0:0:0:
256,192,39828,1,0,0:0:0:0:
256,192,40197,1,8,0:0:0:0:
256,192,40565,1,0,0:0:0:0:
256,192,40811,1,0,0:0:0:0:
256,192,41057,1,8,0:0:0:0:
256,192,41549,1,8,0:0:0:0:
256,192,42041,1,0,0:0:0:0:
256,192,42287,1,8,0:0:0:0:
256,192,42533,1,0,0:0:0:0:
256,192,42779,1,8,0:0:0:0:
256,192,43024,1,8,0:0:0:0:
256,192,43270,1,0,0:0:0:0:
256,192,43762,1,0,0:0:0:0:
256,192,44131,1,8,0:0:0:0:
256,192,44500,1,0,0:0:0:0:
256,192,44746,1,8,0:0:0:0:
256,192,44992,1,8,0:0:0:0:
256,192,45484,1,0,0:0:0:0:
256,192,45975,1,0,0:0:0:0:
256,192,46221,1,8,0:0:0:0:
256,192,46467,1,0,0:0:0:0:
256,192,46713,1,0,0:0:0:0:
256,192,46959,1,8,0:0:0:0:
256,192,47205,1,8,0:0:0:0:
256,192,47697,1,0,0:0:0:0:
256,192,48188,1,12,0:0:0:0:
256,192,48434,1,0,0:0:0:0:
256,192,48680,1,0,0:0:0:0:
256,192,48926,1,8,0:0:0:0:
256,192,49418,1,8,0:0:0:0:
256,192,49910,1,0,0:0:0:0:
256,192,50156,1,8,0:0:0:0:
256,192,50402,1,0,0:0:0:0:
256,192,50647,1,0,0:0:0:0:
256,192,50893,1,0,0:0:0:0:
256,192,51139,1,8,0:0:0:0:
256,192,51385,1,8,0:0:0:0:
256,192,51631,1,0,0:0:0:0:
256,192,52123,1,8,0:0:0:0:
256,192,52369,1,0,0:0:0:0:
256,192,52615,1,8,0:0:0:0:
256,192,52861,1,0,0:0:0:0:
256,192,53106,1,8,0:0:0:0:
256,192,53844,5,12,0:0:0:0:
256,192,54090,1,12,0:0:0:0:
256,192,54336,1,12,0:0:0:0:
256,192,55074,1,0,0:0:0:0:
256,192,55565,1,12,0:0:0:0:
256,192,56057,1,8,0:0:0:0:
256,192,56303,1,0,0:0:0:0:
256,192,56549,1,8,0:0:0:0:
256,192,56918,1,8,0:0:0:0:
256,192,57041,1,0,0:0:0:0:
256,192,57287,1,8,0:0:0:0:
256,192,57779,1,8,0:0:0:0:
256,192,58024,1,8,0:0:0:0:
256,192,58270,1,0,0:0:0:0:
256,192,58516,1,8,0:0:0:0:
256,192,59008,1,0,0:0:0:0:
256,192,59254,1,8,0:0:0:0:
256,192,59500,1,8,0:0:0:0:
256,192,59746,1,0,0:0:0:0:
256,192,59869,1,8,0:0:0:0:
256,192,60484,1,0,0:0:0:0:
256,192,60729,1,8,0:0:0:0:
256,192,60975,1,0,0:0:0:0:
256,192,61221,1,8,0:0:0:0:
256,192,61467,1,8,0:0:0:0:
256,192,61713,1,0,0:0:0:0:
256,192,61836,1,8,0:0:0:0:
256,192,62205,1,8,0:0:0:0:
256,192,62451,1,4,0:0:0:0:
256,192,62943,1,4,0:0:0:0:
256,192,63434,1,12,0:0:0:0:
256,192,63926,1,8,0:0:0:0:
256,192,64172,1,0,0:0:0:0:
256,192,64418,1,8,0:0:0:0:
256,192,64787,1,8,0:0:0:0:
256,192,64910,1,0,0:0:0:0:
256,192,65156,1,12,0:0:0:0:
256,192,65893,1,8,0:0:0:0:
256,192,66139,1,0,0:0:0:0:
256,192,66262,1,0,0:0:0:0:
256,192,66385,1,0,0:0:0:0:
256,192,66631,1,8,0:0:0:0:
256,192,67123,1,8,0:0:0:0:
256,192,67369,1,0,0:0:0:0:
256,192,67615,1,0,0:0:0:0:
256,192,67738,1,8,0:0:0:0:
256,192,68352,1,0,0:0:0:0:
256,192,68598,1,8,0:0:0:0:
256,192,68844,1,0,0:0:0:0:
256,192,69090,1,8,0:0:0:0:
256,192,69336,1,8,0:0:0:0:
256,192,69582,1,0,0:0:0:0:
256,192,69705,1,8,0:0:0:0:
256,192,70074,1,8,0:0:0:0:
256,192,70320,1,4,0:0:0:0:
256,192,70811,1,4,0:0:0:0:
256,192,71303,1,12,0:0:0:0:
256,192,71795,1,0,0:0:0:0:
256,192,72041,1,0,0:0:0:0:
256,192,72164,1,0,0:0:0:0:
256,192,72287,1,8,0:0:0:0:
256,192,72779,1,0,0:0:0:0:
256,192,73024,1,8,0:0:0:0:
256,192,73270,1,8,0:0:0:0:
256,192,73516,1,0,0:0:0:0:
256,192,73762,1,8,0:0:0:0:
256,192,74008,1,0,0:0:0:0:
256,192,74254,1,0,0:0:0:0:
256,192,74500,1,8,0:0:0:0:
256,192,74623,1,0,0:0:0:0:
256,192,74992,1,0,0:0:0:0:
256,192,75238,1,8,0:0:0:0:
256,192,75729,1,12,0:0:0:0:
256,192,76221,1,12,0:0:0:0:
256,192,76590,1,4,0:0:0:0:
256,192,76959,1,12,0:0:0:0:
256,192,77451,1,8,0:0:0:0:
256,192,77697,1,8,0:0:0:0:
256,192,77943,1,0,0:0:0:0:
256,192,78188,1,12,0:0:0:0:
256,192,79172,1,8,0:0:0:0:
256,192,79541,1,0,0:0:0:0:
256,192,79910,1,8,0:0:0:0:
256,192,80033,1,8,0:0:0:0:
256,192,80402,1,0,0:0:0:0:
256,192,80647,1,8,0:0:0:0:
256,192,80893,1,0,0:0:0:0:
256,192,81139,1,8,0:0:0:0:
256,192,81508,1,8,0:0:0:0:
256,192,81877,1,0,0:0:0:0:
256,192,82123,1,8,0:0:0:0:
256,192,82369,1,0,0:0:0:0:
256,192,82615,1,0,0:0:0:0:
256,192,82738,1,0,0:0:0:0:
256,192,82861,1,8,0:0:0:0:
256,192,83106,1,12,0:0:0:0:
256,192,83598,1,8,0:0:0:0:
256,192,84090,1,8,0:0:0:0:
256,192,85074,1,8,0:0:0:0:
256,192,85811,1,8,0:0:0:0:
256,192,86549,1,4,0:0:0:0:
