osu file format v14

[General]
AudioFilename: audio.mp3
AudioLeadIn: 0
PreviewTime: 50266
Countdown: 0
SampleSet: None
StackLeniency: 0.2
Mode: 1
LetterboxInBreaks: 0
WidescreenStoryboard: 1

[Editor]
Bookmarks: 9357,18084,50811,68266,79175
DistanceSpacing: 2.7
BeatDivisor: 4
GridSize: 8
TimelineZoom: 1

[Metadata]
Title:SHINY DAYS ~TV size~
TitleUnicode:SHINY DAYS ~TV size~
Artist:Asaka
ArtistUnicode:Asaka
Creator:Lefafel
Version:Taiko 1/4
Source:Yuru Camp
Tags:
BeatmapID:1559562
BeatmapSetID:737220

[Difficulty]
HPDrainRate:6
CircleSize:2
OverallDifficulty:5
ApproachRate:10
SliderMultiplier:1.4
SliderTickRate:1

[Events]
//Background and Video events
0,0,"yurucamp.png",0,0
//Break Periods
//Storyboard Layer 0 (Background)
//Storyboard Layer 1 (Fail)
//Storyboard Layer 2 (Pass)
//Storyboard Layer 3 (Foreground)
//Storyboard Sound Samples

[TimingPoints]
630,545.454545454546,4,1,0,60,1,0
50811,-100,4,1,0,60,0,1
68266,-100,4,1,0,60,0,0
90084,-100,4,1,0,5,0,0

[HitObjects]
256,192,630,5,4,0:0:0:0:
256,192,902,1,0,0:0:0:0:
256,192,1175,1,8,0:0:0:0:
256,192,1448,1,0,0:0:0:0:
256,192,1584,1,8,0:0:0:0:
256,192,1857,1,8,0:0:0:0:
256,192,1993,1,0,0:0:0:0:
256,192,2130,1,0,0:0:0:0:
256,192,2266,1,8,0:0:0:0:
256,192,2675,1,8,0:0:0:0:
256,192,2811,1,0,0:0:0:0:
256,192,3084,1,0,0:0:0:0:
256,192,3357,1,8,0:0:0:0:
256,192,3630,1,0,0:0:0:0:
256,192,3766,1,8,0:0:0:0:
256,192,4039,1,8,0:0:0:0:
256,192,4175,1,0,0:0:0:0:
256,192,4311,1,0,0:0:0:0:
256,192,4448,1,8,0:0:0:0:
256,192,4720,1,8,0:0:0:0:
256,192,4857,1,8,0:0:0:0:
256,192,4993,1,0,0:0:0:0:
256,192,5266,1,0,0:0:0:0:
256,192,5539,1,8,0:0:0:0:
256,192,5811,1,0,0:0:0:0:
256,192,5948,1,8,0:0:0:0:
256,192,6220,1,8,0:0:0:0:
256,192,6357,1,8,0:0:0:0:
256,192,6493,1,0,0:0:0:0:
256,192,6630,1,8,0:0:0:0:
256,192,6902,1,0,0:0:0:0:
256,192,7039,1,0,0:0:0:0:
256,192,7175,1,12,0:0:0:0:
256,192,7720,1,12,0:0:0:0:
256,192,8130,1,4,0:0:0:0:
256,192,8402,1,0,0:0:0:0:
256,192,8539,1,8,0:0:0:0:
256,192,8675,1,8,0:0:0:0:
256,192,8811,1,0,0:0:0:0:
256,192,8948,1,8,0:0:0:0:
256,192,9084,1,0,0:0:0:0:
256,192,9357,1,4,0:0:0:0:
256,192,9630,1,0,0:0:0:0:
256,192,9766,1,8,0:0:0:0:
256,192,10039,1,0,0:0:0:0:
256,192,10311,1,0,0:0:0:0:
256,192,10584,1,0,0:0:0:0:
256,192,10720,1,8,0:0:0:0:
256,192,10857,1,8,0:0:0:0:
256,192,10993,1,0,0:0:0:0:
256,192,11266,1,8,0:0:0:0:
256,192,11539,1,4,0:0:0:0:
256,192,11811,1,8,0:0:0:0:
256,192,11948,1,8,0:0:0:0:
256,192,12220,1,8,0:0:0:0:
256,192,12493,1,0,0:0:0:0:
256,192,12766,1,0,0:0:0:0:
256,192,12902,1,8,0:0:0:0:
256,192,13039,1,8,0:0:0:0:
256,192,13175,1,0,0:0:0:0:
256,192,13448,1,8,0:0:0:0:
256,192,13720,1,4,0:0:0:0:
256,192,13993,1,8,0:0:0:0:
256,192,14130,1,0,0:0:0:0:
256,192,14402,1,0,0:0:0:0:
256,192,14675,1,8,0:0:0:0:
256,192,14948,1,8,0:0:0:0:
256,192,15084,1,0,0:0:0:0:
256,192,15220,1,0,0:0:0:0:
256,192,15357,1,8,0:0:0:0:
256,192,15630,1,0,0:0:0:0:
256,192,15902,1,4,0:0:0:0:
256,192,16175,1,0,0:0:0:0:
256,192,16311,1,0,0:0:0:0:
256,192,16448,1,8,0:0:0:0:
256,192,16720,1,0,0:0:0:0:
256,192,16993,1,12,0:0:0:0:
256,192,17130,1,0,0:0:0:0:
256,192,17266,1,0,0:0:0:0:
256,192,17539,1,12,0:0:0:0:
256,192,17811,1,8,0:0:0:0:
256,192,18084,1,4,0:0:0:0:
256,192,19175,1,0,0:0:0:0:
256,192,19584,1,8,0:0:0:0:
256,192,19902,1,8,0:0:0:0:
256,192,19993,1,0,0:0:0:0:
256,192,20448,1,0,0:0:0:0:
256,192,20539,1,8,0:0:0:0:
256,192,20811,1,8,0:0:0:0:
256,192,21084,1,0,0:0:0:0:
256,192,21357,1,0,0:0:0:0:
256,192,21766,1,0,0:0:0:0:
256,192,22084,1,0,0:0:0:0:
256,192,22175,1,8,0:0:0:0:
256,192,22630,1,0,0:0:0:0:
256,192,22720,1,8,0:0:0:0:
256,192,22993,1,8,0:0:0:0:
256,192,23266,1,0,0:0:0:0:
256,192,23811,1,8,0:0:0:0:
256,192,24084,1,8,0:0:0:0:
256,192,24357,1,0,0:0:0:0:
256,192,24630,1,4,0:0:0:0:
256,192,25175,1,0,0:0:0:0:
256,192,25720,1,0,0:0:0:0:
256,192,25857,1,0,0:0:0:0:
256,192,26130,1,8,0:0:0:0:
256,192,26198,1,8,0:0:0:0:
256,192,26266,1,8,0:0:0:0:
256,192,26539,1,0,0:0:0:0:
256,192,26811,1,0,0:0:0:0:
256,192,27357,1,8,0:0:0:0:
256,192,27630,1,0,0:0:0:0:
256,192,27902,1,8,0:0:0:0:
256,192,28039,1,0,0:0:0:0:
256,192,28311,1,0,0:0:0:0:
256,192,28584,1,8,0:0:0:0:
256,192,28720,1,0,0:0:0:0:
256,192,29130,1,0,0:0:0:0:
256,192,29266,1,8,0:0:0:0:
256,192,29539,1,8,0:0:0:0:
256,192,29811,1,0,0:0:0:0:
256,192,30084,1,8,0:0:0:0:
256,192,30220,1,0,0:0:0:0:
256,192,30493,1,8,0:0:0:0:
256,192,30766,1,8,0:0:0:0:
256,192,30902,1,0,0:0:0:0:
256,192,31175,1,4,0:0:0:0:
256,192,31448,1,8,0:0:0:0:
256,192,31720,1,0,0:0:0:0:
256,192,31993,1,0,0:0:0:0:
256,192,32266,1,4,0:0:0:0:
256,192,32539,1,8,0:0:0:0:
256,192,32811,1,0,0:0:0:0:
256,192,33084,1,0,0:0:0:0:
256,192,33357,1,12,0:0:0:0:
256,192,33630,1,0,0:0:0:0:
256,192,33902,1,0,0:0:0:0:
256,192,34039,1,8,0:0:0:0:
256,192,34175,1,0,0:0:0:0:
256,192,34448,1,0,0:0:0:0:
256,192,34584,1,0,0:0:0:0:
256,192,34857,1,0,0:0:0:0:
256,192,34993,1,0,0:0:0:0:
256,192,35266,1,8,0:0:0:0:
256,192,35402,1,8,0:0:0:0:
256,192,35539,1,0,0:0:0:0:
256,192,36630,1,0,0:0:0:0:
256,192,37720,1,0,0:0:0:0:
256,192,38811,1,8,0:0:0:0:
256,192,39357,1,8,0:0:0:0:
256,192,39902,1,0,0:0:0:0:
256,192,40993,1,8,0:0:0:0:
256,192,42084,1,0,0:0:0:0:
256,192,42630,1,0,0:0:0:0:
256,192,43175,1,0,0:0:0:0:
256,192,43720,1,0,0:0:0:0:
256,192,43993,1,0,0:0:0:0:
256,192,44266,1,12,0:0:0:0:
256,192,44539,1,0,0:0:0:0:
256,192,44811,1,0,0:0:0:0:
256,192,45084,1,12,0:0:0:0:
256,192,45357,1,0,0:0:0:0:
256,192,45630,1,0,0:0:0:0:
256,192,45902,1,8,0:0:0:0:
256,192,46175,12,0,48357,0:0:0:0:
256,192,48630,5,8,0:0:0:0:
256,192,48902,1,0,0:0:0:0:
256,192,49039,1,0,0:0:0:0:
256,192,49175,1,8,0:0:0:0:
256,192,49448,1,0,0:0:0:0:
256,192,49584,1,8,0:0:0:0:
256,192,49720,1,0,0:0:0:0:
256,192,50266,1,4,0:0:0:0:
256,192,50811,1,4,0:0:0:0:
256,192,51084,1,8,0:0:0:0:
256,192,51357,1,0,0:0:0:0:
256,192,51630,1,0,0:0:0:0:
256,192,51766,1,8,0:0:0:0:
256,192,52039,1,8,0:0:0:0:
256,192,52175,1,0,0:0:0:0:
256,192,52448,1,0,0:0:0:0:
256,192,52584,1,0,0:0:0:0:
256,192,52720,1,8,0:0:0:0:
256,192,52857,1,8,0:0:0:0:
256,192,52993,1,0,0:0:0:0:
256,192,53266,1,0,0:0:0:0:
256,192,53539,1,8,0:0:0:0:
256,192,53811,1,8,0:0:0:0:
256,192,53948,1,0,0:0:0:0:
256,192,54220,1,0,0:0:0:0:
256,192,54357,1,8,0:0:0:0:
256,192,54493,1,8,0:0:0:0:
256,192,54630,1,0,0:0:0:0:
256,192,54766,1,0,0:0:0:0:
256,192,54902,1,8,0:0:0:0:
256,192,55039,1,8,0:0:0:0:
256,192,55175,1,0,0:0:0:0:
256,192,55448,1,8,0:0:0:0:
256,192,55720,1,0,0:0:0:0:
256,192,55993,1,8,0:0:0:0:
256,192,56266,1,0,0:0:0:0:
256,192,56539,1,0,0:0:0:0:
256,192,56675,1,8,0:0:0:0:
256,192,56948,1,8,0:0:0:0:
256,192,57084,1,0,0:0:0:0:
256,192,57357,1,0,0:0:0:0:
256,192,57630,1,8,0:0:0:0:
256,192,57902,1,0,0:0:0:0:
256,192,58175,1,8,0:0:0:0:
256,192,58311,1,0,0:0:0:0:
256,192,58584,1,0,0:0:0:0:
256,192,58720,1,8,0:0:0:0:
256,192,58857,1,8,0:0:0:0:
256,192,58993,1,0,0:0:0:0:
256,192,59130,1,8,0:0:0:0:
256,192,59266,1,0,0:0:0:0:
256,192,59539,1,4,0:0:0:0:
256,192,59811,1,0,0:0:0:0:
256,192,60084,1,8,0:0:0:0:
256,192,60357,1,0,0:0:0:0:
256,192,60493,1,8,0:0:0:0:
256,192,60766,1,8,0:0:0:0:
256,192,60902,1,0,0:0:0:0:
256,192,61175,1,8,0:0:0:0:
256,192,61448,1,0,0:0:0:0:
256,192,61584,1,0,0:0:0:0:
256,192,61720,1,8,0:0:0:0:
256,192,61993,1,8,0:0:0:0:
256,192,62266,1,0,0:0:0:0:
256,192,62539,1,0,0:0:0:0:
256,192,62675,1,8,0:0:0:0:
256,192,62948,1,0,0:0:0:0:
256,192,63084,1,8,0:0:0:0:
256,192,63220,1,8,0:0:0:0:
256,192,63357,1,0,0:0:0:0:
256,192,63493,1,0,0:0:0:0:
256,192,63630,1,8,0:0:0:0:
256,192,63766,1,8,0:0:0:0:
256,192,63902,1,0,0:0:0:0:
256,192,64175,1,0,0:0:0:0:
256,192,64448,1,8,0:0:0:0:
256,192,64720,1,0,0:0:0:0:
256,192,64993,1,8,0:0:0:0:
256,192,65130,1,0,0:0:0:0:
256,192,65402,1,8,0:0:0:0:
256,192,65675,1,8,0:0:0:0:
256,192,65811,1,0,0:0:0:0:
256,192,66084,1,0,0:0:0:0:
256,192,66220,1,8,0:0:0:0:
256,192,66357,1,0,0:0:0:0:
256,192,66630,1,0,0:0:0:0:
256,192,66902,1,0,0:0:0:0:
256,192,67039,1,8,0:0:0:0:
256,192,67311,1,8,0:0:0:0:
256,192,67584,1,0,0:0:0:0:
256,192,67720,1,8,0:0:0:0:
256,192,67857,1,8,0:0:0:0:
256,192,67993,1,0,0:0:0:0:
256,192,68266,1,4,0:0:0:0:
256,192,69357,1,4,0:0:0:0:
256,192,69766,1,4,0:0:0:0:
256,192,70039,1,0,0:0:0:0:
256,192,70175,1,8,0:0:0:0:
256,192,70448,1,4,0:0:0:0:
256,192,71539,1,4,0:0:0:0:
256,192,71675,1,0,0:0:0:0:
256,192,71948,1,0,0:0:0:0:
256,192,72084,1,8,0:0:0:0:
256,192,72220,1,8,0:0:0:0:
256,192,72357,1,0,0:0:0:0:
256,192,72630,1,4,0:0:0:0:
256,192,73448,1,0,0:0:0:0:
256,192,73720,1,4,0:0:0:0:
256,192,74130,1,0,0:0:0:0:
256,192,74266,1,8,0:0:0:0:
256,192,74402,1,8,0:0:0:0:
256,192,74539,1,0,0:0:0:0:
256,192,74811,1,4,0:0:0:0:
256,192,75084,1,8,0:0:0:0:
256,192,75357,1,0,0:0:0:0:
256,192,75493,1,0,0:0:0:0:
256,192,75630,1,8,0:0:0:0:
256,192,75902,1,8,0:0:0:0:
256,192,76175,1,0,0:0:0:0:
256,192,76448,1,8,0:0:0:0:
256,192,76584,1,8,0:0:0:0:
256,192,76857,1,8,0:0:0:0:
256,192,76993,12,0,78084,0:0:0:0:
256,192,78357,5,0,0:0:0:0:
256,192,78493,1,8,0:0:0:0:
256,192,78630,1,0,0:0:0:0:
256,192,78766,1,8,0:0:0:0:
256,192,78902,1,0,0:0:0:0:
256,192,79175,1,4,0:0:0:0:
256,192,79448,1,0,0:0:0:0:
256,192,79584,1,8,0:0:0:0:
256,192,79857,1,0,0:0:0:0:
256,192,80130,1,0,0:0:0:0:
256,192,80402,1,0,0:0:0:0:
256,192,80539,1,8,0:0:0:0:
256,192,80675,1,8,0:0:0:0:
256,192,80811,1,0,0:0:0:0:
256,192,81084,1,8,0:0:0:0:
256,192,81357,1,4,0:0:0:0:
256,192,81630,1,0,0:0:0:0:
256,192,81902,1,0,0:0:0:0:
256,192,82039,1,8,0:0:0:0:
256,192,82311,1,8,0:0:0:0:
256,192,82584,1,8,0:0:0:0:
256,192,82720,1,0,0:0:0:0:
256,192,82857,1,0,0:0:0:0:
256,192,82993,1,8,0:0:0:0:
256,192,83266,1,8,0:0:0:0:
256,192,83539,1,4,0:0:0:0:
256,192,83811,1,0,0:0:0:0:
256,192,84084,1,0,0:0:0:0:
256,192,84220,1,8,0:0:0:0:
256,192,84493,1,0,0:0:0:0:
256,192,84766,1,0,0:0:0:0:
256,192,84902,1,8,0:0:0:0:
256,192,85039,1,8,0:0:0:0:
256,192,85175,1,0,0:0:0:0:
256,192,85448,1,8,0:0:0:0:
256,192,85720,1,4,0:0:0:0:
256,192,85993,1,0,0:0:0:0:
256,192,86130,1,0,0:0:0:0:
256,192,86266,1,8,0:0:0:0:
256,192,86539,1,0,0:0:0:0:
256,192,86811,1,12,0:0:0:0:
256,192,86948,1,0,0:0:0:0:
256,192,87084,1,0,0:0:0:0:
256,192,87357,1,12,0:0:0:0:
256,192,87630,1,0,0:0:0:0:
256,192,87902,12,0,90046,0:0:0:0:
