osu file format v14

[General]
AudioFilename: audio.mp3
AudioLeadIn: 0
PreviewTime: 50442
Countdown: 0
SampleSet: Normal
StackLeniency: 0.7
Mode: 3
LetterboxInBreaks: 0
SpecialStyle: 0
WidescreenStoryboard: 0

[Editor]
DistanceSpacing: 1.8
BeatDivisor: 4
GridSize: 4
TimelineZoom: 2.3

[Metadata]
Title:SHINY DAYS (TV Size)
TitleUnicode:SHINY DAYS (TV Size)
Artist:Asaka
ArtistUnicode:亜咲花
Creator:Rivals_7
Version:Standard
Source:ゆるキャン△
Tags:yuru camp opening anime japanese
BeatmapID:1816858
BeatmapSetID:869321

[Difficulty]
HPDrainRate:7
CircleSize:4
OverallDifficulty:7
ApproachRate:5
SliderMultiplier:1.4
SliderTickRate:1

[Events]
//Background and Video events
0,0,"925917.jpg",0,0
Video,0,"video.avi"
//Break Periods
//Storyboard Layer 0 (Background)
//Storyboard Layer 1 (Fail)
//Storyboard Layer 2 (Pass)
//Storyboard Layer 3 (Foreground)
//Storyboard Sound Samples

[TimingPoints]
465,545.454545454546,4,1,1,65,1,0
50646,-100,4,1,1,65,0,1
58828,-100,4,1,1,65,0,0
59374,-100,4,1,1,65,0,1
68101,-100,4,1,1,65,0,0
79010,-100,4,1,1,65,0,1
87737,-100,4,1,1,65,0,0

[HitObjects]
64,192,465,5,4,0:0:0:0:
448,192,465,1,0,0:0:0:0:
320,192,737,1,0,0:0:0:0:
192,192,1010,1,8,0:0:0:0:
448,192,1419,1,0,0:0:0:0:
448,192,1692,1,0,0:0:0:0:
64,192,1828,1,0,0:0:0:0:
320,192,2101,128,2,2646:0:0:0:0:
448,192,2101,1,0,0:0:0:0:
192,192,2646,1,2,0:0:0:0:
64,192,2919,1,0,0:0:0:0:
320,192,3192,1,8,0:0:0:0:
192,192,3601,1,0,0:0:0:0:
192,192,3874,1,0,0:0:0:0:
448,192,4010,1,0,0:0:0:0:
64,192,4283,128,2,4828:0:0:0:0:
192,192,4283,1,0,0:0:0:0:
320,192,4828,1,4,0:0:0:0:
448,192,4828,1,0,0:0:0:0:
192,192,5101,1,0,0:0:0:0:
64,192,5374,1,8,0:0:0:0:
448,192,5783,1,0,0:0:0:0:
448,192,6055,1,0,0:0:0:0:
192,192,6192,1,0,0:0:0:0:
64,192,6465,1,2,0:0:0:0:
448,192,6465,128,0,7010:0:0:0:0:
64,192,7010,1,2,0:0:0:0:
320,192,7010,128,4,7555:0:0:0:0:
64,192,7555,128,2,7965:0:0:0:0:
448,192,7555,1,4,0:0:0:0:
192,192,7965,128,2,8374:0:0:0:0:
320,192,7965,1,4,0:0:0:0:
448,192,8374,1,2,0:0:0:0:
64,192,8646,1,8,0:0:0:0:
192,192,8646,1,0,0:0:0:0:
64,192,8919,1,8,0:0:0:0:
192,192,8919,1,0,0:0:0:0:
320,192,9192,1,2,0:0:0:0:
448,192,9192,1,4,0:0:0:0:
192,192,9465,1,0,0:0:0:0:
64,192,9737,1,8,0:0:0:0:
448,192,9737,1,0,0:0:0:0:
320,192,9874,1,0,0:0:0:0:
192,192,10146,128,2,10555:0:0:0:0:
320,192,10555,1,2,0:0:0:0:
64,192,10828,1,8,0:0:0:0:
448,192,10828,1,0,0:0:0:0:
192,192,11101,1,0,0:0:0:0:
320,192,11374,1,2,0:0:0:0:
448,192,11374,1,0,0:0:0:0:
64,192,11646,1,0,0:0:0:0:
320,192,11919,1,8,0:0:0:0:
448,192,11919,1,0,0:0:0:0:
192,192,12055,1,0,0:0:0:0:
448,192,12328,128,2,12737:0:0:0:0:
64,192,12737,1,2,0:0:0:0:
192,192,13010,1,8,0:0:0:0:
320,192,13010,1,0,0:0:0:0:
192,192,13283,1,8,0:0:0:0:
320,192,13283,1,0,0:0:0:0:
64,192,13555,1,2,0:0:0:0:
448,192,13555,1,0,0:0:0:0:
320,192,13828,1,0,0:0:0:0:
64,192,14101,1,8,0:0:0:0:
192,192,14101,1,0,0:0:0:0:
448,192,14237,1,0,0:0:0:0:
320,192,14510,128,2,14919:0:0:0:0:
64,192,14919,1,2,0:0:0:0:
192,192,15192,1,8,0:0:0:0:
448,192,15192,1,0,0:0:0:0:
64,192,15465,1,8,0:0:0:0:
320,192,15465,1,0,0:0:0:0:
192,192,15737,1,4,0:0:0:0:
448,192,15737,1,2,0:0:0:0:
320,192,16010,1,0,0:0:0:0:
64,192,16283,1,8,0:0:0:0:
448,192,16283,1,0,0:0:0:0:
192,192,16555,1,8,0:0:0:0:
320,192,16555,1,0,0:0:0:0:
448,192,16828,128,8,17101:0:0:0:0:
64,192,17101,128,2,17374:0:0:0:0:
320,192,17374,128,8,17646:0:0:0:0:
192,192,17646,128,2,17919:0:0:0:0:
64,192,17919,1,2,0:0:0:0:
448,192,17919,1,4,0:0:0:0:
320,192,18192,1,0,0:0:0:0:
192,192,18465,1,2,0:0:0:0:
320,192,18737,1,0,0:0:0:0:
64,192,19010,1,0,0:0:0:0:
448,192,19146,1,0,0:0:0:0:
448,192,19419,128,0,19828:0:0:0:0:
64,192,19828,128,0,20374:0:0:0:0:
320,192,20101,1,0,0:0:0:0:
448,192,20374,1,0,0:0:0:0:
64,192,20646,1,2,0:0:0:0:
192,192,20646,1,0,0:0:0:0:
320,192,20919,1,0,0:0:0:0:
320,192,21192,128,0,21601:0:0:0:0:
64,192,21601,128,0,21874:0:0:0:0:
192,192,21874,1,0,0:0:0:0:
448,192,22010,128,0,22283:0:0:0:0:
64,192,22283,1,4,0:0:0:0:
192,192,22828,128,2,23374:0:0:0:0:
320,192,22828,1,0,0:0:0:0:
448,192,23374,1,0,0:0:0:0:
64,192,23919,128,2,24465:0:0:0:0:
320,192,23919,1,0,0:0:0:0:
192,192,24465,1,2,0:0:0:0:
448,192,24465,1,4,0:0:0:0:
320,192,25010,128,2,25555:0:0:0:0:
192,192,25555,1,2,0:0:0:0:
64,192,25726,1,8,0:0:0:0:
448,192,25726,1,0,0:0:0:0:
320,192,25965,1,0,0:0:0:0:
192,192,26101,1,8,0:0:0:0:
320,192,26237,1,0,0:0:0:0:
192,192,26374,1,8,0:0:0:0:
64,192,26646,1,2,0:0:0:0:
448,192,26646,1,0,0:0:0:0:
320,192,26919,1,0,0:0:0:0:
64,192,27192,1,8,0:0:0:0:
192,192,27192,1,0,0:0:0:0:
320,192,27465,1,0,0:0:0:0:
64,192,27737,1,2,0:0:0:0:
192,192,27737,1,0,0:0:0:0:
192,192,28146,1,0,0:0:0:0:
320,192,28146,1,0,0:0:0:0:
320,192,28555,1,0,0:0:0:0:
448,192,28555,1,0,0:0:0:0:
64,192,28828,1,2,0:0:0:0:
192,192,28828,1,0,0:0:0:0:
64,192,29101,1,2,0:0:0:0:
320,192,29374,1,8,0:0:0:0:
448,192,29374,1,0,0:0:0:0:
192,192,29510,1,2,0:0:0:0:
64,192,29919,1,2,0:0:0:0:
448,192,29919,1,0,0:0:0:0:
192,192,30192,1,0,0:0:0:0:
64,192,30465,1,8,0:0:0:0:
320,192,30465,1,0,0:0:0:0:
448,192,30737,1,0,0:0:0:0:
64,192,31010,1,2,0:0:0:0:
192,192,31010,1,0,0:0:0:0:
320,192,31283,1,0,0:0:0:0:
64,192,31555,1,8,0:0:0:0:
448,192,31555,128,0,32101:0:0:0:0:
192,192,32101,1,2,0:0:0:0:
320,192,32374,1,0,0:0:0:0:
64,192,32646,128,8,33192:0:0:0:0:
448,192,32646,1,0,0:0:0:0:
192,192,33192,1,2,0:0:0:0:
320,192,33465,1,2,0:0:0:0:
64,192,33737,1,8,0:0:0:0:
448,192,33874,1,8,0:0:0:0:
64,192,34010,1,2,0:0:0:0:
320,192,34283,1,2,0:0:0:0:
192,192,34692,1,2,0:0:0:0:
64,192,35101,1,8,0:0:0:0:
448,192,35101,1,0,0:0:0:0:
320,192,35374,128,0,36465:0:0:0:0:
192,192,36465,128,0,37555:0:0:0:0:
448,192,37555,128,0,38646:0:0:0:0:
64,192,38646,128,0,39737:0:0:0:0:
320,192,39192,1,2,0:0:0:0:
448,192,39737,128,4,40828:0:0:0:0:
64,192,40283,1,2,0:0:0:0:
192,192,41237,1,0,0:0:0:0:
448,192,41374,1,2,0:0:0:0:
320,192,41919,1,2,0:0:0:0:
64,192,42192,1,2,0:0:0:0:
192,192,42465,1,2,0:0:0:0:
320,192,42737,1,2,0:0:0:0:
448,192,43010,1,2,0:0:0:0:
192,192,43283,1,2,0:0:0:0:
64,192,43555,1,8,0:0:0:0:
320,192,43555,1,0,0:0:0:0:
192,192,43828,1,8,0:0:0:0:
448,192,43828,1,0,0:0:0:0:
64,192,44101,128,2,44646:0:0:0:0:
320,192,44101,1,0,0:0:0:0:
320,192,44646,1,8,0:0:0:0:
192,192,44919,1,2,0:0:0:0:
448,192,44919,128,0,45465:0:0:0:0:
320,192,45465,1,8,0:0:0:0:
192,192,45737,1,8,0:0:0:0:
64,192,46010,128,2,46555:0:0:0:0:
448,192,46010,1,4,0:0:0:0:
320,192,46555,1,0,0:0:0:0:
192,192,46828,1,8,0:0:0:0:
448,192,46828,1,0,0:0:0:0:
64,192,47101,1,0,0:0:0:0:
320,192,47374,1,2,0:0:0:0:
448,192,47374,1,0,0:0:0:0:
64,192,47646,1,0,0:0:0:0:
192,192,47919,1,8,0:0:0:0:
448,192,47919,1,0,0:0:0:0:
320,192,48192,1,0,0:0:0:0:
64,192,48465,1,2,0:0:0:0:
192,192,48465,1,0,0:0:0:0:
320,192,48737,1,0,0:0:0:0:
64,192,49010,1,2,0:0:0:0:
448,192,49010,1,0,0:0:0:0:
192,192,49283,128,8,49555:0:0:0:0:
64,192,49555,1,2,0:0:0:0:
448,192,49555,1,0,0:0:0:0:
64,192,50101,128,2,50646:0:0:0:0:
448,192,50101,128,0,50646:0:0:0:0:
192,192,50646,1,2,0:0:0:0:
320,192,50646,1,4,0:0:0:0:
64,192,50919,1,0,0:0:0:0:
320,192,51192,1,8,0:0:0:0:
448,192,51192,1,0,0:0:0:0:
192,192,51465,1,0,0:0:0:0:
64,192,51737,1,2,0:0:0:0:
448,192,51737,1,0,0:0:0:0:
320,192,52010,1,0,0:0:0:0:
64,192,52283,1,8,0:0:0:0:
192,192,52419,1,0,0:0:0:0:
448,192,52555,1,0,0:0:0:0:
320,192,52692,1,0,0:0:0:0:
64,192,52828,1,2,0:0:0:0:
192,192,52828,1,0,0:0:0:0:
320,192,53101,1,0,0:0:0:0:
64,192,53374,1,8,0:0:0:0:
448,192,53374,1,0,0:0:0:0:
192,192,53646,1,0,0:0:0:0:
320,192,53919,1,2,0:0:0:0:
448,192,53919,1,0,0:0:0:0:
192,192,54192,1,0,0:0:0:0:
64,192,54465,1,8,0:0:0:0:
320,192,54465,1,0,0:0:0:0:
192,192,54737,1,2,0:0:0:0:
448,192,54737,1,0,0:0:0:0:
64,192,55010,128,2,55555:0:0:0:0:
320,192,55010,1,0,0:0:0:0:
320,192,55555,1,8,0:0:0:0:
448,192,55555,128,0,56101:0:0:0:0:
64,192,56101,1,2,0:0:0:0:
192,192,56101,1,0,0:0:0:0:
320,192,56374,1,0,0:0:0:0:
64,192,56646,1,8,0:0:0:0:
448,192,56646,1,0,0:0:0:0:
192,192,56919,1,8,0:0:0:0:
320,192,56919,1,0,0:0:0:0:
64,192,57192,1,2,0:0:0:0:
448,192,57192,128,0,57737:0:0:0:0:
64,192,57737,128,8,58180:0:0:0:0:
192,192,57737,1,0,0:0:0:0:
448,192,58180,1,0,0:0:0:0:
320,192,58180,1,2,0:0:0:0:
192,192,58419,1,8,0:0:0:0:
448,192,58555,1,2,0:0:0:0:
64,192,58692,1,0,0:0:0:0:
448,192,58828,1,8,0:0:0:0:
192,192,58999,1,2,0:0:0:0:
448,192,59101,1,2,0:0:0:0:
320,192,59101,1,0,0:0:0:0:
192,192,59374,1,2,0:0:0:0:
64,192,59374,1,4,0:0:0:0:
448,192,59646,1,0,0:0:0:0:
64,192,59919,1,8,0:0:0:0:
192,192,59919,1,0,0:0:0:0:
320,192,60192,1,0,0:0:0:0:
64,192,60465,1,2,0:0:0:0:
448,192,60465,1,0,0:0:0:0:
192,192,60737,1,0,0:0:0:0:
448,192,61010,1,8,0:0:0:0:
320,192,61146,1,0,0:0:0:0:
64,192,61283,1,0,0:0:0:0:
192,192,61419,1,0,0:0:0:0:
320,192,61555,1,2,0:0:0:0:
448,192,61555,1,0,0:0:0:0:
192,192,61828,1,0,0:0:0:0:
64,192,62101,1,8,0:0:0:0:
448,192,62101,1,0,0:0:0:0:
320,192,62374,1,0,0:0:0:0:
64,192,62646,1,2,0:0:0:0:
192,192,62646,1,0,0:0:0:0:
320,192,62919,1,0,0:0:0:0:
192,192,63192,1,8,0:0:0:0:
448,192,63192,1,0,0:0:0:0:
64,192,63465,1,8,0:0:0:0:
320,192,63465,1,0,0:0:0:0:
192,192,63737,1,2,0:0:0:0:
448,192,63737,128,0,64283:0:0:0:0:
64,192,64283,128,8,64828:0:0:0:0:
192,192,64283,1,0,0:0:0:0:
320,192,64828,1,2,0:0:0:0:
448,192,64828,1,0,0:0:0:0:
192,192,65101,1,0,0:0:0:0:
64,192,65374,1,8,0:0:0:0:
448,192,65374,1,0,0:0:0:0:
192,192,65646,1,8,0:0:0:0:
320,192,65646,1,0,0:0:0:0:
64,192,65919,128,2,66465:0:0:0:0:
448,192,65919,1,0,0:0:0:0:
320,192,66465,1,2,0:0:0:0:
448,192,66465,128,0,66908:0:0:0:0:
64,192,66908,1,2,0:0:0:0:
192,192,66908,1,0,0:0:0:0:
320,192,67010,1,8,0:0:0:0:
320,192,67419,1,2,0:0:0:0:
192,192,67555,1,0,0:0:0:0:
448,192,67692,1,2,0:0:0:0:
192,192,67828,1,2,0:0:0:0:
64,192,68101,1,4,0:0:0:0:
448,192,68101,1,2,0:0:0:0:
192,192,68374,1,0,0:0:0:0:
320,192,68646,1,8,0:0:0:0:
448,192,68646,1,0,0:0:0:0:
192,192,68919,1,2,0:0:0:0:
64,192,69192,1,2,0:0:0:0:
448,192,69192,1,0,0:0:0:0:
448,192,69635,128,2,70283:0:0:0:0:
192,192,70010,1,0,0:0:0:0:
64,192,70283,1,2,0:0:0:0:
320,192,70283,1,0,0:0:0:0:
192,192,70555,1,0,0:0:0:0:
320,192,70828,1,8,0:0:0:0:
448,192,70828,1,0,0:0:0:0:
64,192,71101,1,2,0:0:0:0:
192,192,71374,1,2,0:0:0:0:
448,192,71374,1,0,0:0:0:0:
192,192,71817,128,2,72465:0:0:0:0:
320,192,72192,1,8,0:0:0:0:
64,192,72465,1,4,0:0:0:0:
448,192,72465,1,2,0:0:0:0:
320,192,72737,1,0,0:0:0:0:
64,192,73010,1,8,0:0:0:0:
448,192,73010,1,0,0:0:0:0:
192,192,73283,1,0,0:0:0:0:
320,192,73555,1,2,0:0:0:0:
448,192,73555,1,0,0:0:0:0:
320,192,73999,128,2,74646:0:0:0:0:
64,192,74374,1,8,0:0:0:0:
192,192,74646,1,4,0:0:0:0:
448,192,74646,1,2,0:0:0:0:
64,192,74919,1,0,0:0:0:0:
320,192,75192,1,8,0:0:0:0:
448,192,75192,1,0,0:0:0:0:
192,192,75465,1,0,0:0:0:0:
64,192,75737,1,2,0:0:0:0:
448,192,75737,1,0,0:0:0:0:
320,192,76010,1,0,0:0:0:0:
64,192,76283,1,8,0:0:0:0:
192,192,76283,1,0,0:0:0:0:
320,192,76555,1,0,0:0:0:0:
64,192,76828,1,2,0:0:0:0:
448,192,76828,128,0,77374:0:0:0:0:
192,192,77374,128,8,77828:0:0:0:0:
320,192,77828,128,0,78192:0:0:0:0:
64,192,78192,1,2,0:0:0:0:
448,192,78328,1,2,0:0:0:0:
64,192,78465,1,8,0:0:0:0:
320,192,78601,1,2,0:0:0:0:
192,192,78737,1,8,0:0:0:0:
64,192,79010,1,2,0:0:0:0:
448,192,79010,1,4,0:0:0:0:
320,192,79283,1,0,0:0:0:0:
64,192,79555,1,8,0:0:0:0:
448,192,79555,1,0,0:0:0:0:
192,192,79692,1,0,0:0:0:0:
320,192,79965,128,2,80374:0:0:0:0:
192,192,80374,1,2,0:0:0:0:
64,192,80646,1,8,0:0:0:0:
448,192,80646,1,0,0:0:0:0:
320,192,80919,1,0,0:0:0:0:
64,192,81192,1,2,0:0:0:0:
192,192,81192,1,0,0:0:0:0:
448,192,81465,1,0,0:0:0:0:
64,192,81737,1,8,0:0:0:0:
192,192,81737,1,0,0:0:0:0:
320,192,81874,1,0,0:0:0:0:
64,192,82146,128,2,82555:0:0:0:0:
448,192,82555,1,2,0:0:0:0:
192,192,82828,1,8,0:0:0:0:
320,192,82828,1,0,0:0:0:0:
192,192,83101,1,8,0:0:0:0:
320,192,83101,1,0,0:0:0:0:
64,192,83374,1,2,0:0:0:0:
448,192,83374,1,0,0:0:0:0:
192,192,83646,1,0,0:0:0:0:
320,192,83919,1,8,0:0:0:0:
448,192,83919,1,0,0:0:0:0:
64,192,84055,1,0,0:0:0:0:
192,192,84328,128,2,84737:0:0:0:0:
448,192,84737,1,2,0:0:0:0:
64,192,85010,1,8,0:0:0:0:
320,192,85010,1,0,0:0:0:0:
192,192,85283,1,8,0:0:0:0:
448,192,85283,1,0,0:0:0:0:
64,192,85555,1,4,0:0:0:0:
320,192,85555,1,2,0:0:0:0:
192,192,85828,1,0,0:0:0:0:
64,192,86101,1,8,0:0:0:0:
448,192,86101,1,0,0:0:0:0:
320,192,86374,1,8,0:0:0:0:
192,192,86374,1,0,0:0:0:0:
64,192,86646,128,8,86919:0:0:0:0:
448,192,86919,128,2,87192:0:0:0:0:
192,192,87192,128,8,87465:0:0:0:0:
320,192,87465,128,2,87737:0:0:0:0:
64,192,87737,128,2,89374:0:0:0:0:
448,192,87737,1,4,0:0:0:0:
