osu file format v14

[General]
AudioFilename: audio.mp3
AudioLeadIn: 0
PreviewTime: 50442
Countdown: 0
SampleSet: Normal
StackLeniency: 0.7
Mode: 3
LetterboxInBreaks: 0
SpecialStyle: 0
WidescreenStoryboard: 0

[Editor]
DistanceSpacing: 1.8
BeatDivisor: 4
GridSize: 4
TimelineZoom: 3.399999

[Metadata]
Title:SHINY DAYS (TV Size)
TitleUnicode:SHINY DAYS (TV Size)
Artist:Asaka
ArtistUnicode:亜咲花
Creator:Rivals_7
Version:Another
Source:ゆるキャン△
Tags:yuru camp opening anime japanese
BeatmapID:1816855
BeatmapSetID:869321

[Difficulty]
HPDrainRate:8
CircleSize:4
OverallDifficulty:8
ApproachRate:5
SliderMultiplier:1.4
SliderTickRate:1

[Events]
//Background and Video events
0,0,"925917.jpg",0,0
Video,0,"video.avi"
//Break Periods
//Storyboard Layer 0 (Background)
//Storyboard Layer 1 (Fail)
//Storyboard Layer 2 (Pass)
//Storyboard Layer 3 (Foreground)
//Storyboard Sound Samples

[TimingPoints]
465,545.454545454546,4,1,1,65,1,0
50646,-100,4,1,1,65,0,1
58828,-100,4,1,1,65,0,0
59374,-100,4,1,1,65,0,1
68101,-100,4,1,1,65,0,0
79010,-100,4,1,1,65,0,1
87737,-100,4,1,1,65,0,0

[HitObjects]
64,192,465,5,0,0:0:0:0:
192,192,465,1,0,0:0:0:0:
448,192,465,128,4,601:0:0:0:0:
320,192,737,128,0,874:0:0:0:0:
192,192,1010,1,0,0:0:0:0:
448,192,1010,1,0,0:0:0:0:
64,192,1010,128,8,1146:0:0:0:0:
320,192,1283,1,0,0:0:0:0:
320,192,1419,128,0,1555:0:0:0:0:
192,192,1555,1,0,0:0:0:0:
448,192,1692,128,0,1828:0:0:0:0:
64,192,1828,128,0,1965:0:0:0:0:
448,192,1965,128,0,2101:0:0:0:0:
320,192,2101,1,0,0:0:0:0:
64,192,2101,128,2,2646:0:0:0:0:
448,192,2374,1,0,0:0:0:0:
448,192,2510,1,0,0:0:0:0:
448,192,2646,128,2,2783:0:0:0:0:
192,192,2646,1,0,0:0:0:0:
64,192,2919,1,0,0:0:0:0:
320,192,2919,128,0,3055:0:0:0:0:
448,192,3192,1,0,0:0:0:0:
64,192,3192,1,0,0:0:0:0:
192,192,3192,128,8,3328:0:0:0:0:
448,192,3465,1,0,0:0:0:0:
448,192,3601,128,0,3737:0:0:0:0:
64,192,3737,1,0,0:0:0:0:
192,192,3874,128,0,4010:0:0:0:0:
320,192,4010,128,0,4146:0:0:0:0:
192,192,4146,128,0,4283:0:0:0:0:
448,192,4283,1,0,0:0:0:0:
320,192,4283,128,2,4828:0:0:0:0:
64,192,4555,1,0,0:0:0:0:
64,192,4692,1,0,0:0:0:0:
192,192,4828,128,0,4965:0:0:0:0:
448,192,4828,1,4,0:0:0:0:
64,192,4828,1,0,0:0:0:0:
448,192,5101,1,0,0:0:0:0:
320,192,5101,128,0,5237:0:0:0:0:
448,192,5374,128,8,5510:0:0:0:0:
192,192,5374,1,0,0:0:0:0:
64,192,5374,1,0,0:0:0:0:
320,192,5646,1,0,0:0:0:0:
320,192,5783,128,0,5919:0:0:0:0:
64,192,5919,1,0,0:0:0:0:
448,192,6055,128,0,6192:0:0:0:0:
192,192,6192,128,0,6328:0:0:0:0:
448,192,6328,128,0,6465:0:0:0:0:
64,192,6465,1,0,0:0:0:0:
192,192,6465,128,2,7010:0:0:0:0:
320,192,6737,1,0,0:0:0:0:
320,192,6874,1,0,0:0:0:0:
320,192,7010,1,2,0:0:0:0:
64,192,7010,1,0,0:0:0:0:
448,192,7010,128,4,7555:0:0:0:0:
320,192,7555,1,0,0:0:0:0:
64,192,7555,1,2,0:0:0:0:
192,192,7555,128,4,7965:0:0:0:0:
320,192,7965,128,2,8374:0:0:0:0:
64,192,7965,1,0,0:0:0:0:
448,192,7965,1,4,0:0:0:0:
64,192,8237,1,0,0:0:0:0:
64,192,8374,128,2,8510:0:0:0:0:
448,192,8374,1,0,0:0:0:0:
320,192,8510,1,0,0:0:0:0:
448,192,8646,1,0,0:0:0:0:
320,192,8646,128,8,8783:0:0:0:0:
64,192,8646,1,0,0:0:0:0:
192,192,8783,1,0,0:0:0:0:
192,192,8919,128,0,9055:0:0:0:0:
64,192,8919,1,0,0:0:0:0:
448,192,8919,1,8,0:0:0:0:
64,192,9192,1,0,0:0:0:0:
192,192,9192,1,2,0:0:0:0:
448,192,9192,1,0,0:0:0:0:
320,192,9192,1,4,0:0:0:0:
192,192,9465,128,0,9601:0:0:0:0:
320,192,9601,1,2,0:0:0:0:
448,192,9601,1,0,0:0:0:0:
448,192,9737,1,0,0:0:0:0:
64,192,9737,1,0,0:0:0:0:
320,192,9737,128,8,9874:0:0:0:0:
64,192,9874,128,0,10010:0:0:0:0:
192,192,10010,1,0,0:0:0:0:
320,192,10146,1,2,0:0:0:0:
448,192,10146,128,0,10419:0:0:0:0:
64,192,10283,1,0,0:0:0:0:
64,192,10419,1,0,0:0:0:0:
448,192,10555,1,0,0:0:0:0:
320,192,10555,128,2,10692:0:0:0:0:
192,192,10692,1,0,0:0:0:0:
64,192,10828,1,0,0:0:0:0:
192,192,10828,128,8,10965:0:0:0:0:
448,192,10828,1,0,0:0:0:0:
448,192,10965,1,0,0:0:0:0:
320,192,10965,1,2,0:0:0:0:
64,192,11101,128,0,11237:0:0:0:0:
192,192,11237,1,0,0:0:0:0:
192,192,11374,1,2,0:0:0:0:
448,192,11374,1,0,0:0:0:0:
320,192,11510,1,0,0:0:0:0:
64,192,11646,128,0,11783:0:0:0:0:
192,192,11783,1,2,0:0:0:0:
448,192,11783,1,0,0:0:0:0:
64,192,11919,1,0,0:0:0:0:
448,192,11919,1,8,0:0:0:0:
320,192,11919,128,0,12055:0:0:0:0:
192,192,12055,128,0,12192:0:0:0:0:
320,192,12192,1,0,0:0:0:0:
64,192,12328,128,2,12601:0:0:0:0:
192,192,12328,1,0,0:0:0:0:
448,192,12465,1,0,0:0:0:0:
448,192,12601,1,0,0:0:0:0:
192,192,12737,1,0,0:0:0:0:
320,192,12737,128,2,12874:0:0:0:0:
64,192,12874,1,0,0:0:0:0:
192,192,13010,128,8,13146:0:0:0:0:
320,192,13010,1,0,0:0:0:0:
448,192,13010,1,0,0:0:0:0:
448,192,13146,128,0,13283:0:0:0:0:
64,192,13146,1,2,0:0:0:0:
64,192,13283,128,0,13419:0:0:0:0:
192,192,13283,1,8,0:0:0:0:
320,192,13283,1,0,0:0:0:0:
448,192,13419,1,0,0:0:0:0:
320,192,13555,1,2,0:0:0:0:
64,192,13555,1,0,0:0:0:0:
192,192,13692,1,0,0:0:0:0:
448,192,13828,128,0,13965:0:0:0:0:
192,192,13965,1,2,0:0:0:0:
64,192,13965,1,0,0:0:0:0:
320,192,14101,1,8,0:0:0:0:
448,192,14101,1,0,0:0:0:0:
64,192,14101,128,0,14237:0:0:0:0:
192,192,14237,128,0,14374:0:0:0:0:
448,192,14374,1,0,0:0:0:0:
64,192,14510,1,0,0:0:0:0:
320,192,14510,128,2,14783:0:0:0:0:
192,192,14646,1,0,0:0:0:0:
192,192,14783,1,0,0:0:0:0:
448,192,14919,1,0,0:0:0:0:
64,192,14919,128,2,15055:0:0:0:0:
192,192,15055,1,0,0:0:0:0:
64,192,15192,1,0,0:0:0:0:
320,192,15192,1,0,0:0:0:0:
448,192,15192,128,8,15328:0:0:0:0:
192,192,15328,1,2,0:0:0:0:
64,192,15328,1,0,0:0:0:0:
448,192,15465,1,0,0:0:0:0:
192,192,15465,1,0,0:0:0:0:
320,192,15465,128,8,15601:0:0:0:0:
64,192,15601,1,0,0:0:0:0:
64,192,15737,1,0,0:0:0:0:
192,192,15737,1,4,0:0:0:0:
320,192,15737,1,2,0:0:0:0:
448,192,15737,1,0,0:0:0:0:
448,192,15874,1,0,0:0:0:0:
192,192,16010,128,0,16146:0:0:0:0:
320,192,16146,128,0,16283:0:0:0:0:
192,192,16283,128,8,16419:0:0:0:0:
64,192,16283,1,0,0:0:0:0:
448,192,16283,1,0,0:0:0:0:
320,192,16419,1,0,0:0:0:0:
448,192,16555,128,8,16828:0:0:0:0:
64,192,16555,1,0,0:0:0:0:
192,192,16692,1,2,0:0:0:0:
320,192,16692,1,0,0:0:0:0:
64,192,16828,128,8,17101:0:0:0:0:
320,192,16828,1,0,0:0:0:0:
448,192,16965,1,0,0:0:0:0:
192,192,16965,1,8,0:0:0:0:
320,192,17101,128,2,17374:0:0:0:0:
448,192,17101,1,0,0:0:0:0:
64,192,17271,1,0,0:0:0:0:
192,192,17374,128,8,17646:0:0:0:0:
448,192,17374,1,0,0:0:0:0:
448,192,17544,1,2,0:0:0:0:
320,192,17646,128,0,17919:0:0:0:0:
64,192,17646,1,2,0:0:0:0:
192,192,17919,1,2,0:0:0:0:
448,192,17919,1,4,0:0:0:0:
320,192,18192,128,0,18465:0:0:0:0:
192,192,18465,1,0,0:0:0:0:
64,192,18465,128,2,18737:0:0:0:0:
448,192,18737,1,0,0:0:0:0:
448,192,18874,1,0,0:0:0:0:
448,192,19010,128,0,19146:0:0:0:0:
64,192,19283,1,0,0:0:0:0:
64,192,19419,128,0,19555:0:0:0:0:
192,192,19555,1,2,0:0:0:0:
448,192,19555,1,0,0:0:0:0:
320,192,19692,1,0,0:0:0:0:
320,192,19828,128,0,19965:0:0:0:0:
64,192,20101,1,0,0:0:0:0:
448,192,20237,1,0,0:0:0:0:
448,192,20374,1,0,0:0:0:0:
64,192,20510,1,0,0:0:0:0:
448,192,20646,1,0,0:0:0:0:
320,192,20646,1,2,0:0:0:0:
448,192,20919,128,0,21055:0:0:0:0:
64,192,21055,1,0,0:0:0:0:
192,192,21192,128,0,21328:0:0:0:0:
320,192,21328,1,0,0:0:0:0:
320,192,21465,1,0,0:0:0:0:
64,192,21601,128,0,21737:0:0:0:0:
192,192,21737,1,2,0:0:0:0:
448,192,21737,1,0,0:0:0:0:
320,192,21874,1,0,0:0:0:0:
192,192,22010,128,0,22146:0:0:0:0:
448,192,22146,128,0,22283:0:0:0:0:
64,192,22283,1,0,0:0:0:0:
320,192,22283,1,4,0:0:0:0:
192,192,22419,1,0,0:0:0:0:
192,192,22555,1,0,0:0:0:0:
320,192,22828,1,2,0:0:0:0:
448,192,22828,128,0,23237:0:0:0:0:
64,192,23237,1,0,0:0:0:0:
64,192,23374,1,0,0:0:0:0:
448,192,23374,128,0,23510:0:0:0:0:
320,192,23510,1,0,0:0:0:0:
320,192,23646,1,0,0:0:0:0:
192,192,23783,1,0,0:0:0:0:
192,192,23919,1,0,0:0:0:0:
64,192,23919,128,2,24328:0:0:0:0:
448,192,24260,128,0,24328:0:0:0:0:
64,192,24465,1,0,0:0:0:0:
448,192,24465,1,2,0:0:0:0:
192,192,24465,1,4,0:0:0:0:
320,192,24737,1,0,0:0:0:0:
192,192,24805,1,0,0:0:0:0:
320,192,24874,1,0,0:0:0:0:
192,192,24942,1,0,0:0:0:0:
320,192,25010,1,0,0:0:0:0:
448,192,25010,128,2,25419:0:0:0:0:
192,192,25555,1,0,0:0:0:0:
448,192,25555,128,2,25726:0:0:0:0:
64,192,25726,128,8,25828:0:0:0:0:
320,192,25726,1,0,0:0:0:0:
192,192,25828,1,0,0:0:0:0:
448,192,25828,1,0,0:0:0:0:
320,192,25965,1,0,0:0:0:0:
64,192,26033,1,0,0:0:0:0:
192,192,26033,1,0,0:0:0:0:
320,192,26101,1,8,0:0:0:0:
448,192,26101,1,0,0:0:0:0:
64,192,26237,1,0,0:0:0:0:
64,192,26374,1,0,0:0:0:0:
192,192,26374,1,8,0:0:0:0:
448,192,26374,1,0,0:0:0:0:
320,192,26646,1,2,0:0:0:0:
64,192,26646,128,0,26783:0:0:0:0:
448,192,26783,1,0,0:0:0:0:
192,192,26919,1,0,0:0:0:0:
192,192,27055,1,0,0:0:0:0:
320,192,27192,1,0,0:0:0:0:
448,192,27192,128,8,27328:0:0:0:0:
64,192,27328,1,0,0:0:0:0:
320,192,27465,1,0,0:0:0:0:
320,192,27601,1,0,0:0:0:0:
448,192,27737,1,0,0:0:0:0:
192,192,27737,128,2,27874:0:0:0:0:
320,192,27874,1,0,0:0:0:0:
192,192,28010,1,0,0:0:0:0:
448,192,28146,128,0,28283:0:0:0:0:
192,192,28283,1,8,0:0:0:0:
64,192,28283,1,0,0:0:0:0:
448,192,28419,1,0,0:0:0:0:
64,192,28555,128,0,28692:0:0:0:0:
320,192,28692,1,0,0:0:0:0:
64,192,28828,1,0,0:0:0:0:
448,192,28828,1,2,0:0:0:0:
448,192,28965,1,0,0:0:0:0:
320,192,29101,1,2,0:0:0:0:
64,192,29101,1,0,0:0:0:0:
192,192,29237,1,0,0:0:0:0:
64,192,29374,1,0,0:0:0:0:
320,192,29374,1,8,0:0:0:0:
448,192,29374,128,0,29646:0:0:0:0:
192,192,29510,1,2,0:0:0:0:
64,192,29510,1,0,0:0:0:0:
320,192,29646,1,0,0:0:0:0:
192,192,29783,1,0,0:0:0:0:
192,192,29919,1,0,0:0:0:0:
64,192,29919,128,2,30055:0:0:0:0:
448,192,30055,1,0,0:0:0:0:
192,192,30192,1,0,0:0:0:0:
320,192,30260,1,0,0:0:0:0:
192,192,30328,1,0,0:0:0:0:
320,192,30396,1,0,0:0:0:0:
192,192,30465,1,0,0:0:0:0:
64,192,30465,128,8,30601:0:0:0:0:
448,192,30601,128,0,30737:0:0:0:0:
192,192,30737,128,0,30874:0:0:0:0:
448,192,30874,128,0,31010:0:0:0:0:
64,192,31010,1,0,0:0:0:0:
192,192,31010,128,2,31146:0:0:0:0:
448,192,31146,1,0,0:0:0:0:
320,192,31283,1,0,0:0:0:0:
320,192,31419,1,0,0:0:0:0:
192,192,31555,1,0,0:0:0:0:
64,192,31555,128,0,31965:0:0:0:0:
448,192,31555,128,8,31828:0:0:0:0:
320,192,31828,1,0,0:0:0:0:
192,192,31965,1,0,0:0:0:0:
320,192,32101,1,0,0:0:0:0:
448,192,32101,128,2,32237:0:0:0:0:
64,192,32237,1,0,0:0:0:0:
64,192,32374,1,0,0:0:0:0:
320,192,32510,1,0,0:0:0:0:
320,192,32646,1,0,0:0:0:0:
192,192,32646,128,8,33055:0:0:0:0:
448,192,32646,128,0,32919:0:0:0:0:
64,192,32919,1,0,0:0:0:0:
320,192,33055,1,0,0:0:0:0:
64,192,33192,1,0,0:0:0:0:
448,192,33192,128,2,33328:0:0:0:0:
320,192,33328,128,0,33465:0:0:0:0:
192,192,33465,128,0,33601:0:0:0:0:
64,192,33465,128,2,33601:0:0:0:0:
448,192,33737,1,8,0:0:0:0:
320,192,33737,1,0,0:0:0:0:
320,192,33874,1,8,0:0:0:0:
448,192,33874,1,0,0:0:0:0:
192,192,34010,1,0,0:0:0:0:
64,192,34010,1,2,0:0:0:0:
448,192,34146,1,0,0:0:0:0:
192,192,34283,1,2,0:0:0:0:
448,192,34283,1,0,0:0:0:0:
64,192,34555,1,0,0:0:0:0:
64,192,34692,1,0,0:0:0:0:
448,192,34692,1,2,0:0:0:0:
320,192,34965,1,0,0:0:0:0:
448,192,35101,1,8,0:0:0:0:
64,192,35101,1,0,0:0:0:0:
192,192,35101,1,0,0:0:0:0:
192,192,35237,1,8,0:0:0:0:
64,192,35237,1,0,0:0:0:0:
448,192,35237,1,0,0:0:0:0:
320,192,35374,128,0,36465:0:0:0:0:
192,192,35919,1,2,0:0:0:0:
64,192,35919,1,0,0:0:0:0:
64,192,36465,128,0,37555:0:0:0:0:
320,192,37010,1,2,0:0:0:0:
448,192,37010,1,0,0:0:0:0:
448,192,37555,128,0,38646:0:0:0:0:
64,192,38101,1,2,0:0:0:0:
320,192,38101,1,0,0:0:0:0:
192,192,38646,128,0,39737:0:0:0:0:
320,192,38919,1,0,0:0:0:0:
448,192,39192,1,2,0:0:0:0:
64,192,39465,1,0,0:0:0:0:
320,192,39737,1,4,0:0:0:0:
448,192,39737,128,0,40828:0:0:0:0:
64,192,40010,1,0,0:0:0:0:
192,192,40283,1,2,0:0:0:0:
320,192,40555,1,0,0:0:0:0:
64,192,40828,128,0,41919:0:0:0:0:
448,192,41374,1,2,0:0:0:0:
192,192,41646,1,0,0:0:0:0:
320,192,41919,1,2,0:0:0:0:
448,192,41919,1,0,0:0:0:0:
320,192,42192,1,2,0:0:0:0:
192,192,42192,1,0,0:0:0:0:
64,192,42465,1,2,0:0:0:0:
192,192,42465,1,0,0:0:0:0:
448,192,42737,1,2,0:0:0:0:
320,192,42737,1,0,0:0:0:0:
320,192,43010,1,2,0:0:0:0:
192,192,43010,1,0,0:0:0:0:
192,192,43283,1,2,0:0:0:0:
64,192,43283,1,0,0:0:0:0:
320,192,43555,1,8,0:0:0:0:
64,192,43555,1,0,0:0:0:0:
192,192,43828,1,8,0:0:0:0:
448,192,43828,1,0,0:0:0:0:
320,192,44101,1,2,0:0:0:0:
64,192,44101,1,0,0:0:0:0:
448,192,44101,128,0,44374:0:0:0:0:
64,192,44374,128,0,44646:0:0:0:0:
448,192,44646,1,0,0:0:0:0:
320,192,44646,128,8,44919:0:0:0:0:
192,192,44646,1,0,0:0:0:0:
64,192,44919,1,0,0:0:0:0:
192,192,44919,128,2,45192:0:0:0:0:
320,192,45192,128,0,45465:0:0:0:0:
192,192,45465,1,0,0:0:0:0:
448,192,45465,1,0,0:0:0:0:
64,192,45465,128,8,45737:0:0:0:0:
448,192,45737,128,0,46010:0:0:0:0:
320,192,45737,1,8,0:0:0:0:
192,192,45737,1,0,0:0:0:0:
320,192,46010,1,2,0:0:0:0:
64,192,46010,1,0,0:0:0:0:
192,192,46010,128,4,46555:0:0:0:0:
320,192,46555,1,0,0:0:0:0:
320,192,46692,1,0,0:0:0:0:
64,192,46828,1,0,0:0:0:0:
448,192,46828,128,0,46965:0:0:0:0:
192,192,46828,1,8,0:0:0:0:
192,192,47101,1,0,0:0:0:0:
192,192,47237,1,0,0:0:0:0:
320,192,47374,1,2,0:0:0:0:
64,192,47374,128,0,47510:0:0:0:0:
448,192,47646,1,0,0:0:0:0:
448,192,47783,1,0,0:0:0:0:
320,192,47919,1,0,0:0:0:0:
64,192,47919,1,0,0:0:0:0:
192,192,47919,128,8,48055:0:0:0:0:
64,192,48192,1,0,0:0:0:0:
64,192,48328,1,0,0:0:0:0:
448,192,48465,128,0,48635:0:0:0:0:
320,192,48465,128,2,48737:0:0:0:0:
192,192,48465,128,0,48874:0:0:0:0:
64,192,48635,128,0,49010:0:0:0:0:
448,192,48737,128,0,49453:0:0:0:0:
320,192,48874,128,0,49180:0:0:0:0:
192,192,49010,128,2,49283:0:0:0:0:
64,192,49180,128,8,49283:0:0:0:0:
320,192,49283,128,8,49453:0:0:0:0:
64,192,49453,128,0,49692:0:0:0:0:
192,192,49453,128,8,49692:0:0:0:0:
448,192,49555,128,2,49692:0:0:0:0:
320,192,49555,128,0,49692:0:0:0:0:
64,192,50101,128,0,50283:0:0:0:0:
192,192,50101,128,2,50374:0:0:0:0:
320,192,50192,128,0,50465:0:0:0:0:
448,192,50283,128,0,50646:0:0:0:0:
64,192,50374,128,0,50465:0:0:0:0:
192,192,50465,128,0,50555:0:0:0:0:
320,192,50555,128,0,50646:0:0:0:0:
192,192,50646,1,2,0:0:0:0:
64,192,50646,128,4,51192:0:0:0:0:
448,192,50783,1,0,0:0:0:0:
192,192,50919,1,0,0:0:0:0:
192,192,51192,1,0,0:0:0:0:
448,192,51192,1,0,0:0:0:0:
320,192,51192,128,8,51601:0:0:0:0:
192,192,51465,1,0,0:0:0:0:
64,192,51601,128,0,52010:0:0:0:0:
448,192,51737,1,0,0:0:0:0:
320,192,51737,1,2,0:0:0:0:
192,192,51874,1,0,0:0:0:0:
320,192,52010,1,0,0:0:0:0:
448,192,52146,1,0,0:0:0:0:
192,192,52283,128,8,52419:0:0:0:0:
64,192,52283,1,0,0:0:0:0:
320,192,52419,128,0,52555:0:0:0:0:
192,192,52555,128,0,52692:0:0:0:0:
320,192,52692,128,0,52828:0:0:0:0:
448,192,52828,1,2,0:0:0:0:
64,192,52828,128,0,53374:0:0:0:0:
320,192,52965,1,0,0:0:0:0:
192,192,53101,1,0,0:0:0:0:
192,192,53374,1,0,0:0:0:0:
448,192,53374,128,8,53783:0:0:0:0:
320,192,53646,1,0,0:0:0:0:
64,192,53783,128,0,54465:0:0:0:0:
192,192,53919,1,2,0:0:0:0:
448,192,53919,1,0,0:0:0:0:
320,192,54055,1,0,0:0:0:0:
192,192,54192,1,0,0:0:0:0:
448,192,54328,1,0,0:0:0:0:
192,192,54465,1,0,0:0:0:0:
320,192,54465,1,8,0:0:0:0:
64,192,54601,1,0,0:0:0:0:
320,192,54737,128,2,54874:0:0:0:0:
192,192,54737,1,0,0:0:0:0:
448,192,54874,128,0,55010:0:0:0:0:
192,192,55010,1,0,0:0:0:0:
64,192,55010,128,2,55283:0:0:0:0:
320,192,55283,128,0,55555:0:0:0:0:
192,192,55555,1,0,0:0:0:0:
64,192,55555,128,8,55828:0:0:0:0:
320,192,55828,128,0,56101:0:0:0:0:
64,192,56101,128,2,56374:0:0:0:0:
192,192,56101,128,0,56237:0:0:0:0:
448,192,56237,128,0,56374:0:0:0:0:
320,192,56374,128,0,56510:0:0:0:0:
192,192,56510,128,0,56919:0:0:0:0:
64,192,56646,128,8,56919:0:0:0:0:
448,192,56646,1,0,0:0:0:0:
320,192,56919,1,8,0:0:0:0:
448,192,56919,128,0,57055:0:0:0:0:
192,192,57055,1,0,0:0:0:0:
448,192,57192,1,0,0:0:0:0:
64,192,57192,128,2,57465:0:0:0:0:
192,192,57328,1,0,0:0:0:0:
320,192,57465,1,0,0:0:0:0:
320,192,57737,1,8,0:0:0:0:
64,192,57737,1,0,0:0:0:0:
448,192,57737,128,0,58010:0:0:0:0:
192,192,58010,1,8,0:0:0:0:
448,192,58180,1,0,0:0:0:0:
64,192,58180,128,2,58555:0:0:0:0:
320,192,58283,1,0,0:0:0:0:
192,192,58419,1,0,0:0:0:0:
448,192,58419,1,8,0:0:0:0:
320,192,58555,1,2,0:0:0:0:
192,192,58692,1,0,0:0:0:0:
320,192,58828,1,8,0:0:0:0:
448,192,58828,1,0,0:0:0:0:
64,192,58828,1,0,0:0:0:0:
192,192,58999,1,2,0:0:0:0:
448,192,58999,1,0,0:0:0:0:
320,192,59101,1,2,0:0:0:0:
64,192,59101,1,0,0:0:0:0:
192,192,59374,1,2,0:0:0:0:
64,192,59374,1,0,0:0:0:0:
448,192,59374,128,4,59919:0:0:0:0:
320,192,59510,1,0,0:0:0:0:
192,192,59646,1,0,0:0:0:0:
64,192,59919,128,0,60328:0:0:0:0:
192,192,59919,1,8,0:0:0:0:
320,192,59919,1,0,0:0:0:0:
320,192,60192,1,0,0:0:0:0:
448,192,60328,128,0,60737:0:0:0:0:
192,192,60465,1,2,0:0:0:0:
64,192,60465,1,0,0:0:0:0:
320,192,60601,1,0,0:0:0:0:
192,192,60737,1,0,0:0:0:0:
320,192,60874,1,0,0:0:0:0:
64,192,61010,128,0,61146:0:0:0:0:
192,192,61010,1,8,0:0:0:0:
448,192,61010,1,0,0:0:0:0:
320,192,61146,1,0,0:0:0:0:
320,192,61283,128,0,61419:0:0:0:0:
192,192,61419,128,0,61555:0:0:0:0:
64,192,61555,128,2,62101:0:0:0:0:
448,192,61555,1,0,0:0:0:0:
320,192,61692,1,0,0:0:0:0:
192,192,61828,1,0,0:0:0:0:
448,192,62101,128,0,62510:0:0:0:0:
320,192,62101,1,8,0:0:0:0:
192,192,62374,1,0,0:0:0:0:
64,192,62510,128,0,63055:0:0:0:0:
320,192,62646,1,2,0:0:0:0:
448,192,62646,1,0,0:0:0:0:
192,192,62783,1,0,0:0:0:0:
448,192,62919,1,0,0:0:0:0:
320,192,63055,1,0,0:0:0:0:
64,192,63192,1,0,0:0:0:0:
448,192,63192,1,0,0:0:0:0:
192,192,63192,128,8,63328:0:0:0:0:
448,192,63465,1,0,0:0:0:0:
64,192,63465,1,0,0:0:0:0:
320,192,63465,128,8,63601:0:0:0:0:
192,192,63601,128,0,63737:0:0:0:0:
448,192,63737,128,2,64010:0:0:0:0:
320,192,63737,1,0,0:0:0:0:
192,192,64010,128,0,64283:0:0:0:0:
448,192,64283,128,8,64555:0:0:0:0:
320,192,64283,1,0,0:0:0:0:
192,192,64555,128,0,64828:0:0:0:0:
320,192,64828,1,0,0:0:0:0:
448,192,64828,128,2,64965:0:0:0:0:
64,192,64965,128,0,65101:0:0:0:0:
64,192,65237,128,0,65510:0:0:0:0:
448,192,65374,1,0,0:0:0:0:
320,192,65374,1,8,0:0:0:0:
192,192,65510,1,0,0:0:0:0:
64,192,65646,1,0,0:0:0:0:
320,192,65646,128,8,65783:0:0:0:0:
448,192,65783,1,0,0:0:0:0:
320,192,65919,1,0,0:0:0:0:
192,192,65919,1,2,0:0:0:0:
448,192,65919,128,0,66465:0:0:0:0:
64,192,66055,1,0,0:0:0:0:
192,192,66192,1,0,0:0:0:0:
320,192,66465,1,0,0:0:0:0:
64,192,66465,128,2,66908:0:0:0:0:
192,192,66737,1,8,0:0:0:0:
320,192,66908,1,2,0:0:0:0:
448,192,66908,128,0,67283:0:0:0:0:
192,192,67010,1,8,0:0:0:0:
64,192,67010,1,0,0:0:0:0:
320,192,67146,1,0,0:0:0:0:
64,192,67283,1,0,0:0:0:0:
320,192,67419,1,2,0:0:0:0:
448,192,67419,1,0,0:0:0:0:
192,192,67555,1,0,0:0:0:0:
64,192,67692,1,2,0:0:0:0:
448,192,67692,1,0,0:0:0:0:
448,192,67828,1,0,0:0:0:0:
64,192,67828,1,2,0:0:0:0:
64,192,68101,1,0,0:0:0:0:
448,192,68101,1,4,0:0:0:0:
192,192,68101,128,2,68237:0:0:0:0:
320,192,68374,1,0,0:0:0:0:
320,192,68510,1,0,0:0:0:0:
448,192,68646,1,0,0:0:0:0:
192,192,68646,1,0,0:0:0:0:
64,192,68646,128,8,68783:0:0:0:0:
320,192,68919,1,2,0:0:0:0:
448,192,68919,1,0,0:0:0:0:
320,192,69055,1,0,0:0:0:0:
192,192,69192,1,2,0:0:0:0:
64,192,69192,1,0,0:0:0:0:
448,192,69192,128,0,69328:0:0:0:0:
320,192,69465,1,0,0:0:0:0:
64,192,69635,1,0,0:0:0:0:
192,192,69635,128,2,70283:0:0:0:0:
448,192,69635,1,0,0:0:0:0:
320,192,69737,1,8,0:0:0:0:
448,192,69874,1,0,0:0:0:0:
448,192,70010,1,0,0:0:0:0:
448,192,70283,1,0,0:0:0:0:
64,192,70283,128,2,70419:0:0:0:0:
320,192,70555,128,0,70692:0:0:0:0:
192,192,70828,1,8,0:0:0:0:
448,192,70828,128,0,70965:0:0:0:0:
64,192,70828,1,0,0:0:0:0:
320,192,70965,1,0,0:0:0:0:
64,192,71101,1,0,0:0:0:0:
192,192,71101,128,2,71237:0:0:0:0:
448,192,71237,1,0,0:0:0:0:
320,192,71374,1,0,0:0:0:0:
64,192,71374,128,2,71510:0:0:0:0:
320,192,71510,1,0,0:0:0:0:
192,192,71646,1,0,0:0:0:0:
320,192,71817,1,0,0:0:0:0:
448,192,71817,128,2,72192:0:0:0:0:
64,192,71919,1,0,0:0:0:0:
192,192,71919,1,8,0:0:0:0:
320,192,72090,1,2,0:0:0:0:
64,192,72192,1,0,0:0:0:0:
192,192,72192,1,8,0:0:0:0:
448,192,72465,1,0,0:0:0:0:
320,192,72465,1,4,0:0:0:0:
192,192,72465,128,2,72601:0:0:0:0:
448,192,72737,1,0,0:0:0:0:
448,192,72908,1,0,0:0:0:0:
192,192,73010,1,0,0:0:0:0:
320,192,73010,1,0,0:0:0:0:
64,192,73010,128,8,73146:0:0:0:0:
320,192,73283,1,0,0:0:0:0:
320,192,73419,1,0,0:0:0:0:
448,192,73555,1,0,0:0:0:0:
64,192,73555,1,0,0:0:0:0:
192,192,73555,128,2,73692:0:0:0:0:
320,192,73692,1,0,0:0:0:0:
192,192,73828,1,0,0:0:0:0:
64,192,73999,1,0,0:0:0:0:
448,192,73999,128,2,74374:0:0:0:0:
320,192,74101,1,8,0:0:0:0:
192,192,74101,1,0,0:0:0:0:
64,192,74237,1,2,0:0:0:0:
320,192,74374,1,8,0:0:0:0:
192,192,74374,1,0,0:0:0:0:
448,192,74646,128,4,74783:0:0:0:0:
192,192,74646,1,0,0:0:0:0:
64,192,74646,1,2,0:0:0:0:
320,192,74783,1,0,0:0:0:0:
192,192,74919,1,0,0:0:0:0:
448,192,75192,1,0,0:0:0:0:
64,192,75192,1,0,0:0:0:0:
320,192,75192,128,8,75328:0:0:0:0:
192,192,75328,1,0,0:0:0:0:
320,192,75465,1,0,0:0:0:0:
64,192,75601,1,0,0:0:0:0:
192,192,75737,128,2,75874:0:0:0:0:
448,192,75737,1,0,0:0:0:0:
320,192,75737,1,0,0:0:0:0:
64,192,75874,1,0,0:0:0:0:
320,192,76010,1,0,0:0:0:0:
192,192,76283,1,0,0:0:0:0:
64,192,76283,128,8,76419:0:0:0:0:
448,192,76283,1,0,0:0:0:0:
320,192,76419,1,0,0:0:0:0:
192,192,76555,1,0,0:0:0:0:
320,192,76692,1,0,0:0:0:0:
192,192,76828,1,0,0:0:0:0:
448,192,76828,1,0,0:0:0:0:
64,192,76828,128,2,78192:0:0:0:0:
320,192,77374,1,8,0:0:0:0:
448,192,77374,128,0,77828:0:0:0:0:
192,192,77828,128,0,78192:0:0:0:0:
320,192,78192,1,2,0:0:0:0:
448,192,78192,128,0,78328:0:0:0:0:
64,192,78328,128,2,78465:0:0:0:0:
448,192,78465,128,0,78601:0:0:0:0:
192,192,78465,1,8,0:0:0:0:
320,192,78465,1,0,0:0:0:0:
64,192,78601,128,2,78737:0:0:0:0:
448,192,78737,128,0,78874:0:0:0:0:
192,192,78737,1,8,0:0:0:0:
320,192,78737,1,0,0:0:0:0:
448,192,79010,1,0,0:0:0:0:
320,192,79010,1,2,0:0:0:0:
64,192,79010,1,0,0:0:0:0:
192,192,79010,1,4,0:0:0:0:
320,192,79283,128,0,79419:0:0:0:0:
192,192,79419,1,2,0:0:0:0:
64,192,79419,1,0,0:0:0:0:
64,192,79555,1,0,0:0:0:0:
448,192,79555,1,0,0:0:0:0:
192,192,79555,128,8,79692:0:0:0:0:
448,192,79692,128,0,79828:0:0:0:0:
320,192,79828,1,0,0:0:0:0:
192,192,79965,1,0,0:0:0:0:
64,192,79965,128,2,80237:0:0:0:0:
320,192,80101,1,0,0:0:0:0:
320,192,80237,1,0,0:0:0:0:
448,192,80374,1,0,0:0:0:0:
192,192,80374,128,2,80510:0:0:0:0:
64,192,80510,1,0,0:0:0:0:
448,192,80646,1,0,0:0:0:0:
320,192,80646,128,8,80783:0:0:0:0:
192,192,80646,1,0,0:0:0:0:
64,192,80783,1,0,0:0:0:0:
192,192,80783,1,2,0:0:0:0:
448,192,80919,128,0,81055:0:0:0:0:
320,192,81055,1,0,0:0:0:0:
320,192,81192,1,2,0:0:0:0:
64,192,81192,1,0,0:0:0:0:
192,192,81328,1,0,0:0:0:0:
448,192,81465,128,0,81601:0:0:0:0:
320,192,81601,1,2,0:0:0:0:
64,192,81601,1,0,0:0:0:0:
448,192,81737,1,0,0:0:0:0:
64,192,81737,1,0,0:0:0:0:
192,192,81737,128,8,81874:0:0:0:0:
320,192,81874,128,0,82010:0:0:0:0:
192,192,82010,1,0,0:0:0:0:
448,192,82146,128,2,82419:0:0:0:0:
320,192,82146,1,0,0:0:0:0:
64,192,82283,1,0,0:0:0:0:
64,192,82419,1,0,0:0:0:0:
320,192,82555,1,0,0:0:0:0:
192,192,82555,128,2,82692:0:0:0:0:
448,192,82692,1,0,0:0:0:0:
320,192,82828,128,8,82965:0:0:0:0:
192,192,82828,1,0,0:0:0:0:
64,192,82828,1,0,0:0:0:0:
64,192,82965,128,0,83101:0:0:0:0:
448,192,82965,1,2,0:0:0:0:
448,192,83101,128,0,83237:0:0:0:0:
320,192,83101,1,8,0:0:0:0:
192,192,83101,1,0,0:0:0:0:
64,192,83237,1,0,0:0:0:0:
192,192,83374,1,2,0:0:0:0:
448,192,83374,1,0,0:0:0:0:
320,192,83510,1,0,0:0:0:0:
64,192,83646,128,0,83783:0:0:0:0:
320,192,83783,1,2,0:0:0:0:
448,192,83783,1,0,0:0:0:0:
192,192,83919,1,8,0:0:0:0:
64,192,83919,1,0,0:0:0:0:
448,192,83919,128,0,84055:0:0:0:0:
320,192,84055,128,0,84192:0:0:0:0:
64,192,84192,1,0,0:0:0:0:
448,192,84328,1,0,0:0:0:0:
192,192,84328,128,2,84601:0:0:0:0:
320,192,84465,1,0,0:0:0:0:
320,192,84601,1,0,0:0:0:0:
64,192,84737,1,0,0:0:0:0:
448,192,84737,128,2,84874:0:0:0:0:
320,192,84874,1,0,0:0:0:0:
448,192,85010,1,0,0:0:0:0:
192,192,85010,1,8,0:0:0:0:
64,192,85010,128,0,85146:0:0:0:0:
320,192,85146,1,2,0:0:0:0:
448,192,85146,1,0,0:0:0:0:
64,192,85283,1,0,0:0:0:0:
320,192,85283,1,0,0:0:0:0:
192,192,85283,128,8,85419:0:0:0:0:
448,192,85419,1,0,0:0:0:0:
448,192,85555,1,0,0:0:0:0:
320,192,85555,1,4,0:0:0:0:
192,192,85555,1,2,0:0:0:0:
64,192,85555,1,0,0:0:0:0:
64,192,85692,1,0,0:0:0:0:
320,192,85828,128,0,85965:0:0:0:0:
192,192,85965,128,0,86101:0:0:0:0:
320,192,86101,128,8,86237:0:0:0:0:
448,192,86101,1,0,0:0:0:0:
64,192,86101,1,0,0:0:0:0:
192,192,86237,1,0,0:0:0:0:
64,192,86374,128,8,86646:0:0:0:0:
448,192,86374,1,0,0:0:0:0:
320,192,86510,1,2,0:0:0:0:
192,192,86510,1,0,0:0:0:0:
448,192,86646,128,8,86919:0:0:0:0:
192,192,86646,1,0,0:0:0:0:
64,192,86783,1,0,0:0:0:0:
320,192,86783,1,8,0:0:0:0:
192,192,86919,128,2,87192:0:0:0:0:
64,192,86919,1,0,0:0:0:0:
448,192,87090,1,0,0:0:0:0:
320,192,87192,128,8,87465:0:0:0:0:
64,192,87192,1,0,0:0:0:0:
64,192,87362,1,2,0:0:0:0:
192,192,87465,128,2,87737:0:0:0:0:
448,192,87465,1,0,0:0:0:0:
320,192,87737,1,2,0:0:0:0:
64,192,87737,1,0,0:0:0:0:
448,192,87737,128,4,89374:0:0:0:0:
