osu file format v14

[General]
AudioFilename: audio.mp3
AudioLeadIn: 0
PreviewTime: 51145
Countdown: 0
SampleSet: Soft
StackLeniency: 0.7
Mode: 0
LetterboxInBreaks: 0
WidescreenStoryboard: 1

[Editor]
Bookmarks: 9691,18418,27145,35873,44600,51145,68600,79509
DistanceSpacing: 1.5
BeatDivisor: 4
GridSize: 32
TimelineZoom: 1.5

[Metadata]
Title:SHINY DAYS (TV Size)
TitleUnicode:SHINY DAYS (TV Size)
Artist:Asaka
ArtistUnicode:亜咲花
Creator:Iceluin
Version:Normal
Source:Yuru Camp △
Tags:hypercyte hypercute anime japanese ゆるキャン△ Laid-Back Camp yurukyan nadeshiko kagamihara shima rin oogaki chiaki inuyama aoi saito ena op opening Δ
BeatmapID:2355397
BeatmapSetID:1127355

[Difficulty]
HPDrainRate:3
CircleSize:3
OverallDifficulty:4
ApproachRate:5
SliderMultiplier:1.2
SliderTickRate:1

[Events]
//Background and Video events
0,0,"nade to rin.png",0,0
Video,460,"nadeshiko days.avi"
//Break Periods
//Storyboard Layer 0 (Background)
//Storyboard Layer 1 (Fail)
//Storyboard Layer 2 (Pass)
//Storyboard Layer 3 (Foreground)
//Storyboard Layer 4 (Overlay)
//Storyboard Sound Samples

[TimingPoints]
964,545.454545454546,4,2,1,45,1,0
7509,-100,4,2,2,55,0,0
9691,-100,4,2,2,65,0,0
18418,-100,4,2,3,50,0,0
26054,-100,4,2,2,50,0,0
27145,-100,4,2,2,55,0,0
29873,-100,4,2,3,55,0,0
30145,-100,4,2,2,55,0,0
35873,-100,4,2,3,40,0,0
42418,-100,4,2,2,40,0,0
44600,-100,4,2,2,45,0,0
51145,-100,4,2,2,75,0,1
68600,-100,4,2,2,60,0,0
68668,-100,4,2,2,5,0,0
68873,-100,4,2,2,60,0,0
70850,-100,4,2,2,5,0,0
71054,-100,4,2,2,60,0,0
73032,-100,4,2,2,5,0,0
73236,-100,4,2,2,60,0,0
79509,-100,4,2,2,65,0,0
88236,-100,4,2,2,50,0,0
90418,-100,4,2,2,5,0,0

[Colours]
Combo1 : 255,128,64
Combo2 : 251,153,234
Combo3 : 0,138,204
Combo4 : 129,254,185

[HitObjects]
127,256,964,6,0,P|98:250|69:256,2,60,6|2|10,0:0|0:0|1:2,0:0:0:0:
240,328,1918,2,0,P|212:259|239:191,1,150,2|8,0:3|1:2,0:0:0:0:
412,146,3145,6,0,L|412:86,2,60,2|2|10,0:0|0:0|1:2,0:0:0:0:
481,262,4100,2,0,B|410:292|410:292|343:263,1,150,2|8,0:3|1:2,0:0:0:0:
178,336,5327,6,0,B|109:336,2,60,6|2|10,0:0|0:0|1:2,0:0:0:0:
224,209,6282,2,0,L|74:209,1,150,2|8,0:3|1:2,0:0:0:0:
98,32,7509,6,0,P|152:15|209:33,1,120,6|6,1:2|1:2,0:0:0:0:
315,140,8509,2,0,B|300:172|322:208|322:208|301:241|315:275,1,140,6|8,1:2|0:0,0:0:0:0:
385,328,9418,1,8,0:0:0:0:
451,267,9691,6,0,P|467:209|451:152,1,120,6|8,1:2|0:0,0:0:0:0:
360,53,10645,2,0,P|317:41|274:52,1,90,2|2,1:2|1:2,0:0:0:0:
210,116,11327,2,0,L|150:116,1,60,10|2,0:0|0:0,0:0:0:0:
78,60,11873,6,0,P|97:115|77:171,1,120,2|8,1:2|0:0,0:0:0:0:
27,275,12827,2,0,P|70:263|113:274,1,90,2|2,1:2|1:2,0:0:0:0:
175,339,13509,1,10,0:0:0:0:
236,273,13782,1,10,0:0:0:0:
296,339,14054,6,0,B|352:318|352:318|408:338,1,120,2|8,1:2|0:0,0:0:0:0:
395,203,15009,2,0,B|351:216|351:216|308:202,1,90,2|2,1:2|1:2,0:0:0:0:
236,149,15691,2,0,L|236:89,1,60,10|10,0:0|0:0,0:0:0:0:
171,26,16236,6,0,P|114:8|58:26,1,120,6|10,1:2|0:0,0:0:0:0:
0,95,17054,1,10,0:0:0:0:
55,166,17327,2,0,L|55:286,1,120,14|10,0:0|0:0,0:0:0:0:
123,344,18145,1,2,1:2:0:0:
192,286,18418,5,6,0:0:0:0:
349,373,18964,1,0,1:0:0:0:
506,286,19509,2,0,P|517:243|506:200,2,90,2|2|2,0:0|0:0|0:0,0:0:0:0:
426,243,20600,1,2,0:3:0:0:
271,330,21145,1,8,0:0:0:0:
112,243,21691,2,0,B|97:199|97:199|111:157,2,90,2|2|2,0:0|0:0|0:0,0:0:0:0:
191,286,22782,5,6,0:0:0:0:
366,324,23327,2,0,P|373:295|367:266,1,60,2|0,1:2|0:0,0:0:0:0:
307,197,23873,1,2,0:0:0:0:
345,22,24418,2,0,P|316:15|287:21,1,60,2|0,1:2|0:0,0:0:0:0:
218,81,24964,1,6,1:2:0:0:
43,43,25509,2,0,P|36:72|42:101,1,60,2|0,1:2|0:0,0:0:0:0:
84,180,26054,2,0,B|41:165|41:165|0:179,2,90,2|0|8,1:2|0:0|0:0,0:0:0:0:
157,231,27145,6,0,L|277:231,1,120,2|10,1:2|0:0,0:0:0:0:
349,176,27964,1,2,0:0:0:0:
419,231,28236,2,0,P|429:274|418:317,2,90,2|2|2,1:2|0:0|0:0,0:0:0:0:
349,176,29327,1,0,1:0:0:0:
247,324,29873,2,0,L|187:324,1,60,8|2,0:0|0:0,0:0:0:0:
107,367,30418,2,0,P|63:378|20:366,2,90,2|2|2,1:2|0:0|0:0,0:0:0:0:
64,287,31509,5,2,1:2:0:0:
34,109,32054,2,0,B|63:98|63:98|91:108,1,60,10|2,0:0|0:0,0:0:0:0:
173,144,32600,1,2,1:2:0:0:
351,114,33145,2,0,B|362:143|362:143|352:171,1,60,10|2,0:0|0:0,0:0:0:0:
316,253,33691,1,2,1:2:0:0:
385,310,33964,1,10,0:0:0:0:
316,367,34236,2,0,L|256:367,1,60,10|2,0:0|0:0,0:0:0:0:
185,310,34782,2,0,L|95:310,2,90,8|8|10,0:3|0:3|0:0,0:0:0:0:
185,219,35873,6,0,L|65:219,1,120,2|0,0:3|1:0,0:0:0:0:
5,48,36964,2,0,L|125:48,1,120,2|0,0:3|1:0,0:0:0:0:
263,162,38054,6,0,B|285:217|285:217|263:273,1,120,2|0,0:3|1:0,0:0:0:0:
428,347,39145,2,0,B|406:292|406:292|427:235,1,120,2|2,0:3|1:2,0:0:0:0:
263,162,40236,6,0,P|206:145|149:160,1,120,4|0,0:0|1:0,0:0:0:0:
85,329,41327,2,0,P|141:345|198:330,1,120,2|0,0:3|1:0,0:0:0:0:
263,162,42418,6,0,L|263:102,2,60,6|8|8,1:2|0:3|0:3,0:0:0:0:
338,211,43236,1,8,0:3:0:0:
414,162,43509,2,0,L|414:102,1,60,2|2,1:2|1:2,0:0:0:0:
338,52,44054,1,10,0:0:0:0:
176,132,44600,6,0,L|56:132,1,120,6|8,1:2|0:0,0:0:0:0:
0,202,45418,1,6,1:2:0:0:
56,272,45691,2,0,L|133:272,1,60,0|10,0:0|0:0,0:0:0:0:
172,342,46236,1,10,0:0:0:0:
229,272,46509,1,6,1:2:0:0:
256,192,46782,12,10,50054,0:0:0:0:
406,294,51145,6,0,P|349:311|292:294,1,120,6|10,1:2|0:0,0:0:0:0:
182,215,52100,2,0,P|139:203|96:214,1,90,2|0,0:0|0:0,0:0:0:0:
21,163,52782,1,10,0:0:0:0:
78,94,53054,1,2,0:0:0:0:
21,19,53327,6,0,P|77:35|134:18,1,120,2|10,1:2|0:0,0:0:0:0:
245,94,54282,2,0,B|288:83|288:83|332:94,1,90,2|2,0:0|0:0,0:0:0:0:
407,143,54964,1,10,0:0:0:0:
346,209,55236,1,10,0:0:0:0:
421,258,55509,6,0,P|427:287|421:316,1,60,6|2,1:2|0:0,0:0:0:0:
346,367,56054,2,0,L|285:366,1,60,10|2,0:0|0:0,0:0:0:0:
209,316,56600,2,0,B|166:327|166:327|122:316,2,90,2|2|10,1:2|0:0|0:0,0:0:0:0:
283,263,57691,6,0,P|303:207|286:150,1,120,6|14,1:2|0:0,0:0:0:0:
210,39,58645,2,0,B|167:50|167:50|123:39,1,90,6|2,1:2|1:2,0:0:0:0:
54,98,59327,1,10,0:0:0:0:
112,166,59600,1,8,0:3:0:0:
55,241,59873,6,0,P|111:225|168:242,1,120,6|10,1:2|0:0,0:0:0:0:
281,316,60827,2,0,B|324:327|324:327|368:316,1,90,2|2,0:0|0:0,0:0:0:0:
435,256,61509,1,10,0:0:0:0:
371,191,61782,1,2,0:0:0:0:
445,140,62054,6,0,P|461:84|444:27,1,120,2|10,1:2|0:0,0:0:0:0:
309,40,63009,2,0,P|297:83|308:126,1,90,2|2,0:0|0:0,0:0:0:0:
371,191,63691,1,10,0:0:0:0:
329,273,63964,1,10,0:0:0:0:
238,258,64236,6,0,L|178:258,1,60,6|2,1:2|0:0,0:0:0:0:
95,220,64782,2,0,L|95:160,1,60,10|2,0:0|0:0,0:0:0:0:
139,81,65327,2,0,P|95:70|52:80,2,90,2|2|10,1:2|0:0|0:0,0:0:0:0:
218,125,66418,6,0,P|274:145|331:128,1,120,6|14,1:2|0:0,0:0:0:0:
458,85,67373,2,0,P|446:127|456:170,1,90,6|2,1:2|0:0,0:0:0:0:
504,247,68054,2,0,P|510:276|504:305,1,60,10|8,0:0|0:3,0:0:0:0:
438,367,68600,5,6,1:2:0:0:
268,305,69145,2,0,L|208:305,1,60,8|0,0:0|1:0,0:0:0:0:
127,263,69691,2,0,P|116:306|128:348,2,90,2|2|0,1:2|0:0|0:0,0:0:0:0:
169,182,70782,5,6,1:2:0:0:
346,211,71327,2,0,P|353:182|347:153,1,60,8|0,0:0|1:0,0:0:0:0:
304,72,71873,2,0,P|347:61|389:73,2,90,2|2|8,1:2|0:0|0:0,0:0:0:0:
224,114,72964,5,6,1:2:0:0:
46,85,73509,2,0,P|39:114|45:143,1,60,8|0,0:0|1:0,0:0:0:0:
88,224,74055,2,0,P|45:235|3:223,2,90,2|2|8,1:2|0:0|0:0,0:0:0:0:
159,170,75145,6,0,P|139:227|158:283,1,120,6|10,1:2|0:0,0:0:0:0:
231,332,75964,1,0,0:0:0:0:
305,281,76236,2,0,L|425:281,1,120,2|10,1:2|0:0,0:0:0:0:
504,119,77327,5,6,1:2:0:0:
355,16,77873,2,0,B|308:3|265:23|285:54|237:78|191:63,1,180,8|10,0:0|0:0,0:0:0:0:
119,116,78964,1,10,0:0:0:0:
172,188,79236,1,10,0:0:0:0:
118,261,79509,6,0,P|174:243|231:259,1,120,6|8,1:2|0:0,0:0:0:0:
350,323,80463,2,0,P|393:335|436:324,1,90,2|2,1:2|1:2,0:0:0:0:
504,265,81145,2,0,L|504:205,1,60,10|2,0:0|0:0,0:0:0:0:
435,145,81691,6,0,B|378:127|378:127|321:145,1,120,2|8,1:2|0:0,0:0:0:0:
219,234,82645,2,0,B|175:245|175:245|132:234,1,90,2|2,1:2|1:2,0:0:0:0:
70,167,83327,1,10,0:0:0:0:
131,101,83600,1,10,0:0:0:0:
74,31,83873,6,0,P|129:11|185:28,1,120,2|8,1:2|0:0,0:0:0:0:
285,123,84827,2,0,B|328:134|328:134|372:123,1,90,2|2,1:2|1:2,0:0:0:0:
438,184,85509,2,0,L|438:244,1,60,10|10,0:0|0:0,0:0:0:0:
372,305,86054,6,0,P|315:290|258:306,1,120,6|10,1:2|0:0,0:0:0:0:
176,344,86872,1,10,0:0:0:0:
94,306,87145,2,0,P|77:249|95:192,1,120,14|10,0:0|0:0,0:0:0:0:
176,152,87963,1,2,1:2:0:0:
256,192,88236,5,6,1:2:0:0:
256,192,88509,12,0,90418,0:0:0:0:
