osu file format v14

[General]
AudioFilename: audio.mp3
AudioLeadIn: 0
PreviewTime: 51145
Countdown: 0
SampleSet: Soft
StackLeniency: 0.3
Mode: 0
LetterboxInBreaks: 0
WidescreenStoryboard: 1

[Editor]
Bookmarks: 9691,18418,27145,35873,44600,51145,68600,77873,79509
DistanceSpacing: 1.4
BeatDivisor: 4
GridSize: 32
TimelineZoom: 1.7

[Metadata]
Title:SHINY DAYS (TV Size)
TitleUnicode:SHINY DAYS (TV Size)
Artist:Asaka
ArtistUnicode:亜咲花
Creator:Iceluin
Version:Insane
Source:Yuru Camp △
Tags:hypercyte hypercute anime japanese ゆるキャン△ Laid-Back Camp yurukyan nadeshiko kagamihara shima rin oogaki chiaki inuyama aoi saito ena op opening Δ
BeatmapID:2690301
BeatmapSetID:1127355

[Difficulty]
HPDrainRate:5.5
CircleSize:4.2
OverallDifficulty:7
ApproachRate:9
SliderMultiplier:2.6
SliderTickRate:1

[Events]
//Background and Video events
0,0,"nade to rin.png",0,0
Video,460,"nadeshiko days.avi"
//Break Periods
//Storyboard Layer 0 (Background)
//Storyboard Layer 1 (Fail)
//Storyboard Layer 2 (Pass)
//Storyboard Layer 3 (Foreground)
//Storyboard Layer 4 (Overlay)
//Storyboard Sound Samples

[TimingPoints]
964,545.454545454546,4,2,1,45,1,0
964,-133.333333333333,4,2,1,45,0,0
7509,-100,4,2,2,55,0,0
9145,-133.333333333333,4,2,2,55,0,0
9691,-100,4,2,2,65,0,0
18418,-133.333333333333,4,2,3,50,0,0
26054,-133.333333333333,4,2,2,50,0,0
27145,-100,4,2,2,55,0,0
29873,-100,4,2,3,55,0,0
30145,-100,4,2,2,55,0,0
35873,-200,4,2,3,40,0,0
42418,-200,4,2,2,40,0,0
44600,-133.333333333333,4,2,2,45,0,0
46509,-100,4,2,2,45,0,0
51145,-86.9565217391304,4,2,2,75,0,1
68600,-133.333333333333,4,2,2,60,0,0
68668,-133.333333333333,4,2,2,5,0,0
68873,-133.333333333333,4,2,2,60,0,0
70850,-133.333333333333,4,2,2,5,0,0
71054,-133.333333333333,4,2,2,60,0,0
73032,-133.333333333333,4,2,2,5,0,0
73236,-133.333333333333,4,2,2,60,0,0
75145,-100,4,2,2,60,0,0
77327,-133.333333333333,4,2,2,60,0,0
79509,-100,4,2,2,65,0,0
88236,-100,4,2,2,50,0,0
90418,-100,4,2,2,5,0,0

[Colours]
Combo1 : 255,128,64
Combo2 : 251,153,234
Combo3 : 0,138,204
Combo4 : 129,254,185

[HitObjects]
349,256,964,6,0,P|343:232|349:208,1,48.750001859665,6|0,0:0|0:0,0:0:0:0:
440,209,1236,2,0,P|444:232|438:255,1,48.750001859665,2|0,0:0|0:0,0:0:0:0:
394,136,1509,1,10,1:2:0:0:
395,329,1782,5,0,0:0:0:0:
395,329,1918,2,0,P|349:342|303:328,1,97.50000371933,2|0,0:3|0:0,0:0:0:0:
232,267,2327,2,0,L|183:267,1,48.750001859665,0|0,0:0|0:0,0:0:0:0:
101,366,2600,2,0,B|129:335|106:291|87:303|77:262|101:231,1,146.250005578995,8|0,1:2|0:0,0:0:0:0:
231,173,3145,6,0,L|182:173,1,48.750001859665,2|0,0:0|0:0,0:0:0:0:
182,79,3418,2,0,L|230:79,1,48.750001859665,2|0,0:0|0:0,0:0:0:0:
101,125,3691,1,10,1:2:0:0:
311,125,3964,5,0,0:0:0:0:
311,125,4100,2,0,B|329:171|329:171|310:216,1,97.50000371933,2|0,0:3|0:0,0:0:0:0:
232,267,4509,2,0,L|184:267,1,48.750001859665,0|0,0:0|0:0,0:0:0:0:
310,321,4782,2,0,B|373:321|373:321|389:333|389:333|453:333,1,146.250005578995,8|0,1:2|0:0,0:0:0:0:
512,219,5327,6,0,B|489:228|489:228|466:219,1,48.750001859665,6|0,0:0|0:0,0:0:0:0:
466,124,5600,2,0,B|489:115|489:115|512:125,1,48.750001859665,2|0,0:0|0:0,0:0:0:0:
391,171,5873,1,10,1:2:0:0:
181,125,6145,5,0,0:0:0:0:
181,125,6282,2,0,P|165:170|180:216,1,97.50000371933,2|0,0:3|0:0,0:0:0:0:
256,171,6691,2,0,L|304:171,1,48.750001859665,0|0,0:0|0:0,0:0:0:0:
404,297,6964,2,0,B|384:301|360:265|391:230|391:230|391:169,1,146.250005578995,8|0,1:2|0:0,0:0:0:0:
485,40,7509,6,0,B|440:60|391:25|391:25|345:59|301:41,1,195,6|0,1:2|0:0,0:0:0:0:
185,24,8054,6,0,P|247:9|302:41,1,130,6|0,1:2|0:0,0:0:0:0:
224,144,8509,6,0,B|177:160|139:115|160:100|122:69|76:81,1,173.333333333333,6|0,1:2|1:0,0:0:0:0:
32,285,9145,5,8,0:0:0:0:
82,162,9418,1,8,0:0:0:0:
32,285,9691,6,0,B|78:304|78:304|122:286,1,97.5,6|0,1:2|0:0,0:0:0:0:
122,285,9964,2,0,L|122:350,1,65,2|0,0:0|1:0,0:0:0:0:
190,224,10236,1,8,0:0:0:0:
257,285,10373,2,0,B|287:295|287:295|317:284,1,65,2|0,0:0|0:0,0:0:0:0:
318,153,10645,6,0,L|318:284,1,130,2|0,1:2|0:0,0:0:0:0:
464,347,11054,2,0,P|480:301|463:257,1,97.5,2|0,1:2|0:0,0:0:0:0:
463,257,11327,1,10,0:0:0:0:
399,193,11464,1,0,1:0:0:0:
463,128,11600,1,2,0:0:0:0:
318,61,11873,6,0,B|271:79|271:79|227:61,1,97.5,2|0,1:2|0:0,0:0:0:0:
227,61,12145,2,0,P|235:92|226:123,1,65,2|0,0:0|1:0,0:0:0:0:
156,4,12418,1,8,0:0:0:0:
85,61,12554,2,0,P|76:92|85:123,1,65,2|0,0:0|0:0,0:0:0:0:
84,243,12827,6,0,B|59:215|79:175|95:185|105:150|84:122,1,130,2|0,1:2|0:0,0:0:0:0:
190,224,13236,2,0,P|238:210|283:224,1,97.5,2|0,1:2|0:0,0:0:0:0:
282,223,13509,1,10,0:0:0:0:
349,163,13645,1,0,1:0:0:0:
417,223,13782,1,10,0:0:0:0:
331,364,14054,6,0,B|286:382|286:382|240:365,1,97.5,2|0,1:2|0:0,0:0:0:0:
240,365,14327,2,0,L|240:300,1,65,2|0,0:0|1:0,0:0:0:0:
190,224,14600,1,8,0:0:0:0:
140,365,14736,2,0,B|140:300,1,65,2|0,0:0|0:0,0:0:0:0:
22,301,15009,6,0,P|80:324|139:300,1,130,2|0,1:2|0:0,0:0:0:0:
235,147,15418,2,0,B|188:128|188:128|144:146,1,97.5,2|0,1:2|0:0,0:0:0:0:
144,145,15691,1,10,0:0:0:0:
85,77,15827,1,0,1:0:0:0:
145,8,15964,1,10,0:0:0:0:
235,147,16236,6,0,B|282:166|282:166|326:148,1,97.5,6|0,1:2|0:0,0:0:0:0:
325,148,16509,2,0,L|325:213,1,65,2|0,0:0|0:0,0:0:0:0:
397,335,16782,2,0,L|397:270,1,65,10|0,0:0|0:0,0:0:0:0:
468,148,17054,2,0,L|468:213,1,65,10|0,0:0|1:0,0:0:0:0:
312,299,17327,5,14,0:0:0:0:
234,245,17464,1,8,0:0:0:0:
161,359,17600,2,0,B|173:328|173:328|161:299,1,65,2|0,1:2|0:0,0:0:0:0:
233,184,17873,2,0,B|221:215|221:215|233:244,1,65,10|0,0:0|0:0,0:0:0:0:
85,244,18145,2,0,B|97:214|97:214|85:183,1,65,2|0,1:2|0:0,0:0:0:0:
160,52,18418,5,6,0:0:0:0:
160,52,18691,2,0,L|208:52,1,48.750001859665
298,97,18964,2,0,P|281:51|297:6,1,97.50000371933,0|0,1:0|0:0,0:0:0:0:
450,97,19509,5,2,0:0:0:0:
374,52,19645,1,0,0:0:0:0:
374,52,19918,1,2,0:0:0:0:
298,97,20054,2,0,B|298:194,1,97.50000371933,0|2,1:0|0:0,0:0:0:0:
411,306,20600,5,2,0:3:0:0:
411,306,20736,1,2,0:0:0:0:
411,306,20873,2,0,B|419:282|419:282|410:260,1,48.750001859665,2|0,0:0|0:0,0:0:0:0:
275,284,21145,2,0,B|298:294|298:322|298:322|298:294|324:282,1,97.50000371933,8|2,0:0|0:0,0:0:0:0:
374,142,21691,5,2,0:0:0:0:
298,97,21827,1,0,0:0:0:0:
298,97,22100,1,2,0:0:0:0:
222,141,22236,2,0,L|119:141,1,97.50000371933,0|2,1:0|0:0,0:0:0:0:
48,185,22645,1,0,0:0:0:0:
171,261,22782,5,6,0:0:0:0:
171,261,23054,2,0,P|178:284|172:307,1,48.750001859665
30,324,23327,2,0,B|88:324|88:324|115:307|115:307|172:307,1,146.250005578995,2|0,1:2|0:0,0:0:0:0:
298,194,23873,5,2,0:0:0:0:
298,194,24145,2,0,P|291:217|297:240,1,48.750001859665
438,257,24418,2,0,B|380:257|380:257|353:240|353:240|296:240,1,146.250005578995,2|0,1:2|0:0,0:0:0:0:
171,94,24964,5,6,1:2:0:0:
171,94,25236,2,0,P|178:117|172:140,1,48.750001859665
107,32,25509,2,0,P|171:2|236:31,1,146.250005578995,2|0,1:2|0:0,0:0:0:0:
375,138,26054,5,2,1:2:0:0:
299,183,26191,2,0,B|280:136|280:136|300:92,1,97.50000371933,10|0,0:0|0:0,0:0:0:0:
462,93,26600,2,0,B|462:141,1,48.750001859665,8|2,0:0|0:0,0:0:0:0:
462,269,26873,1,8,0:0:0:0:
462,269,27145,6,0,B|436:284|436:284|374:252|374:252|347:267,1,130,2|2,1:2|0:0,0:0:0:0:
269,314,27554,1,0,0:0:0:0:
178,182,27691,2,0,B|237:208|237:208|297:182,1,130,10|2,0:0|0:0,0:0:0:0:
235,108,28100,1,0,0:0:0:0:
104,242,28236,5,2,1:2:0:0:
178,301,28373,2,0,P|200:241|178:182,1,130,2|2,0:0|0:0,0:0:0:0:
39,242,28782,2,0,B|104:242,1,65,8|0,0:0|0:0,0:0:0:0:
177,181,29054,1,2,0:0:0:0:
334,314,29327,5,0,1:0:0:0:
334,314,29464,1,0,0:0:0:0:
334,314,29600,2,0,B|365:324|365:324|394:312,1,65,0|0,1:0|0:0,0:0:0:0:
364,152,29873,2,0,P|319:189|363:227,1,130,8|2,0:0|0:0,0:0:0:0:
445,192,30282,1,0,0:0:0:0:
363,62,30418,5,2,1:2:0:0:
444,30,30554,2,0,P|452:61|444:92,1,65,2|0,0:0|0:0,0:0:0:0:
364,152,30827,1,2,0:0:0:0:
282,30,30964,2,0,B|228:30|228:30|210:19|210:19|155:19,1,130,8|2,0:0|0:0,0:0:0:0:
84,76,31373,1,0,0:0:0:0:
178,182,31509,5,2,1:2:0:0:
178,182,31782,2,0,P|187:212|177:242,1,65,2|0,0:0|0:0,0:0:0:0:
21,283,32054,2,0,B|9:267|17:253|17:253|89:253|89:253|104:242|104:242|180:242,1,195,10|0,0:0|0:0,0:0:0:0:
333,315,32600,5,2,1:2:0:0:
333,315,32873,2,0,P|323:284|333:254,1,65,2|0,0:0|0:0,0:0:0:0:
488,213,33145,2,0,B|500:229|492:243|492:243|420:243|420:243|405:254|405:254|328:254,1,195,10|0,0:0|0:0,0:0:0:0:
256,131,33691,5,2,1:2:0:0:
256,131,33964,2,0,P|246:100|256:70,1,65,10|0,0:0|0:0,0:0:0:0:
409,10,34236,1,10,0:0:0:0:
342,70,34373,1,8,0:0:0:0:
409,131,34509,2,0,B|477:131,1,65,2|0,0:0|0:0,0:0:0:0:
410,248,34782,6,0,P|385:189|409:130,1,130,8|0,0:3|0:0,0:0:0:0:
256,131,35191,2,0,P|280:189|256:248,1,130,8|2,0:3|0:0,0:0:0:0:
179,297,35600,1,10,0:0:0:0:
102,248,35736,1,10,0:0:0:0:
25,297,35873,6,0,B|12:328|12:328|25:357,1,65,2|0,0:3|0:0,0:0:0:0:
179,356,36418,2,0,B|192:325|192:325|178:295,1,65,0|0,1:0|0:0,0:0:0:0:
102,183,36964,6,0,L|102:248,1,65,2|0,0:3|0:0,0:0:0:0:
11,182,37373,2,0,P|63:198|106:178,1,97.5
53,35,38054,6,0,P|45:66|54:98,1,65,2|0,0:3|0:0,0:0:0:0:
179,217,38600,1,0,1:0:0:0:
305,97,38873,2,0,L|337:97,1,32.5,0|0,0:0|0:0,0:0:0:0:
426,97,39145,1,2,0:3:0:0:
346,262,39418,5,2,0:0:0:0:
426,307,39691,1,2,1:2:0:0:
505,262,39964,1,2,0:0:0:0:
346,197,40236,6,0,L|346:262,1,65,4|0,0:0|0:0,0:0:0:0:
179,261,40782,2,0,L|179:196,1,65,0|0,1:0|0:0,0:0:0:0:
262,49,41327,6,0,L|262:147,2,97.5,2|0|0,0:3|0:0|0:0,0:0:0:0:
180,191,42418,5,6,1:2:0:0:
106,94,42691,1,8,0:3:0:0:
262,146,42964,5,8,0:3:0:0:
186,49,43237,1,8,0:3:0:0:
344,101,43509,5,2,1:2:0:0:
268,4,43782,1,2,1:2:0:0:
420,4,44054,6,0,L|420:37,1,32.5,10|0,0:0|0:0,0:0:0:0:
344,133,44327,2,0,L|344:100,1,32.5,8|0,0:0|0:0,0:0:0:0:
496,100,44600,6,0,B|496:270,1,170.625006508827,6|0,1:2|0:0,0:0:0:0:
496,270,45145,1,8,0:0:0:0:
343,348,45418,6,0,B|344:367|388:373|413:330|391:308|362:322|357:266|385:229,1,170.625006508827,6|0,1:2|0:0,0:0:0:0:
382,232,45964,2,0,B|333:232,1,48.750001859665,10|0,0:0|0:0,0:0:0:0:
214,160,46236,2,0,B|262:160,1,48.750001859665,10|0,0:0|0:0,0:0:0:0:
262,304,46509,6,0,B|208:304|208:304|190:315|190:315|135:315,1,130,6|0,1:2|0:0,0:0:0:0:
34,161,47054,5,2,0:0:0:0:
96,197,47190,1,2,0:0:0:0:
35,233,47327,1,10,0:0:0:0:
126,81,47600,5,2,0:0:0:0:
65,45,47737,1,2,0:0:0:0:
127,9,47873,1,2,1:2:0:0:
276,124,48145,5,2,0:0:0:0:
214,160,48281,1,2,0:0:0:0:
275,196,48418,1,10,0:0:0:0:
420,32,48691,5,2,0:0:0:0:
379,110,48827,1,2,0:0:0:0:
331,36,48964,1,2,1:2:0:0:
512,196,49236,5,2,0:0:0:0:
471,118,49372,1,2,0:0:0:0:
422,192,49509,2,0,B|385:234|415:292|440:277|456:330|424:372,1,195,10|0,0:0|0:0,0:0:0:0:
349,326,50054,1,10,0:0:0:0:
193,99,50600,6,0,B|213:90|213:90|233:98,2,43.3333333333333,2|2|2,0:0|0:0|0:0,0:0:0:0:
185,117,50873,5,2,0:0:0:0:
177,135,50963,5,2,0:0:0:0:
169,153,51054,5,2,0:0:0:0:
161,171,51145,6,0,P|94:199|26:168,1,149.500002851486,6|0,1:2|0:0,0:0:0:0:
94,109,51554,1,0,0:0:0:0:
196,264,51691,2,0,P|262:235|329:264,1,149.500002851486,10|0,0:0|0:0,0:0:0:0:
401,318,52100,1,2,0:0:0:0:
473,193,52236,2,0,P|483:228|472:263,1,74.7500014257431,0|0,1:0|0:0,0:0:0:0:
329,264,52509,2,0,P|318:228|328:193,1,74.7500014257431
401,55,52782,5,10,0:0:0:0:
327,3,52918,1,2,0:0:0:0:
254,55,53054,1,2,0:0:0:0:
179,3,53191,1,2,0:0:0:0:
101,169,53327,6,0,P|182:132|101:95,1,224.250004277229,2|0,1:2|0:0,0:0:0:0:
19,133,53873,2,0,B|-9:165|13:210|32:198|45:239|20:272,1,149.500002851486,10|0,0:0|0:0,0:0:0:0:
85,334,54282,1,2,0:0:0:0:
223,271,54418,2,0,B|148:271,1,74.7500014257431,0|0,1:0|0:0,0:0:0:0:
286,334,54691,5,2,0:0:0:0:
357,224,54827,1,2,0:0:0:0:
429,334,54964,1,10,0:0:0:0:
429,334,55236,2,0,B|415:299|415:299|427:263,1,74.7500014257431,10|2,0:0|0:0,0:0:0:0:
505,116,55509,6,0,B|437:147|437:147|369:116,1,149.500002851486,6|2,1:2|0:0,0:0:0:0:
289,73,55918,1,0,0:0:0:0:
141,181,56054,2,0,B|209:150|209:150|277:181,1,149.500002851486,10|2,0:0|0:0,0:0:0:0:
357,224,56463,1,0,0:0:0:0:
208,349,56600,6,0,P|188:299|209:248,1,112.125002138615,2|0,1:2|0:0,0:0:0:0:
209,247,56873,1,2,0:0:0:0:
277,181,57009,1,2,0:0:0:0:
141,110,57145,2,0,P|151:145|141:180,1,74.7500014257431,8|0,0:0|0:0,0:0:0:0:
0,246,57418,2,0,P|35:236|70:246,1,74.7500014257431,10|0,0:0|0:0,0:0:0:0:
208,349,57691,6,0,B|267:349|267:349|294:331|294:331|352:331,1,149.500002851486,6|0,1:2|0:0,0:0:0:0:
403,257,58100,1,0,0:0:0:0:
277,181,58236,2,0,L|351:181,1,74.7500014257431,14|0,0:0|0:0,0:0:0:0:
403,257,58509,1,0,0:0:0:0:
491,85,58645,6,0,B|425:119|425:119|358:86,1,149.500002851486,6|8,1:2|0:0,0:0:0:0:
213,34,59054,2,0,B|247:20|247:20|283:34,1,74.7500014257431,2|2,1:2|0:0,0:0:0:0:
351,181,59327,5,10,0:0:0:0:
302,257,59464,1,2,1:2:0:0:
253,333,59600,1,8,0:3:0:0:
253,333,59873,6,0,B|187:299|187:299|120:332,1,149.500002851486,6|0,1:2|0:0,0:0:0:0:
41,377,60282,1,0,0:0:0:0:
41,188,60418,2,0,B|107:222|107:222|174:189,1,149.500002851486,10|0,0:0|0:0,0:0:0:0:
245,133,60827,1,2,0:0:0:0:
108,58,60964,2,0,L|108:132,1,74.7500014257431,0|0,1:0|0:0,0:0:0:0:
245,133,61236,2,0,L|245:58,1,74.7500014257431,2|0,0:0|0:0,0:0:0:0:
174,188,61509,5,10,0:0:0:0:
245,242,61645,1,0,0:0:0:0:
316,188,61781,1,2,0:0:0:0:
316,188,61918,1,2,0:0:0:0:
402,339,62054,6,0,B|380:293|380:293|427:182|427:182|402:138,1,224.250004277229,2|0,1:2|0:0,0:0:0:0:
467,75,62600,2,0,P|400:104|333:75,1,149.500002851486,10|0,0:0|0:0,0:0:0:0:
266,14,63009,1,2,0:0:0:0:
125,75,63145,2,0,B|200:75,1,74.7500014257431,0|0,1:0|0:0,0:0:0:0:
316,188,63418,5,2,0:0:0:0:
206,259,63554,1,2,0:0:0:0:
316,331,63691,1,10,0:0:0:0:
316,331,63964,2,0,P|280:321|244:330,1,74.7500014257431,10|2,0:0|0:0,0:0:0:0:
89,376,64236,6,0,P|122:312|88:248,1,149.500002851486,6|2,1:2|0:0,0:0:0:0:
25,184,64645,1,0,0:0:0:0:
151,56,64782,2,0,P|117:119|151:183,1,149.500002851486,10|2,0:0|0:0,0:0:0:0:
215,248,65191,1,0,0:0:0:0:
377,182,65327,5,2,1:2:0:0:
377,182,65464,2,0,P|325:162|274:181,1,112.125002138615,2|0,0:0|0:0,0:0:0:0:
274,180,65736,1,2,0:0:0:0:
326,335,65873,2,0,B|326:261,1,74.7500014257431,8|0,0:0|0:0,0:0:0:0:
451,182,66145,2,0,B|377:182,1,74.7500014257431,10|0,0:0|0:0,0:0:0:0:
246,69,66418,6,0,B|206:56|172:92|189:106|155:132|116:120,1,149.500002851486,6|0,1:2|0:0,0:0:0:0:
39,73,66827,1,0,0:0:0:0:
0,228,66964,2,0,B|35:215|35:215|69:227,1,74.7500014257431,14|0,0:0|0:0,0:0:0:0:
148,271,67236,1,0,0:0:0:0:
0,364,67373,6,0,B|31:378|31:378|105:347|105:347|135:364,1,149.500002851486,6|0,1:2|1:0,0:0:0:0:
288,329,67782,2,0,B|253:342|253:342|218:330,1,74.7500014257431,2|2,0:0|1:2,0:0:0:0:
70,227,68054,5,10,0:0:0:0:
148,182,68191,1,8,0:3:0:0:
148,182,68327,1,8,0:3:0:0:
288,329,68600,5,6,1:2:0:0:
414,207,68873,1,0,0:0:0:0:
414,207,69145,2,0,B|414:109,1,97.50000371933,8|0,0:0|1:0,0:0:0:0:
345,46,69554,1,0,0:0:0:0:
186,110,69691,6,0,B|232:127|232:127|277:109,1,97.50000371933,2|0,1:2|0:0,0:0:0:0:
414,207,70145,1,2,1:2:0:0:
398,198,70236,2,0,B|376:190|376:190|352:199,1,48.750001859665,8|0,0:0|0:0,0:0:0:0:
282,259,70509,2,0,B|258:268|258:268|236:260,1,48.750001859665,0|0,0:0|0:0,0:0:0:0:
93,110,70782,5,6,1:2:0:0:
0,233,71054,1,0,0:0:0:0:
0,233,71327,2,0,B|0:294,1,48.750001859665,8|0,0:0|0:0,0:0:0:0:
62,350,71600,2,0,B|113:350,1,48.750001859665,0|0,1:0|0:0,0:0:0:0:
236,260,71873,6,0,B|227:283|227:283|237:306,2,48.750001859665,2|0|0,1:2|0:0|0:0,0:0:0:0:
321,165,72327,1,2,1:2:0:0:
336,178,72418,1,8,0:0:0:0:
431,165,72600,1,0,1:0:0:0:
446,178,72691,1,8,0:0:0:0:
388,354,72964,5,6,1:2:0:0:
236,305,73236,1,0,0:0:0:0:
236,305,73509,2,0,L|187:305,1,48.750001859665,8|0,0:0|0:0,0:0:0:0:
110,253,73782,2,0,L|110:205,1,48.750001859665,0|0,1:0|0:0,0:0:0:0:
185,64,74054,6,0,P|202:108|187:154,1,97.50000371933,2|0,1:2|0:0,0:0:0:0:
47,118,74509,1,2,1:2:0:0:
62,108,74600,2,0,P|85:102|109:107,1,48.750001859665,8|0,0:0|1:0,0:0:0:0:
186,154,74873,2,0,P|209:160|233:155,1,48.750001859665,8|0,0:0|0:0,0:0:0:0:
329,27,75145,6,0,B|303:87|303:87|330:146,1,130,6|0,1:2|0:0,0:0:0:0:
375,225,75554,1,0,0:0:0:0:
280,353,75691,2,0,B|306:293|306:293|279:234,1,130,10|0,0:0|0:0,0:0:0:0:
233,154,76100,1,0,0:0:0:0:
125,234,76236,6,0,L|190:234,1,65,2|0,1:2|0:0,0:0:0:0:
190,74,76509,2,0,L|92:74,1,97.5,0|0,0:0|0:0,0:0:0:0:
92,74,76782,2,0,P|48:119|58:180,1,130,10|0,0:0|0:0,0:0:0:0:
158,317,77327,6,0,B|195:334|232:303|217:287|252:267|289:282,1,146.250005578995,6|0,1:2|0:0,0:0:0:0:
449,354,77873,2,0,B|412:282|412:282|448:209,1,162.500006198883,8|8,0:0|0:3,0:0:0:0:
272,69,78691,1,10,0:0:0:0:
350,22,78873,1,2,1:2:0:0:
360,39,78964,2,0,B|373:70|373:70|359:99,1,65.0000024795533,10|2,0:0|0:0,0:0:0:0:
350,115,79236,1,10,0:0:0:0:
289,282,79509,6,0,L|191:282,1,97.5,6|0,1:2|0:0,0:0:0:0:
191,282,79782,2,0,B|204:252|204:252|191:222,1,65,2|0,0:0|1:0,0:0:0:0:
118,336,80054,1,8,0:0:0:0:
44,281,80191,2,0,B|31:251|31:251|44:221,1,65,2|0,0:0|0:0,0:0:0:0:
43,103,80464,6,0,B|28:129|28:129|55:194|55:194|43:222,1,130,2|0,1:2|0:0,0:0:0:0:
146,121,80872,2,0,B|191:102|191:102|236:122,1,97.5,2|0,1:2|0:0,0:0:0:0:
235,121,81145,1,10,0:0:0:0:
303,60,81281,1,0,1:0:0:0:
370,121,81418,1,2,0:0:0:0:
491,1,81691,6,0,B|473:45|473:45|491:92,1,97.5,2|0,1:2|0:0,0:0:0:0:
490,91,81963,2,0,L|490:156,1,65,2|0,0:0|1:0,0:0:0:0:
490,247,82236,1,8,0:0:0:0:
346,201,82372,2,0,L|411:201,1,65,2|0,0:0|0:0,0:0:0:0:
346,321,82645,6,0,B|371:293|351:253|335:263|325:228|346:200,1,130,2|0,1:2|0:0,0:0:0:0:
190,200,83054,2,0,P|207:244|189:289,1,97.5,2|0,1:2|0:0,0:0:0:0:
189,288,83327,1,10,0:0:0:0:
117,345,83463,1,0,1:0:0:0:
44,289,83600,1,10,0:0:0:0:
190,200,83872,6,0,B|287:200,1,97.5,2|0,1:2|0:0,0:0:0:0:
287,200,84145,2,0,L|287:135,1,65,2|0,0:0|1:0,0:0:0:0:
339,60,84418,1,8,0:0:0:0:
394,200,84554,2,0,B|394:135,1,65,2|0,0:0|0:0,0:0:0:0:
511,136,84827,6,0,P|453:159|394:135,1,130,2|0,1:2|0:0,0:0:0:0:
248,52,85236,2,0,P|202:36|158:52,1,97.5,2|0,1:2|0:0,0:0:0:0:
157,52,85509,1,10,0:0:0:0:
87,109,85645,1,0,1:0:0:0:
15,52,85782,1,10,0:0:0:0:
39,203,86054,6,0,B|86:222|86:222|130:204,1,97.5,6|0,1:2|0:0,0:0:0:0:
129,204,86327,2,0,P|120:234|128:265,1,65,2|0,0:0|0:0,0:0:0:0:
205,375,86600,2,0,P|214:344|206:314,1,65,10|0,0:0|0:0,0:0:0:0:
283,203,86873,2,0,P|274:234|283:265,1,65,10|0,0:0|1:0,0:0:0:0:
429,375,87145,5,14,0:0:0:0:
488,305,87282,1,8,0:0:0:0:
369,235,87418,2,0,B|400:247|400:247|429:235,1,65,2|0,1:2|0:0,0:0:0:0:
512,142,87691,2,0,B|481:154|481:154|452:142,1,65,10|0,0:0|0:0,0:0:0:0:
332,70,87964,2,0,B|363:82|363:82|392:70,1,65,2|0,1:2|0:0,0:0:0:0:
512,0,88236,5,6,1:2:0:0:
256,192,88327,12,0,90418,0:0:0:0:
